osu file format v14

[General]
AudioFilename: audio.mp3
AudioLeadIn: 0
PreviewTime: 47382
Countdown: 0
SampleSet: Normal
StackLeniency: 0.7
Mode: 1
LetterboxInBreaks: 0
WidescreenStoryboard: 0

[Editor]
DistanceSpacing: 1
BeatDivisor: 2
GridSize: 4
TimelineZoom: 2.699999

[Metadata]
Title:inlove
TitleUnicode:inlove
Artist:Sewerslvt
ArtistUnicode:Sewerslvt
Creator:Horiiizon
Version:incompatible
Source:
Tags:breakcore atmospheric drum and bass dnb experimental infatuation worthlessness selected electronic instrumental axer
BeatmapID:2719092
BeatmapSetID:1311932

[Difficulty]
HPDrainRate:5
CircleSize:5
OverallDifficulty:6
ApproachRate:5
SliderMultiplier:1.4
SliderTickRate:1

[Events]
//Background and Video events
0,0,"infatuation ep.png",0,-20
//Break Periods
//Storyboard Layer 0 (Background)
//Storyboard Layer 1 (Fail)
//Storyboard Layer 2 (Pass)
//Storyboard Layer 3 (Foreground)
//Storyboard Layer 4 (Overlay)
//Storyboard Sound Samples

[TimingPoints]
132,375,4,1,0,70,1,0
24085,-100,4,1,0,60,0,0
46585,-100,4,1,0,50,0,0
46819,-102.941176470588,4,1,0,50,0,0
46881,-103.960396039604,4,1,0,50,0,0
46944,-105,4,1,0,50,0,0
47006,-106.060606060606,4,1,0,50,0,0
47194,-109.375,4,1,0,50,0,0
47256,-110.526315789474,4,1,0,50,0,0
47319,-111.702127659574,4,1,0,50,0,0
47381,-112.903225806452,4,1,0,50,0,0
47475,-114.754098360656,4,1,0,50,0,0
47569,-116.666666666667,4,1,0,50,0,0
47756,-120.689655172414,4,1,0,50,0,0
47944,-125,4,1,0,50,0,0
48085,-100,4,1,0,80,0,0
48132,-83.3333333333333,4,1,0,80,0,1
70819,-86.0215053763441,4,1,0,80,0,1
70913,-87.431693989071,4,1,0,80,0,1
71006,-88.8888888888889,4,1,0,80,0,1
71100,-90.3954802259887,4,1,0,80,0,1
71194,-91.9540229885058,4,1,0,80,0,1
71256,-93.0232558139535,4,1,0,80,0,1
71319,-94.1176470588235,4,1,0,80,0,1
71381,-95.2380952380952,4,1,0,80,0,1
71475,-96.969696969697,4,1,0,80,0,1
71569,-98.7654320987654,4,1,0,80,0,1
71756,-102.564102564103,4,1,0,80,0,1
71819,-103.896103896104,4,1,0,80,0,1
71881,-105.263157894737,4,1,0,80,0,1
71944,-106.666666666667,4,1,0,80,0,1
72085,-100,4,1,0,50,0,1
72132,-111.111111111111,4,1,0,50,0,0
84007,-100,4,1,0,50,0,0
84085,-100,4,1,0,60,0,0
106585,-100,4,1,0,50,0,0
106819,-102.941176470588,4,1,0,50,0,0
106881,-103.960396039604,4,1,0,50,0,0
106944,-105,4,1,0,50,0,0
107006,-106.060606060606,4,1,0,50,0,0
107194,-109.375,4,1,0,50,0,0
107256,-110.526315789474,4,1,0,50,0,0
107319,-111.702127659574,4,1,0,50,0,0
107381,-112.903225806452,4,1,0,50,0,0
107475,-114.754098360656,4,1,0,50,0,0
107569,-116.666666666667,4,1,0,50,0,0
107756,-120.689655172414,4,1,0,50,0,0
107944,-125,4,1,0,50,0,0
108085,-83.3333333333333,4,1,0,80,0,0
108132,-83.3333333333333,4,1,0,80,0,1
130819,-86.0215053763441,4,1,0,80,0,1
130913,-87.431693989071,4,1,0,80,0,1
131006,-88.8888888888889,4,1,0,80,0,1
131100,-90.3954802259887,4,1,0,80,0,1
131194,-91.9540229885058,4,1,0,80,0,1
131256,-93.0232558139535,4,1,0,80,0,1
131319,-94.1176470588235,4,1,0,80,0,1
131381,-95.2380952380952,4,1,0,80,0,1
131475,-96.969696969697,4,1,0,80,0,1
131569,-98.7654320987654,4,1,0,80,0,1
131756,-102.564102564103,4,1,0,80,0,1
131819,-103.896103896104,4,1,0,80,0,1
131881,-105.263157894737,4,1,0,80,0,1
131944,-106.666666666667,4,1,0,80,0,1
132085,-111.111111111111,4,1,0,30,0,1
132132,-111.111111111111,4,1,0,30,0,0
133585,-116.279069767442,4,1,0,29,0,0
134147,-118.343195266272,4,1,0,28,0,0
135085,-121.951219512195,4,1,0,27,0,0
136585,-128.205128205128,4,1,0,26,0,0
137147,-130.718954248366,4,1,0,25,0,0
138085,-135.135135135135,4,1,0,24,0,0
139585,-142.857142857143,4,1,0,23,0,0
140147,-145.985401459854,4,1,0,22,0,0
141085,-151.515151515152,4,1,0,21,0,0
142585,-161.290322580645,4,1,0,20,0,0
143147,-165.289256198347,4,1,0,19,0,0
144085,-172.413793103448,4,1,0,18,0,0
145585,-185.185185185185,4,1,0,17,0,0
146147,-190.47619047619,4,1,0,16,0,0
147085,-200,4,1,0,15,0,0
148585,-217.391304347826,4,1,0,14,0,0
149147,-224.719101123595,4,1,0,13,0,0
150085,-238.095238095238,4,1,0,12,0,0
151585,-263.157894736842,4,1,0,11,0,0
152147,-273.972602739726,4,1,0,10,0,0
153085,-294.117647058824,4,1,0,9,0,0
154585,-333.333333333333,4,1,0,8,0,0
155147,-350.877192982456,4,1,0,7,0,0

[HitObjects]
216,187,132,5,0,0:0:0:0:
218,239,319,1,8,0:0:0:0:
218,239,413,1,0,0:0:0:0:
218,239,507,1,8,0:0:0:0:
216,187,694,1,0,0:0:0:0:
216,187,882,1,8,0:0:0:0:
216,187,975,1,8,0:0:0:0:
216,187,1069,1,0,0:0:0:0:
216,187,1257,1,0,0:0:0:0:
216,187,1444,1,8,0:0:0:0:
229,219,1632,1,0,0:0:0:0:
247,220,1819,1,0,0:0:0:0:
247,220,1913,1,0,0:0:0:0:
247,220,2007,1,8,0:0:0:0:
212,229,2194,1,0,0:0:0:0:
212,229,2288,1,0,0:0:0:0:
212,229,2382,1,8,0:0:0:0:
212,229,2475,1,8,0:0:0:0:
217,227,2569,1,0,0:0:0:0:
218,227,2757,1,8,0:0:0:0:
226,182,3038,1,8,0:0:0:0:
223,189,3132,1,0,0:0:0:0:
218,239,3319,1,8,0:0:0:0:
222,173,3413,1,0,0:0:0:0:
224,188,3507,1,0,0:0:0:0:
216,187,3694,1,0,0:0:0:0:
216,187,3882,1,8,0:0:0:0:
216,187,3975,1,8,0:0:0:0:
216,187,4069,1,0,0:0:0:0:
216,187,4257,1,0,0:0:0:0:
215,224,4444,1,0,0:0:0:0:
215,224,4632,1,8,0:0:0:0:
215,224,4819,1,8,0:0:0:0:
221,227,4913,1,0,0:0:0:0:
221,228,5007,1,8,0:0:0:0:
212,229,5194,1,0,0:0:0:0:
212,229,5288,1,0,0:0:0:0:
212,229,5382,1,8,0:0:0:0:
202,216,5475,1,0,0:0:0:0:
202,216,5569,1,8,0:0:0:0:
202,217,5757,1,0,0:0:0:0:
206,167,6038,1,8,0:0:0:0:
196,150,6132,1,0,0:0:0:0:
193,167,6319,1,8,0:0:0:0:
221,247,6413,1,0,0:0:0:0:
209,226,6507,1,8,0:0:0:0:
216,187,6694,1,0,0:0:0:0:
242,262,6882,1,0,0:0:0:0:
216,187,6975,1,8,0:0:0:0:
216,187,7069,1,0,0:0:0:0:
216,187,7257,1,0,0:0:0:0:
216,187,7444,1,8,0:0:0:0:
229,219,7632,1,0,0:0:0:0:
247,220,7819,1,0,0:0:0:0:
247,220,7913,1,0,0:0:0:0:
247,220,8007,1,8,0:0:0:0:
212,229,8194,1,0,0:0:0:0:
208,183,8288,1,8,0:0:0:0:
212,229,8382,1,8,0:0:0:0:
208,183,8475,1,0,0:0:0:0:
217,227,8569,1,0,0:0:0:0:
218,227,8757,1,8,0:0:0:0:
226,182,9038,1,8,0:0:0:0:
223,189,9132,1,0,0:0:0:0:
220,197,9319,1,0,0:0:0:0:
263,215,9413,1,8,0:0:0:0:
263,215,9507,1,0,0:0:0:0:
216,187,9694,1,0,0:0:0:0:
216,187,9882,1,8,0:0:0:0:
216,187,9975,1,8,0:0:0:0:
216,187,10069,1,0,0:0:0:0:
225,219,10257,1,8,0:0:0:0:
215,224,10444,1,0,0:0:0:0:
215,224,10632,1,8,0:0:0:0:
215,224,10819,1,8,0:0:0:0:
221,227,10913,1,0,0:0:0:0:
221,228,11007,1,8,0:0:0:0:
212,229,11194,1,0,0:0:0:0:
212,229,11288,1,0,0:0:0:0:
212,229,11382,1,8,0:0:0:0:
225,216,11475,1,8,0:0:0:0:
225,216,11569,1,0,0:0:0:0:
202,217,11757,1,0,0:0:0:0:
206,167,12038,1,8,0:0:0:0:
216,187,12132,1,0,0:0:0:0:
218,239,12319,1,8,0:0:0:0:
211,208,12413,1,8,0:0:0:0:
218,239,12507,1,8,0:0:0:0:
216,187,12694,1,0,0:0:0:0:
216,187,12882,1,8,0:0:0:0:
216,187,12975,1,8,0:0:0:0:
216,187,13069,1,0,0:0:0:0:
246,246,13257,1,8,0:0:0:0:
216,187,13444,1,8,0:0:0:0:
229,219,13632,1,0,0:0:0:0:
247,220,13819,1,0,0:0:0:0:
247,220,13913,1,0,0:0:0:0:
247,220,14007,1,8,0:0:0:0:
212,229,14194,1,0,0:0:0:0:
241,262,14288,1,8,0:0:0:0:
212,229,14382,1,8,0:0:0:0:
241,262,14475,1,0,0:0:0:0:
217,227,14569,1,0,0:0:0:0:
218,227,14757,1,8,0:0:0:0:
226,182,15038,1,8,0:0:0:0:
223,189,15132,1,0,0:0:0:0:
218,239,15319,1,8,0:0:0:0:
222,173,15413,1,0,0:0:0:0:
224,188,15507,1,0,0:0:0:0:
216,187,15694,1,0,0:0:0:0:
216,187,15882,1,8,0:0:0:0:
216,187,15975,1,8,0:0:0:0:
216,187,16069,1,0,0:0:0:0:
216,187,16257,1,0,0:0:0:0:
215,224,16444,1,0,0:0:0:0:
215,224,16632,1,8,0:0:0:0:
215,224,16819,1,8,0:0:0:0:
186,205,16913,1,0,0:0:0:0:
221,228,17007,1,8,0:0:0:0:
212,229,17194,1,0,0:0:0:0:
212,229,17288,1,0,0:0:0:0:
212,229,17382,1,8,0:0:0:0:
218,206,17475,1,8,0:0:0:0:
230,208,17569,1,8,0:0:0:0:
201,146,17757,1,8,0:0:0:0:
206,167,18038,1,8,0:0:0:0:
216,187,18132,5,0,0:0:0:0:
218,239,18319,1,8,0:0:0:0:
218,239,18413,1,0,0:0:0:0:
227,196,18507,1,8,0:0:0:0:
216,187,18694,1,0,0:0:0:0:
216,187,18882,1,8,0:0:0:0:
216,187,18975,1,8,0:0:0:0:
216,187,19069,1,0,0:0:0:0:
216,187,19257,1,0,0:0:0:0:
227,229,19444,1,0,0:0:0:0:
216,211,19632,1,8,0:0:0:0:
325,278,19819,1,8,0:0:0:0:
265,222,19913,1,8,0:0:0:0:
268,229,20007,1,0,0:0:0:0:
212,229,20194,1,0,0:0:0:0:
212,229,20288,1,0,0:0:0:0:
212,229,20382,1,8,0:0:0:0:
212,229,20475,1,8,0:0:0:0:
217,227,20569,1,0,0:0:0:0:
218,227,20757,1,8,0:0:0:0:
226,182,21038,1,8,0:0:0:0:
223,189,21132,1,0,0:0:0:0:
218,239,21319,1,8,0:0:0:0:
222,173,21413,1,0,0:0:0:0:
225,225,21507,1,8,0:0:0:0:
216,187,21694,1,0,0:0:0:0:
216,187,21882,1,8,0:0:0:0:
216,187,21975,1,8,0:0:0:0:
216,187,22069,1,0,0:0:0:0:
216,187,22257,1,0,0:0:0:0:
225,182,22444,1,0,0:0:0:0:
223,243,22632,1,0,0:0:0:0:
223,243,22725,1,0,0:0:0:0:
210,192,22819,1,0,0:0:0:0:
221,228,23007,1,8,0:0:0:0:
188,107,23194,1,0,0:0:0:0:
212,229,23288,1,0,0:0:0:0:
201,146,23382,1,8,0:0:0:0:
201,146,23475,1,0,0:0:0:0:
201,146,23569,1,0,0:0:0:0:
199,130,23663,1,8,0:0:0:0:
202,217,23757,1,0,0:0:0:0:
206,167,24038,1,8,0:0:0:0:
196,150,24132,1,0,0:0:0:0:
212,229,24319,1,0,0:0:0:0:
224,228,24507,1,8,0:0:0:0:
223,203,24694,1,0,0:0:0:0:
223,203,24788,1,8,0:0:0:0:
223,203,24882,1,8,0:0:0:0:
223,203,24975,1,0,0:0:0:0:
223,203,25069,1,0,0:0:0:0:
221,196,25257,1,0,0:0:0:0:
221,196,25444,1,8,0:0:0:0:
230,211,25538,1,0,0:0:0:0:
221,197,25632,1,0,0:0:0:0:
220,190,25819,1,8,0:0:0:0:
220,190,25913,1,0,0:0:0:0:
220,190,26007,1,8,0:0:0:0:
220,190,26194,1,0,0:0:0:0:
260,186,26288,1,8,0:0:0:0:
260,186,26475,1,8,0:0:0:0:
260,186,26569,1,0,0:0:0:0:
260,186,26757,1,0,0:0:0:0:
268,191,26944,1,8,0:0:0:0:
268,191,27038,1,8,0:0:0:0:
268,191,27132,1,0,0:0:0:0:
253,194,27319,1,0,0:0:0:0:
224,189,27507,1,8,0:0:0:0:
249,228,27694,1,0,0:0:0:0:
257,239,27788,1,8,0:0:0:0:
261,240,27882,1,8,0:0:0:0:
261,240,27975,1,8,0:0:0:0:
262,240,28069,1,0,0:0:0:0:
254,241,28257,1,0,0:0:0:0:
254,243,28444,1,8,0:0:0:0:
254,243,28538,1,8,0:0:0:0:
254,243,28632,1,0,0:0:0:0:
301,274,28819,1,8,0:0:0:0:
301,274,28913,1,0,0:0:0:0:
301,274,29007,1,8,0:0:0:0:
301,274,29194,1,8,0:0:0:0:
301,274,29288,1,0,0:0:0:0:
301,274,29382,1,8,0:0:0:0:
301,274,29475,1,8,0:0:0:0:
306,273,29569,1,0,0:0:0:0:
306,273,29757,1,0,0:0:0:0:
312,259,29944,1,8,0:0:0:0:
312,259,30038,1,0,0:0:0:0:
312,259,30132,1,0,0:0:0:0:
238,283,30319,1,8,0:0:0:0:
238,283,30413,1,0,0:0:0:0:
238,283,30507,1,8,0:0:0:0:
223,203,30694,1,0,0:0:0:0:
239,205,30788,1,0,0:0:0:0:
223,203,30882,1,8,0:0:0:0:
232,213,30975,1,8,0:0:0:0:
223,203,31069,1,0,0:0:0:0:
221,196,31257,1,0,0:0:0:0:
221,196,31444,1,8,0:0:0:0:
230,211,31538,1,0,0:0:0:0:
223,203,31632,1,8,0:0:0:0:
219,204,31819,1,0,0:0:0:0:
220,190,31913,1,0,0:0:0:0:
220,190,32007,1,8,0:0:0:0:
220,190,32194,1,0,0:0:0:0:
254,195,32288,1,8,0:0:0:0:
220,227,32475,1,8,0:0:0:0:
260,186,32569,1,0,0:0:0:0:
260,186,32757,1,0,0:0:0:0:
268,191,32944,1,8,0:0:0:0:
268,191,33038,1,8,0:0:0:0:
268,191,33132,1,0,0:0:0:0:
253,194,33319,1,0,0:0:0:0:
224,189,33507,1,8,0:0:0:0:
249,228,33694,1,0,0:0:0:0:
257,239,33788,1,8,0:0:0:0:
271,245,33882,1,8,0:0:0:0:
261,240,33975,1,8,0:0:0:0:
262,240,34069,1,0,0:0:0:0:
254,241,34257,1,0,0:0:0:0:
254,243,34444,1,8,0:0:0:0:
254,243,34538,1,8,0:0:0:0:
254,243,34632,1,0,0:0:0:0:
301,274,34819,1,8,0:0:0:0:
301,274,34913,1,0,0:0:0:0:
301,274,35007,1,8,0:0:0:0:
301,274,35194,1,8,0:0:0:0:
301,274,35288,1,0,0:0:0:0:
301,274,35382,1,8,0:0:0:0:
301,274,35475,1,8,0:0:0:0:
306,273,35569,1,0,0:0:0:0:
306,273,35757,1,0,0:0:0:0:
246,192,35944,1,8,0:0:0:0:
246,192,36038,1,0,0:0:0:0:
246,192,36132,1,8,0:0:0:0:
212,229,36319,1,0,0:0:0:0:
224,228,36507,1,8,0:0:0:0:
210,169,36694,1,8,0:0:0:0:
224,171,36788,1,0,0:0:0:0:
223,203,36882,1,8,0:0:0:0:
223,203,36975,1,0,0:0:0:0:
223,203,37069,1,0,0:0:0:0:
221,196,37257,1,0,0:0:0:0:
221,205,37444,1,0,0:0:0:0:
230,211,37538,1,0,0:0:0:0:
223,203,37632,1,8,0:0:0:0:
220,190,37819,1,8,0:0:0:0:
220,190,37913,1,0,0:0:0:0:
207,172,38007,1,0,0:0:0:0:
216,167,38194,1,8,0:0:0:0:
260,186,38288,1,8,0:0:0:0:
260,186,38475,1,8,0:0:0:0:
260,186,38569,1,0,0:0:0:0:
260,186,38757,1,0,0:0:0:0:
268,191,38944,1,8,0:0:0:0:
268,191,39038,1,8,0:0:0:0:
268,191,39132,1,0,0:0:0:0:
253,194,39319,1,0,0:0:0:0:
224,189,39507,1,8,0:0:0:0:
249,228,39694,1,0,0:0:0:0:
202,160,39788,1,8,0:0:0:0:
209,165,39882,1,8,0:0:0:0:
214,172,39975,1,0,0:0:0:0:
216,173,40069,1,8,0:0:0:0:
254,241,40257,1,0,0:0:0:0:
254,243,40444,1,8,0:0:0:0:
254,243,40538,1,8,0:0:0:0:
254,243,40632,1,0,0:0:0:0:
301,274,40819,1,8,0:0:0:0:
301,274,40913,1,0,0:0:0:0:
301,274,41007,1,8,0:0:0:0:
301,274,41194,1,8,0:0:0:0:
301,274,41288,1,0,0:0:0:0:
301,274,41382,1,8,0:0:0:0:
224,175,41475,1,0,0:0:0:0:
306,273,41569,1,0,0:0:0:0:
306,273,41757,1,0,0:0:0:0:
312,259,41944,1,8,0:0:0:0:
170,36,42038,1,8,0:0:0:0:
196,150,42132,1,0,0:0:0:0:
212,229,42319,1,0,0:0:0:0:
224,228,42507,1,8,0:0:0:0:
254,236,42694,1,8,0:0:0:0:
225,209,42788,1,0,0:0:0:0:
226,209,42882,1,8,0:0:0:0:
225,222,42975,1,8,0:0:0:0:
223,203,43069,1,0,0:0:0:0:
221,196,43257,1,0,0:0:0:0:
221,196,43444,1,8,0:0:0:0:
230,211,43538,1,0,0:0:0:0:
242,204,43632,1,0,0:0:0:0:
242,204,43819,1,0,0:0:0:0:
220,190,43913,1,0,0:0:0:0:
220,190,44007,1,8,0:0:0:0:
234,235,44194,1,8,0:0:0:0:
260,186,44288,1,8,0:0:0:0:
260,186,44475,1,8,0:0:0:0:
260,186,44569,1,0,0:0:0:0:
260,186,44757,1,0,0:0:0:0:
268,191,44944,1,8,0:0:0:0:
268,191,45038,1,8,0:0:0:0:
268,191,45132,1,0,0:0:0:0:
253,194,45319,1,0,0:0:0:0:
224,189,45507,1,8,0:0:0:0:
209,214,45694,1,8,0:0:0:0:
257,239,45788,1,8,0:0:0:0:
261,240,45882,1,8,0:0:0:0:
261,240,45975,1,8,0:0:0:0:
201,246,46069,1,0,0:0:0:0:
254,241,46257,5,0,0:0:0:0:
254,243,46444,1,8,0:0:0:0:
254,243,46538,1,8,0:0:0:0:
254,243,46632,1,0,0:0:0:0:
252,265,46819,1,0,0:0:0:0:
233,243,46882,1,8,0:0:0:0:
234,243,46944,1,8,0:0:0:0:
234,243,47007,1,0,0:0:0:0:
243,266,47194,1,8,0:0:0:0:
236,219,47257,1,8,0:0:0:0:
236,219,47319,1,8,0:0:0:0:
251,266,47382,1,0,0:0:0:0:
253,222,47475,1,8,0:0:0:0:
261,227,47569,1,0,0:0:0:0:
270,257,47757,1,8,0:0:0:0:
251,263,47944,1,0,0:0:0:0:
246,313,48132,1,12,0:0:0:0:
254,250,48319,1,0,0:0:0:0:
214,268,48507,1,8,0:0:0:0:
256,298,48694,1,0,0:0:0:0:
257,298,48788,1,0,0:0:0:0:
245,299,48882,1,8,0:0:0:0:
248,299,49069,1,8,0:0:0:0:
256,298,49257,1,8,0:0:0:0:
276,289,49444,1,8,0:0:0:0:
232,248,49538,1,8,0:0:0:0:
188,154,49632,1,0,0:0:0:0:
229,198,49819,1,8,0:0:0:0:
229,198,50007,1,0,0:0:0:0:
234,193,50194,1,8,0:0:0:0:
229,198,50288,1,0,0:0:0:0:
233,201,50382,1,8,0:0:0:0:
303,242,50475,1,8,0:0:0:0:
225,209,50569,1,0,0:0:0:0:
227,212,50757,1,0,0:0:0:0:
229,212,50850,1,0,0:0:0:0:
305,217,50944,1,8,0:0:0:0:
305,217,51007,1,8,0:0:0:0:
305,217,51069,1,8,0:0:0:0:
223,193,51132,1,0,0:0:0:0:
254,250,51319,1,0,0:0:0:0:
214,268,51507,1,8,0:0:0:0:
256,298,51694,1,0,0:0:0:0:
257,298,51788,1,0,0:0:0:0:
245,299,51882,1,8,0:0:0:0:
248,299,52069,1,8,0:0:0:0:
256,298,52257,1,8,0:0:0:0:
276,289,52444,1,8,0:0:0:0:
278,253,52538,1,0,0:0:0:0:
188,154,52632,1,0,0:0:0:0:
229,198,52819,1,8,0:0:0:0:
229,198,53007,1,0,0:0:0:0:
299,311,53100,1,0,0:0:0:0:
234,193,53194,1,8,0:0:0:0:
229,198,53288,1,0,0:0:0:0:
233,201,53382,1,8,0:0:0:0:
242,222,53569,1,8,0:0:0:0:
305,247,53757,1,8,0:0:0:0:
305,247,53850,1,8,0:0:0:0:
248,209,53944,1,0,0:0:0:0:
290,204,54038,1,0,0:0:0:0:
232,214,54132,1,8,0:0:0:0:
250,247,54319,1,0,0:0:0:0:
257,258,54507,1,8,0:0:0:0:
211,230,54694,1,8,0:0:0:0:
237,229,54788,1,0,0:0:0:0:
191,241,54882,1,8,0:0:0:0:
206,214,55069,1,0,0:0:0:0:
200,182,55163,1,0,0:0:0:0:
195,177,55257,1,8,0:0:0:0:
206,214,55444,1,8,0:0:0:0:
200,182,55538,1,8,0:0:0:0:
263,244,55632,1,0,0:0:0:0:
231,227,55819,1,8,0:0:0:0:
231,227,56007,1,0,0:0:0:0:
241,224,56100,1,8,0:0:0:0:
241,224,56194,1,0,0:0:0:0:
224,229,56288,1,0,0:0:0:0:
241,224,56382,1,8,0:0:0:0:
250,206,56569,1,0,0:0:0:0:
250,206,56757,1,0,0:0:0:0:
271,293,56850,1,0,0:0:0:0:
242,271,56944,1,8,0:0:0:0:
242,271,57007,1,8,0:0:0:0:
242,271,57069,1,8,0:0:0:0:
223,193,57132,1,0,0:0:0:0:
254,250,57319,1,0,0:0:0:0:
214,268,57507,1,8,0:0:0:0:
256,298,57694,1,0,0:0:0:0:
257,298,57788,1,0,0:0:0:0:
245,299,57882,1,8,0:0:0:0:
248,299,58069,1,8,0:0:0:0:
256,298,58257,1,8,0:0:0:0:
276,289,58444,1,8,0:0:0:0:
278,253,58538,1,0,0:0:0:0:
188,154,58632,1,0,0:0:0:0:
229,198,58819,1,8,0:0:0:0:
229,198,59007,1,0,0:0:0:0:
299,311,59100,1,0,0:0:0:0:
234,193,59194,1,8,0:0:0:0:
229,198,59288,1,0,0:0:0:0:
233,201,59382,1,8,0:0:0:0:
214,232,59475,1,8,0:0:0:0:
214,232,59569,1,0,0:0:0:0:
305,247,59757,1,8,0:0:0:0:
305,247,59850,1,8,0:0:0:0:
248,209,59944,1,0,0:0:0:0:
215,82,60038,1,0,0:0:0:0:
258,198,60132,1,8,0:0:0:0:
254,250,60319,1,0,0:0:0:0:
214,268,60507,1,8,0:0:0:0:
256,298,60694,1,0,0:0:0:0:
257,298,60788,1,0,0:0:0:0:
245,299,60882,1,8,0:0:0:0:
248,299,61069,1,8,0:0:0:0:
256,298,61257,1,8,0:0:0:0:
276,289,61444,1,8,0:0:0:0:
232,248,61538,1,8,0:0:0:0:
188,154,61632,1,0,0:0:0:0:
229,198,61819,1,8,0:0:0:0:
229,198,62007,1,0,0:0:0:0:
234,193,62194,1,8,0:0:0:0:
229,198,62288,1,0,0:0:0:0:
233,201,62382,1,8,0:0:0:0:
303,242,62475,1,8,0:0:0:0:
225,209,62569,1,0,0:0:0:0:
227,212,62757,1,0,0:0:0:0:
238,249,62850,1,0,0:0:0:0:
238,249,62944,1,8,0:0:0:0:
305,217,63007,1,8,0:0:0:0:
193,248,63069,1,8,0:0:0:0:
223,193,63132,1,0,0:0:0:0:
254,250,63319,1,0,0:0:0:0:
214,268,63507,1,8,0:0:0:0:
256,298,63694,1,0,0:0:0:0:
257,298,63788,1,0,0:0:0:0:
245,299,63882,1,8,0:0:0:0:
248,299,64069,1,8,0:0:0:0:
256,298,64257,1,8,0:0:0:0:
276,289,64444,1,8,0:0:0:0:
278,253,64538,1,0,0:0:0:0:
188,154,64632,1,0,0:0:0:0:
229,198,64819,1,8,0:0:0:0:
229,198,65007,1,0,0:0:0:0:
299,311,65100,1,0,0:0:0:0:
234,193,65194,1,8,0:0:0:0:
229,198,65288,1,0,0:0:0:0:
233,201,65382,1,8,0:0:0:0:
242,222,65569,1,8,0:0:0:0:
305,247,65757,1,8,0:0:0:0:
305,247,65850,1,8,0:0:0:0:
248,209,65944,1,0,0:0:0:0:
216,164,66038,1,0,0:0:0:0:
232,214,66132,1,8,0:0:0:0:
250,247,66319,1,0,0:0:0:0:
257,258,66507,1,8,0:0:0:0:
211,230,66694,1,8,0:0:0:0:
237,229,66788,1,0,0:0:0:0:
191,241,66882,1,8,0:0:0:0:
206,214,67069,1,0,0:0:0:0:
200,182,67163,1,0,0:0:0:0:
195,177,67257,1,8,0:0:0:0:
206,214,67444,1,8,0:0:0:0:
200,182,67538,1,8,0:0:0:0:
263,244,67632,1,0,0:0:0:0:
231,227,67819,1,8,0:0:0:0:
231,227,68007,1,0,0:0:0:0:
241,224,68100,1,8,0:0:0:0:
241,224,68194,1,0,0:0:0:0:
224,229,68288,1,0,0:0:0:0:
241,224,68382,1,8,0:0:0:0:
250,206,68569,1,0,0:0:0:0:
250,206,68757,1,0,0:0:0:0:
271,293,68850,1,0,0:0:0:0:
242,271,68944,1,8,0:0:0:0:
242,271,69007,1,8,0:0:0:0:
242,271,69069,1,8,0:0:0:0:
223,193,69132,1,0,0:0:0:0:
254,250,69319,1,0,0:0:0:0:
214,268,69507,1,8,0:0:0:0:
256,298,69694,1,0,0:0:0:0:
257,298,69788,1,0,0:0:0:0:
245,299,69882,1,8,0:0:0:0:
248,299,70069,1,8,0:0:0:0:
256,298,70257,1,8,0:0:0:0:
226,209,70444,1,0,0:0:0:0:
278,253,70538,1,0,0:0:0:0:
184,154,70632,1,12,0:0:0:0:
253,261,70819,1,0,0:0:0:0:
253,261,70913,1,0,0:0:0:0:
253,261,71007,1,8,0:0:0:0:
228,274,71100,1,0,0:0:0:0:
351,186,71194,1,8,0:0:0:0:
233,228,71257,1,0,0:0:0:0:
233,228,71319,1,0,0:0:0:0:
233,239,71382,1,8,0:0:0:0:
232,222,71475,1,0,0:0:0:0:
233,239,71569,1,8,0:0:0:0:
221,186,71757,1,0,0:0:0:0:
261,227,71819,1,8,0:0:0:0:
261,227,71882,1,8,0:0:0:0:
261,227,71944,1,0,0:0:0:0:
261,227,72132,1,8,0:0:0:0:
270,237,72319,1,8,0:0:0:0:
270,237,72507,1,8,0:0:0:0:
274,239,72882,1,8,0:0:0:0:
275,240,73069,1,8,0:0:0:0:
276,242,73257,1,8,0:0:0:0:
278,243,73538,1,8,0:0:0:0:
279,243,73632,1,0,0:0:0:0:
212,128,73819,1,0,0:0:0:0:
213,217,74007,1,0,0:0:0:0:
222,197,74382,1,0,0:0:0:0:
222,197,74569,1,0,0:0:0:0:
222,197,74757,1,0,0:0:0:0:
222,197,75038,1,0,0:0:0:0:
222,197,75132,1,8,0:0:0:0:
222,183,75319,1,8,0:0:0:0:
222,183,75507,1,8,0:0:0:0:
226,185,75882,1,8,0:0:0:0:
226,185,76069,1,8,0:0:0:0:
226,185,76257,1,8,0:0:0:0:
226,185,76538,1,8,0:0:0:0:
210,196,76632,1,0,0:0:0:0:
211,196,76819,1,0,0:0:0:0:
211,196,77007,1,0,0:0:0:0:
217,197,77382,1,0,0:0:0:0:
217,197,77569,1,0,0:0:0:0:
217,197,77757,1,0,0:0:0:0:
217,197,78038,1,0,0:0:0:0:
261,227,78132,1,8,0:0:0:0:
270,237,78319,1,8,0:0:0:0:
270,237,78507,1,8,0:0:0:0:
274,239,78882,1,8,0:0:0:0:
275,240,79069,1,8,0:0:0:0:
276,242,79257,1,8,0:0:0:0:
278,243,79538,1,8,0:0:0:0:
279,243,79632,1,0,0:0:0:0:
212,128,79819,1,0,0:0:0:0:
213,217,80007,1,0,0:0:0:0:
222,197,80382,1,0,0:0:0:0:
222,197,80569,1,0,0:0:0:0:
222,197,80757,1,0,0:0:0:0:
222,197,81038,1,0,0:0:0:0:
222,197,81132,1,8,0:0:0:0:
222,183,81319,1,8,0:0:0:0:
222,183,81507,1,8,0:0:0:0:
226,185,81882,1,8,0:0:0:0:
226,185,82069,1,8,0:0:0:0:
226,185,82257,1,8,0:0:0:0:
226,185,82538,1,8,0:0:0:0:
210,196,82632,1,0,0:0:0:0:
211,196,82819,1,0,0:0:0:0:
211,196,83007,1,0,0:0:0:0:
217,197,83382,1,0,0:0:0:0:
217,197,83569,1,0,0:0:0:0:
217,197,83757,1,0,0:0:0:0:
217,197,84038,1,0,0:0:0:0:
246,213,84132,1,8,0:0:0:0:
212,229,84319,1,0,0:0:0:0:
224,228,84507,1,8,0:0:0:0:
223,203,84694,1,0,0:0:0:0:
223,203,84788,1,8,0:0:0:0:
223,203,84882,1,8,0:0:0:0:
223,203,84975,1,0,0:0:0:0:
223,203,85069,1,0,0:0:0:0:
221,196,85257,1,0,0:0:0:0:
221,196,85444,1,8,0:0:0:0:
230,211,85538,1,0,0:0:0:0:
221,197,85632,1,0,0:0:0:0:
220,190,85819,1,8,0:0:0:0:
220,190,85913,1,0,0:0:0:0:
220,190,86007,1,8,0:0:0:0:
220,190,86194,1,0,0:0:0:0:
260,186,86288,1,8,0:0:0:0:
260,186,86475,1,8,0:0:0:0:
260,186,86569,1,0,0:0:0:0:
260,186,86757,1,0,0:0:0:0:
268,191,86944,1,8,0:0:0:0:
268,191,87038,1,8,0:0:0:0:
268,191,87132,1,0,0:0:0:0:
253,194,87319,1,0,0:0:0:0:
224,189,87507,1,8,0:0:0:0:
249,228,87694,1,0,0:0:0:0:
257,239,87788,1,8,0:0:0:0:
261,240,87882,1,8,0:0:0:0:
261,240,87975,1,8,0:0:0:0:
262,240,88069,1,0,0:0:0:0:
254,241,88257,1,0,0:0:0:0:
254,243,88444,1,8,0:0:0:0:
254,243,88538,1,8,0:0:0:0:
254,243,88632,1,0,0:0:0:0:
301,274,88819,1,8,0:0:0:0:
301,274,88913,1,0,0:0:0:0:
301,274,89007,1,8,0:0:0:0:
301,274,89194,1,8,0:0:0:0:
301,274,89288,1,0,0:0:0:0:
301,274,89382,1,8,0:0:0:0:
301,274,89475,1,8,0:0:0:0:
306,273,89569,1,0,0:0:0:0:
306,273,89757,1,0,0:0:0:0:
312,259,89944,1,8,0:0:0:0:
312,259,90038,1,0,0:0:0:0:
312,259,90132,1,0,0:0:0:0:
238,283,90319,1,8,0:0:0:0:
238,283,90413,1,0,0:0:0:0:
238,283,90507,1,8,0:0:0:0:
223,203,90694,1,0,0:0:0:0:
239,205,90788,1,0,0:0:0:0:
223,203,90882,1,8,0:0:0:0:
232,213,90975,1,8,0:0:0:0:
223,203,91069,1,0,0:0:0:0:
221,196,91257,1,0,0:0:0:0:
221,196,91444,1,8,0:0:0:0:
230,211,91538,1,0,0:0:0:0:
223,203,91632,1,8,0:0:0:0:
219,204,91819,1,0,0:0:0:0:
220,190,91913,1,0,0:0:0:0:
220,190,92007,1,8,0:0:0:0:
220,190,92194,1,0,0:0:0:0:
254,195,92288,1,8,0:0:0:0:
261,206,92475,1,8,0:0:0:0:
260,186,92569,1,0,0:0:0:0:
260,186,92757,1,0,0:0:0:0:
268,191,92944,1,8,0:0:0:0:
268,191,93038,1,8,0:0:0:0:
268,191,93132,1,0,0:0:0:0:
253,194,93319,1,0,0:0:0:0:
224,189,93507,1,8,0:0:0:0:
249,228,93694,1,0,0:0:0:0:
257,239,93788,1,8,0:0:0:0:
265,212,93882,1,8,0:0:0:0:
261,240,93975,1,8,0:0:0:0:
262,240,94069,1,0,0:0:0:0:
254,241,94257,1,0,0:0:0:0:
254,243,94444,1,8,0:0:0:0:
254,243,94538,1,8,0:0:0:0:
254,243,94632,1,0,0:0:0:0:
301,274,94819,1,8,0:0:0:0:
301,274,94913,1,0,0:0:0:0:
301,274,95007,1,8,0:0:0:0:
301,274,95194,1,8,0:0:0:0:
301,274,95288,1,0,0:0:0:0:
301,274,95382,1,8,0:0:0:0:
301,274,95475,1,8,0:0:0:0:
306,273,95569,1,0,0:0:0:0:
306,273,95757,1,0,0:0:0:0:
246,192,95944,1,8,0:0:0:0:
246,192,96038,1,0,0:0:0:0:
246,192,96132,1,8,0:0:0:0:
212,229,96319,1,0,0:0:0:0:
224,228,96507,1,8,0:0:0:0:
210,169,96694,1,8,0:0:0:0:
224,171,96788,1,0,0:0:0:0:
223,203,96882,1,8,0:0:0:0:
223,203,96975,1,0,0:0:0:0:
223,203,97069,1,0,0:0:0:0:
221,196,97257,1,0,0:0:0:0:
221,205,97444,1,0,0:0:0:0:
230,211,97538,1,0,0:0:0:0:
223,203,97632,1,8,0:0:0:0:
220,190,97819,1,8,0:0:0:0:
220,190,97913,1,0,0:0:0:0:
207,172,98007,1,0,0:0:0:0:
216,167,98194,1,8,0:0:0:0:
260,186,98288,1,8,0:0:0:0:
260,186,98475,1,8,0:0:0:0:
260,186,98569,1,0,0:0:0:0:
260,186,98757,1,0,0:0:0:0:
268,191,98944,1,8,0:0:0:0:
268,191,99038,1,8,0:0:0:0:
268,191,99132,1,0,0:0:0:0:
253,194,99319,1,0,0:0:0:0:
224,189,99507,1,8,0:0:0:0:
249,228,99694,1,0,0:0:0:0:
202,160,99788,1,8,0:0:0:0:
209,165,99882,1,8,0:0:0:0:
214,172,99975,1,0,0:0:0:0:
216,173,100069,1,8,0:0:0:0:
254,241,100257,1,0,0:0:0:0:
254,243,100444,1,8,0:0:0:0:
254,243,100538,1,8,0:0:0:0:
254,243,100632,1,0,0:0:0:0:
301,274,100819,1,8,0:0:0:0:
301,274,100913,1,0,0:0:0:0:
301,274,101007,1,8,0:0:0:0:
301,274,101194,1,8,0:0:0:0:
301,274,101288,1,0,0:0:0:0:
301,274,101382,1,8,0:0:0:0:
224,175,101475,1,0,0:0:0:0:
306,273,101569,1,0,0:0:0:0:
306,273,101757,1,0,0:0:0:0:
312,259,101944,1,8,0:0:0:0:
170,36,102038,1,8,0:0:0:0:
196,150,102132,1,0,0:0:0:0:
212,229,102319,1,0,0:0:0:0:
224,228,102507,1,8,0:0:0:0:
254,236,102694,1,8,0:0:0:0:
225,209,102788,1,0,0:0:0:0:
226,209,102882,1,8,0:0:0:0:
225,222,102975,1,8,0:0:0:0:
223,203,103069,1,0,0:0:0:0:
221,196,103257,1,0,0:0:0:0:
221,196,103444,1,8,0:0:0:0:
230,211,103538,1,0,0:0:0:0:
242,204,103632,1,0,0:0:0:0:
242,204,103819,1,0,0:0:0:0:
220,190,103913,1,0,0:0:0:0:
220,190,104007,1,8,0:0:0:0:
234,235,104194,1,8,0:0:0:0:
260,186,104288,1,8,0:0:0:0:
260,186,104475,1,8,0:0:0:0:
260,186,104569,1,0,0:0:0:0:
260,186,104757,1,0,0:0:0:0:
268,191,104944,1,8,0:0:0:0:
268,191,105038,1,8,0:0:0:0:
268,191,105132,1,0,0:0:0:0:
253,194,105319,1,0,0:0:0:0:
224,189,105507,1,8,0:0:0:0:
209,214,105694,1,8,0:0:0:0:
257,239,105788,1,8,0:0:0:0:
261,240,105882,1,8,0:0:0:0:
261,240,105975,1,8,0:0:0:0:
201,246,106069,1,0,0:0:0:0:
254,241,106257,5,0,0:0:0:0:
254,243,106444,1,8,0:0:0:0:
254,243,106538,1,8,0:0:0:0:
254,243,106632,1,0,0:0:0:0:
252,265,106819,1,0,0:0:0:0:
233,243,106882,1,8,0:0:0:0:
234,243,106944,1,8,0:0:0:0:
234,243,107007,1,0,0:0:0:0:
243,266,107194,1,8,0:0:0:0:
236,219,107257,1,8,0:0:0:0:
236,219,107319,1,8,0:0:0:0:
251,266,107382,1,0,0:0:0:0:
253,222,107475,1,8,0:0:0:0:
261,227,107569,1,0,0:0:0:0:
270,257,107757,1,8,0:0:0:0:
251,263,107944,1,0,0:0:0:0:
246,313,108132,1,12,0:0:0:0:
254,250,108319,1,0,0:0:0:0:
214,268,108507,1,8,0:0:0:0:
256,298,108694,1,0,0:0:0:0:
257,298,108788,1,0,0:0:0:0:
245,299,108882,1,8,0:0:0:0:
248,299,109069,1,8,0:0:0:0:
256,298,109257,1,8,0:0:0:0:
276,289,109444,1,8,0:0:0:0:
232,248,109538,1,8,0:0:0:0:
188,154,109632,1,0,0:0:0:0:
229,198,109819,1,8,0:0:0:0:
229,198,110007,1,0,0:0:0:0:
234,193,110194,1,8,0:0:0:0:
229,198,110288,1,0,0:0:0:0:
233,201,110382,1,8,0:0:0:0:
303,242,110475,1,8,0:0:0:0:
225,209,110569,1,0,0:0:0:0:
227,212,110757,1,0,0:0:0:0:
229,212,110850,1,0,0:0:0:0:
305,217,110944,1,8,0:0:0:0:
305,217,111007,1,8,0:0:0:0:
305,217,111069,1,8,0:0:0:0:
223,193,111132,1,0,0:0:0:0:
254,250,111319,1,0,0:0:0:0:
214,268,111507,1,8,0:0:0:0:
256,298,111694,1,0,0:0:0:0:
257,298,111788,1,0,0:0:0:0:
245,299,111882,1,8,0:0:0:0:
248,299,112069,1,8,0:0:0:0:
256,298,112257,1,8,0:0:0:0:
276,289,112444,1,8,0:0:0:0:
278,253,112538,1,0,0:0:0:0:
188,154,112632,1,0,0:0:0:0:
229,198,112819,1,8,0:0:0:0:
229,198,113007,1,0,0:0:0:0:
299,311,113100,1,0,0:0:0:0:
234,193,113194,1,8,0:0:0:0:
229,198,113288,1,0,0:0:0:0:
233,201,113382,1,8,0:0:0:0:
242,222,113569,1,8,0:0:0:0:
305,247,113757,1,8,0:0:0:0:
305,247,113850,1,8,0:0:0:0:
248,209,113944,1,0,0:0:0:0:
240,219,114038,1,0,0:0:0:0:
232,214,114132,1,8,0:0:0:0:
250,247,114319,1,0,0:0:0:0:
257,258,114507,1,8,0:0:0:0:
211,230,114694,1,8,0:0:0:0:
237,229,114788,1,0,0:0:0:0:
191,241,114882,1,8,0:0:0:0:
206,214,115069,1,0,0:0:0:0:
200,182,115163,1,0,0:0:0:0:
195,177,115257,1,8,0:0:0:0:
206,214,115444,1,8,0:0:0:0:
200,182,115538,1,8,0:0:0:0:
263,244,115632,1,0,0:0:0:0:
231,227,115819,1,8,0:0:0:0:
231,227,116007,1,0,0:0:0:0:
241,224,116100,1,8,0:0:0:0:
241,224,116194,1,0,0:0:0:0:
224,229,116288,1,0,0:0:0:0:
241,224,116382,1,8,0:0:0:0:
250,206,116569,1,0,0:0:0:0:
250,206,116757,1,0,0:0:0:0:
271,293,116850,1,0,0:0:0:0:
242,271,116944,1,8,0:0:0:0:
242,271,117007,1,8,0:0:0:0:
242,271,117069,1,8,0:0:0:0:
223,193,117132,1,0,0:0:0:0:
254,250,117319,1,0,0:0:0:0:
214,268,117507,1,8,0:0:0:0:
256,298,117694,1,0,0:0:0:0:
257,298,117788,1,0,0:0:0:0:
245,299,117882,1,8,0:0:0:0:
248,299,118069,1,8,0:0:0:0:
256,298,118257,1,8,0:0:0:0:
276,289,118444,1,8,0:0:0:0:
278,253,118538,1,0,0:0:0:0:
188,154,118632,1,0,0:0:0:0:
229,198,118819,1,8,0:0:0:0:
229,198,119007,1,0,0:0:0:0:
299,311,119100,1,0,0:0:0:0:
234,193,119194,1,8,0:0:0:0:
229,198,119288,1,0,0:0:0:0:
233,201,119382,1,8,0:0:0:0:
214,232,119475,1,8,0:0:0:0:
214,232,119569,1,0,0:0:0:0:
305,247,119757,1,8,0:0:0:0:
305,247,119850,1,8,0:0:0:0:
248,209,119944,1,0,0:0:0:0:
206,149,120038,1,0,0:0:0:0:
258,198,120132,1,8,0:0:0:0:
254,250,120319,1,0,0:0:0:0:
214,268,120507,1,8,0:0:0:0:
256,298,120694,1,0,0:0:0:0:
257,298,120788,1,0,0:0:0:0:
245,299,120882,1,8,0:0:0:0:
248,299,121069,1,8,0:0:0:0:
256,298,121257,1,8,0:0:0:0:
276,289,121444,1,8,0:0:0:0:
232,248,121538,1,8,0:0:0:0:
188,154,121632,1,0,0:0:0:0:
229,198,121819,1,8,0:0:0:0:
229,198,122007,1,0,0:0:0:0:
234,193,122194,1,8,0:0:0:0:
229,198,122288,1,0,0:0:0:0:
233,201,122382,1,8,0:0:0:0:
303,242,122475,1,8,0:0:0:0:
225,209,122569,1,0,0:0:0:0:
227,212,122757,1,0,0:0:0:0:
229,212,122850,1,0,0:0:0:0:
305,217,122944,1,8,0:0:0:0:
305,217,123007,1,8,0:0:0:0:
270,253,123069,1,8,0:0:0:0:
223,193,123132,1,0,0:0:0:0:
254,250,123319,1,0,0:0:0:0:
214,268,123507,1,8,0:0:0:0:
256,298,123694,1,0,0:0:0:0:
257,298,123788,1,0,0:0:0:0:
245,299,123882,1,8,0:0:0:0:
248,299,124069,1,8,0:0:0:0:
256,298,124257,1,8,0:0:0:0:
276,289,124444,1,8,0:0:0:0:
278,253,124538,1,0,0:0:0:0:
188,154,124632,1,0,0:0:0:0:
229,198,124819,1,8,0:0:0:0:
229,198,125007,1,0,0:0:0:0:
299,311,125100,1,0,0:0:0:0:
234,193,125194,1,8,0:0:0:0:
229,198,125288,1,0,0:0:0:0:
233,201,125382,1,8,0:0:0:0:
242,222,125569,1,8,0:0:0:0:
305,247,125757,1,8,0:0:0:0:
305,247,125850,1,8,0:0:0:0:
248,209,125944,1,0,0:0:0:0:
317,311,126038,1,0,0:0:0:0:
232,214,126132,1,8,0:0:0:0:
250,247,126319,1,0,0:0:0:0:
257,258,126507,1,8,0:0:0:0:
211,230,126694,1,8,0:0:0:0:
237,229,126788,1,0,0:0:0:0:
191,241,126882,1,8,0:0:0:0:
206,214,127069,1,0,0:0:0:0:
200,182,127163,1,0,0:0:0:0:
195,177,127257,1,8,0:0:0:0:
206,214,127444,1,8,0:0:0:0:
200,182,127538,1,8,0:0:0:0:
263,244,127632,1,0,0:0:0:0:
231,227,127819,1,8,0:0:0:0:
231,227,128007,1,0,0:0:0:0:
241,224,128100,1,8,0:0:0:0:
241,224,128194,1,0,0:0:0:0:
224,229,128288,1,0,0:0:0:0:
241,224,128382,1,8,0:0:0:0:
250,206,128569,1,0,0:0:0:0:
250,206,128757,1,0,0:0:0:0:
261,279,128850,1,0,0:0:0:0:
294,252,128944,1,8,0:0:0:0:
242,271,129007,1,8,0:0:0:0:
242,271,129069,1,8,0:0:0:0:
223,193,129132,1,0,0:0:0:0:
254,250,129319,1,0,0:0:0:0:
214,268,129507,1,8,0:0:0:0:
256,298,129694,1,0,0:0:0:0:
257,298,129788,1,0,0:0:0:0:
245,299,129882,1,8,0:0:0:0:
248,299,130069,1,8,0:0:0:0:
256,298,130257,1,8,0:0:0:0:
226,209,130444,1,0,0:0:0:0:
278,253,130538,1,0,0:0:0:0:
184,154,130632,1,12,0:0:0:0:
302,282,130819,1,0,0:0:0:0:
238,206,130913,1,0,0:0:0:0:
252,228,131007,1,8,0:0:0:0:
265,226,131100,1,0,0:0:0:0:
301,228,131194,1,8,0:0:0:0:
301,228,131257,1,8,0:0:0:0:
302,232,131319,1,8,0:0:0:0:
303,234,131382,1,0,0:0:0:0:
234,232,131475,1,8,0:0:0:0:
234,232,131569,1,0,0:0:0:0:
221,186,131757,1,0,0:0:0:0:
261,227,131819,1,8,0:0:0:0:
261,227,131882,1,8,0:0:0:0:
261,227,131944,1,0,0:0:0:0:
217,144,132132,1,8,0:0:0:0:
252,215,133632,1,8,0:0:0:0:
252,215,134194,1,0,0:0:0:0:
258,224,135132,1,0,0:0:0:0:
258,224,136632,1,8,0:0:0:0:
256,209,137194,1,0,0:0:0:0:
218,181,138132,1,8,0:0:0:0:
226,209,139632,1,8,0:0:0:0:
226,209,140194,1,0,0:0:0:0:
226,209,141132,1,0,0:0:0:0:
226,211,142632,1,8,0:0:0:0:
226,211,143194,1,0,0:0:0:0:
226,211,144132,1,8,0:0:0:0:
226,211,145632,1,8,0:0:0:0:
226,211,146194,1,0,0:0:0:0:
226,211,147132,1,0,0:0:0:0:
226,211,148632,1,8,0:0:0:0:
226,211,149194,1,0,0:0:0:0:
226,211,150132,1,8,0:0:0:0:
226,211,151632,1,8,0:0:0:0:
226,211,152194,1,0,0:0:0:0:
226,211,153132,1,0,0:0:0:0:
218,218,154632,1,8,0:0:0:0:
258,131,155194,1,0,0:0:0:0:
