osu file format v14

[General]
AudioFilename: audio.mp3
AudioLeadIn: 0
PreviewTime: 47382
Countdown: 0
SampleSet: Normal
StackLeniency: 0.7
Mode: 1
LetterboxInBreaks: 0
WidescreenStoryboard: 1

[Editor]
DistanceSpacing: 1
BeatDivisor: 4
GridSize: 4
TimelineZoom: 0.8999999

[Metadata]
Title:inlove
TitleUnicode:inlove
Artist:Sewerslvt
ArtistUnicode:Sewerslvt
Creator:Horiiizon
Version:futsuu
Source:
Tags:breakcore atmospheric drum and bass dnb experimental infatuation worthlessness selected electronic instrumental axer
BeatmapID:2774392
BeatmapSetID:1311932

[Difficulty]
HPDrainRate:7
CircleSize:5
OverallDifficulty:4
ApproachRate:5
SliderMultiplier:1.4
SliderTickRate:1

[Events]
//Background and Video events
0,0,"infatuation ep.png",0,-20
//Break Periods
//Storyboard Layer 0 (Background)
//Storyboard Layer 1 (Fail)
//Storyboard Layer 2 (Pass)
//Storyboard Layer 3 (Foreground)
//Storyboard Layer 4 (Overlay)
//Storyboard Sound Samples

[TimingPoints]
132,375,4,1,0,70,1,0
24085,-100,4,1,0,60,0,0
46585,-100,4,1,0,50,0,0
48085,-100,4,1,0,80,0,0
48132,-100,4,1,0,80,0,1
72085,-100,4,1,0,50,0,1
72132,-100,4,1,0,50,0,0
84007,-100,4,1,0,50,0,0
84085,-100,4,1,0,60,0,0
106585,-100,4,1,0,50,0,0
108085,-100,4,1,0,80,0,0
108132,-100,4,1,0,80,0,1
132085,-100,4,1,0,30,0,1
132132,-100,4,1,0,30,0,0
133585,-100,4,1,0,29,0,0
134147,-100,4,1,0,28,0,0
135085,-100,4,1,0,27,0,0
136585,-100,4,1,0,26,0,0
137147,-100,4,1,0,25,0,0
138085,-100,4,1,0,24,0,0
139585,-100,4,1,0,23,0,0
140147,-100,4,1,0,22,0,0
141085,-100,4,1,0,21,0,0
142585,-100,4,1,0,20,0,0
143147,-100,4,1,0,19,0,0
144085,-100,4,1,0,18,0,0
145585,-100,4,1,0,17,0,0
146147,-100,4,1,0,16,0,0
147085,-100,4,1,0,15,0,0
148585,-100,4,1,0,14,0,0
149147,-100,4,1,0,13,0,0
150085,-100,4,1,0,12,0,0
151585,-100,4,1,0,11,0,0
152147,-100,4,1,0,10,0,0
153085,-100,4,1,0,9,0,0
154585,-100,4,1,0,8,0,0
155147,-100,4,1,0,7,0,0

[HitObjects]
252,202,132,5,0,0:0:0:0:
237,190,507,1,8,0:0:0:0:
256,198,694,1,0,0:0:0:0:
251,197,1069,1,0,0:0:0:0:
273,185,1632,1,8,0:0:0:0:
218,116,2382,1,8,0:0:0:0:
229,143,2757,1,8,0:0:0:0:
273,185,3132,1,0,0:0:0:0:
228,152,3507,1,8,0:0:0:0:
259,155,3694,1,0,0:0:0:0:
248,174,4069,1,0,0:0:0:0:
217,156,4632,1,8,0:0:0:0:
230,124,4819,1,8,0:0:0:0:
230,124,5007,1,8,0:0:0:0:
217,156,5382,1,8,0:0:0:0:
230,124,5569,1,8,0:0:0:0:
230,124,5757,1,8,0:0:0:0:
217,156,6132,1,0,0:0:0:0:
235,128,6507,1,8,0:0:0:0:
256,198,6694,1,0,0:0:0:0:
251,197,7069,1,0,0:0:0:0:
273,185,7632,1,8,0:0:0:0:
218,116,8382,1,8,0:0:0:0:
229,143,8757,1,8,0:0:0:0:
273,185,9132,1,0,0:0:0:0:
224,123,9507,1,8,0:0:0:0:
259,155,9694,1,0,0:0:0:0:
248,174,10069,1,0,0:0:0:0:
217,156,10632,1,8,0:0:0:0:
230,124,10819,1,8,0:0:0:0:
230,124,11007,1,8,0:0:0:0:
217,156,11382,1,8,0:0:0:0:
230,124,11569,1,8,0:0:0:0:
230,124,11757,1,8,0:0:0:0:
213,194,12132,1,0,0:0:0:0:
236,152,12507,1,8,0:0:0:0:
256,198,12694,1,0,0:0:0:0:
251,197,13069,1,0,0:0:0:0:
273,185,13632,1,8,0:0:0:0:
218,116,14382,1,8,0:0:0:0:
229,143,14757,1,8,0:0:0:0:
273,185,15132,1,0,0:0:0:0:
237,150,15507,1,8,0:0:0:0:
259,155,15694,1,0,0:0:0:0:
248,174,16069,1,0,0:0:0:0:
217,156,16632,1,8,0:0:0:0:
230,124,16819,1,8,0:0:0:0:
230,124,17007,1,8,0:0:0:0:
217,156,17382,1,8,0:0:0:0:
230,124,17569,1,8,0:0:0:0:
230,124,17757,1,8,0:0:0:0:
230,156,18132,1,0,0:0:0:0:
210,98,18507,1,8,0:0:0:0:
256,198,18694,1,0,0:0:0:0:
251,197,19069,1,0,0:0:0:0:
273,185,19632,1,8,0:0:0:0:
218,116,20382,1,8,0:0:0:0:
229,143,20757,1,8,0:0:0:0:
273,185,21132,1,0,0:0:0:0:
214,98,21507,1,8,0:0:0:0:
259,155,21694,1,0,0:0:0:0:
248,174,22069,1,0,0:0:0:0:
219,176,22632,1,0,0:0:0:0:
219,176,22819,1,0,0:0:0:0:
215,102,23194,1,8,0:0:0:0:
211,105,23382,1,8,0:0:0:0:
230,124,23569,1,8,0:0:0:0:
248,165,23757,1,0,0:0:0:0:
232,147,24132,1,0,0:0:0:0:
207,168,24507,1,8,0:0:0:0:
228,151,24882,1,8,0:0:0:0:
188,96,25069,1,8,0:0:0:0:
228,151,25257,1,0,0:0:0:0:
213,102,25632,1,0,0:0:0:0:
222,112,26007,1,8,0:0:0:0:
227,126,26757,1,0,0:0:0:0:
227,126,27132,1,0,0:0:0:0:
227,126,27507,1,8,0:0:0:0:
211,110,27882,1,8,0:0:0:0:
211,110,28069,1,0,0:0:0:0:
211,110,28257,1,0,0:0:0:0:
240,100,28632,1,0,0:0:0:0:
194,126,29007,1,8,0:0:0:0:
240,100,29382,1,8,0:0:0:0:
249,108,29569,1,8,0:0:0:0:
249,111,29757,1,0,0:0:0:0:
245,171,30132,1,0,0:0:0:0:
207,168,30507,1,8,0:0:0:0:
228,151,30882,1,8,0:0:0:0:
226,151,31069,1,0,0:0:0:0:
228,151,31257,1,0,0:0:0:0:
213,102,31632,1,0,0:0:0:0:
222,112,32007,1,8,0:0:0:0:
227,126,32757,1,0,0:0:0:0:
227,126,33132,1,0,0:0:0:0:
227,126,33507,1,8,0:0:0:0:
211,110,33882,1,8,0:0:0:0:
191,98,34069,1,8,0:0:0:0:
211,110,34257,1,0,0:0:0:0:
240,100,34632,1,0,0:0:0:0:
194,126,35007,1,8,0:0:0:0:
240,100,35382,1,8,0:0:0:0:
218,109,35569,1,0,0:0:0:0:
249,111,35757,1,0,0:0:0:0:
245,171,36132,1,0,0:0:0:0:
207,168,36507,1,8,0:0:0:0:
228,151,36882,1,8,0:0:0:0:
213,102,37069,1,8,0:0:0:0:
228,151,37257,1,0,0:0:0:0:
213,102,37632,1,0,0:0:0:0:
222,112,38007,1,8,0:0:0:0:
227,126,38757,1,0,0:0:0:0:
227,126,39132,1,0,0:0:0:0:
227,126,39507,1,8,0:0:0:0:
211,110,39882,1,8,0:0:0:0:
211,110,40069,1,0,0:0:0:0:
211,110,40257,1,0,0:0:0:0:
240,100,40632,1,0,0:0:0:0:
194,126,41007,1,8,0:0:0:0:
240,100,41382,1,8,0:0:0:0:
249,108,41569,1,8,0:0:0:0:
249,111,41757,1,0,0:0:0:0:
245,171,42132,1,0,0:0:0:0:
207,168,42507,1,8,0:0:0:0:
228,151,42882,1,8,0:0:0:0:
226,151,43069,1,0,0:0:0:0:
228,151,43257,1,0,0:0:0:0:
213,102,43632,1,0,0:0:0:0:
222,112,44007,1,8,0:0:0:0:
227,126,44757,1,0,0:0:0:0:
227,126,45132,1,0,0:0:0:0:
227,126,45507,1,8,0:0:0:0:
211,110,45882,1,8,0:0:0:0:
188,96,46069,1,8,0:0:0:0:
211,110,46257,1,0,0:0:0:0:
216,166,46632,1,0,0:0:0:0:
276,154,46819,1,0,0:0:0:0:
275,155,47007,1,8,0:0:0:0:
240,118,47194,1,8,0:0:0:0:
233,112,47382,1,0,0:0:0:0:
241,119,47757,1,8,0:0:0:0:
233,144,47944,1,8,0:0:0:0:
234,143,48132,1,4,0:0:0:0:
247,156,48882,1,8,0:0:0:0:
241,147,49257,1,8,0:0:0:0:
215,124,49444,1,8,0:0:0:0:
242,151,49632,1,0,0:0:0:0:
220,136,50007,1,0,0:0:0:0:
169,106,50382,1,0,0:0:0:0:
220,136,50757,1,0,0:0:0:0:
214,96,50944,1,8,0:0:0:0:
210,103,51132,1,0,0:0:0:0:
218,144,51882,1,8,0:0:0:0:
212,117,52257,1,8,0:0:0:0:
206,131,52444,1,0,0:0:0:0:
218,144,52632,1,0,0:0:0:0:
146,140,53007,1,0,0:0:0:0:
164,109,53382,1,8,0:0:0:0:
191,145,53757,1,8,0:0:0:0:
201,142,53944,1,0,0:0:0:0:
185,100,54132,1,8,0:0:0:0:
247,156,54882,1,8,0:0:0:0:
241,147,55257,1,8,0:0:0:0:
215,124,55444,1,8,0:0:0:0:
242,151,55632,1,0,0:0:0:0:
220,136,56007,1,0,0:0:0:0:
169,106,56382,1,0,0:0:0:0:
220,136,56757,1,0,0:0:0:0:
214,96,56944,1,8,0:0:0:0:
210,103,57132,1,0,0:0:0:0:
218,144,57882,1,8,0:0:0:0:
212,117,58257,1,8,0:0:0:0:
206,131,58444,1,0,0:0:0:0:
218,144,58632,1,0,0:0:0:0:
209,147,59007,1,0,0:0:0:0:
164,109,59382,1,8,0:0:0:0:
191,145,59757,1,8,0:0:0:0:
201,142,59944,1,0,0:0:0:0:
185,100,60132,1,8,0:0:0:0:
247,156,60882,1,8,0:0:0:0:
241,147,61257,1,8,0:0:0:0:
215,124,61444,1,8,0:0:0:0:
242,151,61632,1,0,0:0:0:0:
220,136,62007,1,0,0:0:0:0:
169,106,62382,1,0,0:0:0:0:
220,136,62757,1,0,0:0:0:0:
214,96,62944,1,8,0:0:0:0:
210,103,63132,1,0,0:0:0:0:
218,144,63882,1,8,0:0:0:0:
212,117,64257,1,8,0:0:0:0:
206,131,64444,1,0,0:0:0:0:
218,144,64632,1,0,0:0:0:0:
146,140,65007,1,0,0:0:0:0:
164,109,65382,1,8,0:0:0:0:
191,145,65757,1,8,0:0:0:0:
201,142,65944,1,0,0:0:0:0:
185,100,66132,1,8,0:0:0:0:
247,156,66882,1,8,0:0:0:0:
241,147,67257,1,8,0:0:0:0:
215,124,67444,1,8,0:0:0:0:
242,151,67632,1,0,0:0:0:0:
220,136,68007,1,0,0:0:0:0:
169,106,68382,1,0,0:0:0:0:
220,136,68757,1,0,0:0:0:0:
214,96,68944,1,8,0:0:0:0:
210,103,69132,1,0,0:0:0:0:
218,144,69882,1,8,0:0:0:0:
227,137,70257,1,0,0:0:0:0:
206,131,70444,1,0,0:0:0:0:
218,144,70632,1,12,0:0:0:0:
230,127,71007,1,8,0:0:0:0:
210,109,71194,1,8,0:0:0:0:
204,116,71382,1,0,0:0:0:0:
211,117,71757,1,8,0:0:0:0:
226,118,71944,1,0,0:0:0:0:
216,112,72132,1,8,0:0:0:0:
248,101,72882,1,8,0:0:0:0:
228,144,73632,5,0,0:0:0:0:
186,113,74382,1,0,0:0:0:0:
218,163,75132,1,8,0:0:0:0:
188,109,75882,1,8,0:0:0:0:
213,170,76632,1,8,0:0:0:0:
214,131,76819,1,8,0:0:0:0:
208,136,77007,1,8,0:0:0:0:
217,170,77382,1,8,0:0:0:0:
214,131,77569,1,8,0:0:0:0:
214,131,77757,1,8,0:0:0:0:
214,159,78132,1,8,0:0:0:0:
245,172,78882,1,8,0:0:0:0:
198,153,79632,1,0,0:0:0:0:
219,144,80382,1,0,0:0:0:0:
198,153,81132,1,8,0:0:0:0:
210,130,81882,1,8,0:0:0:0:
198,153,82632,1,8,0:0:0:0:
219,148,82819,1,8,0:0:0:0:
219,148,83007,1,8,0:0:0:0:
210,130,83382,1,8,0:0:0:0:
219,148,83569,1,8,0:0:0:0:
219,148,83757,1,8,0:0:0:0:
232,147,84132,1,0,0:0:0:0:
207,168,84507,1,8,0:0:0:0:
228,151,84882,1,8,0:0:0:0:
188,96,85069,1,8,0:0:0:0:
228,151,85257,1,0,0:0:0:0:
213,102,85632,1,0,0:0:0:0:
222,112,86007,1,8,0:0:0:0:
227,126,86757,1,0,0:0:0:0:
227,126,87132,1,0,0:0:0:0:
227,126,87507,1,8,0:0:0:0:
211,110,87882,1,8,0:0:0:0:
211,110,88069,1,0,0:0:0:0:
211,110,88257,1,0,0:0:0:0:
240,100,88632,1,0,0:0:0:0:
194,126,89007,1,8,0:0:0:0:
240,100,89382,1,8,0:0:0:0:
249,108,89569,1,8,0:0:0:0:
249,111,89757,1,0,0:0:0:0:
245,171,90132,1,0,0:0:0:0:
207,168,90507,1,8,0:0:0:0:
228,151,90882,1,8,0:0:0:0:
226,151,91069,1,0,0:0:0:0:
228,151,91257,1,0,0:0:0:0:
213,102,91632,1,0,0:0:0:0:
222,112,92007,1,8,0:0:0:0:
227,126,92757,1,0,0:0:0:0:
227,126,93132,1,0,0:0:0:0:
227,126,93507,1,8,0:0:0:0:
211,110,93882,1,8,0:0:0:0:
191,98,94069,1,8,0:0:0:0:
211,110,94257,1,0,0:0:0:0:
240,100,94632,1,0,0:0:0:0:
194,126,95007,1,8,0:0:0:0:
240,100,95382,1,8,0:0:0:0:
218,109,95569,1,0,0:0:0:0:
249,111,95757,1,0,0:0:0:0:
245,171,96132,1,0,0:0:0:0:
207,168,96507,1,8,0:0:0:0:
228,151,96882,1,8,0:0:0:0:
213,102,97069,1,8,0:0:0:0:
228,151,97257,1,0,0:0:0:0:
213,102,97632,1,0,0:0:0:0:
222,112,98007,1,8,0:0:0:0:
227,126,98757,1,0,0:0:0:0:
227,126,99132,1,0,0:0:0:0:
227,126,99507,1,8,0:0:0:0:
211,110,99882,1,8,0:0:0:0:
211,110,100069,1,0,0:0:0:0:
211,110,100257,1,0,0:0:0:0:
240,100,100632,1,0,0:0:0:0:
194,126,101007,1,8,0:0:0:0:
240,100,101382,1,8,0:0:0:0:
249,108,101569,1,8,0:0:0:0:
249,111,101757,1,0,0:0:0:0:
245,171,102132,1,0,0:0:0:0:
207,168,102507,1,8,0:0:0:0:
228,151,102882,1,8,0:0:0:0:
226,151,103069,1,0,0:0:0:0:
228,151,103257,1,0,0:0:0:0:
213,102,103632,1,0,0:0:0:0:
222,112,104007,1,8,0:0:0:0:
227,126,104757,1,0,0:0:0:0:
227,126,105132,1,0,0:0:0:0:
227,126,105507,1,8,0:0:0:0:
211,110,105882,1,8,0:0:0:0:
188,96,106069,1,8,0:0:0:0:
211,110,106257,1,0,0:0:0:0:
216,166,106632,1,0,0:0:0:0:
189,171,106819,1,0,0:0:0:0:
275,155,107007,1,8,0:0:0:0:
240,118,107194,1,8,0:0:0:0:
233,112,107382,1,0,0:0:0:0:
241,119,107757,1,8,0:0:0:0:
233,144,107944,1,8,0:0:0:0:
234,143,108132,1,4,0:0:0:0:
247,156,108882,1,8,0:0:0:0:
241,147,109257,1,8,0:0:0:0:
215,124,109444,1,8,0:0:0:0:
242,151,109632,1,0,0:0:0:0:
220,136,110007,1,0,0:0:0:0:
169,106,110382,1,0,0:0:0:0:
220,136,110757,1,0,0:0:0:0:
214,96,110944,1,8,0:0:0:0:
210,103,111132,1,0,0:0:0:0:
218,144,111882,1,8,0:0:0:0:
212,117,112257,1,8,0:0:0:0:
206,131,112444,1,0,0:0:0:0:
218,144,112632,1,0,0:0:0:0:
146,140,113007,1,0,0:0:0:0:
164,109,113382,1,8,0:0:0:0:
191,145,113757,1,8,0:0:0:0:
201,142,113944,1,0,0:0:0:0:
185,100,114132,1,8,0:0:0:0:
247,156,114882,1,8,0:0:0:0:
241,147,115257,1,8,0:0:0:0:
215,124,115444,1,8,0:0:0:0:
242,151,115632,1,0,0:0:0:0:
220,136,116007,1,0,0:0:0:0:
169,106,116382,1,0,0:0:0:0:
220,136,116757,1,0,0:0:0:0:
214,96,116944,1,8,0:0:0:0:
210,103,117132,1,0,0:0:0:0:
218,144,117882,1,8,0:0:0:0:
212,117,118257,1,8,0:0:0:0:
206,131,118444,1,0,0:0:0:0:
218,144,118632,1,0,0:0:0:0:
209,147,119007,1,0,0:0:0:0:
164,109,119382,1,8,0:0:0:0:
191,145,119757,1,8,0:0:0:0:
201,142,119944,1,0,0:0:0:0:
185,100,120132,1,8,0:0:0:0:
247,156,120882,1,8,0:0:0:0:
241,147,121257,1,8,0:0:0:0:
215,124,121444,1,8,0:0:0:0:
242,151,121632,1,0,0:0:0:0:
220,136,122007,1,0,0:0:0:0:
169,106,122382,1,0,0:0:0:0:
220,136,122757,1,0,0:0:0:0:
214,96,122944,1,8,0:0:0:0:
210,103,123132,1,0,0:0:0:0:
218,144,123882,1,8,0:0:0:0:
212,117,124257,1,8,0:0:0:0:
206,131,124444,1,0,0:0:0:0:
218,144,124632,1,0,0:0:0:0:
146,140,125007,1,0,0:0:0:0:
164,109,125382,1,8,0:0:0:0:
191,145,125757,1,8,0:0:0:0:
201,142,125944,1,0,0:0:0:0:
185,100,126132,1,8,0:0:0:0:
247,156,126882,1,8,0:0:0:0:
241,147,127257,1,8,0:0:0:0:
215,124,127444,1,8,0:0:0:0:
242,151,127632,1,0,0:0:0:0:
220,136,128007,1,0,0:0:0:0:
169,106,128382,1,0,0:0:0:0:
220,136,128757,1,0,0:0:0:0:
214,96,128944,1,8,0:0:0:0:
210,103,129132,1,0,0:0:0:0:
218,144,129882,1,8,0:0:0:0:
227,137,130257,1,0,0:0:0:0:
206,131,130444,1,0,0:0:0:0:
218,144,130632,1,12,0:0:0:0:
230,127,131007,1,8,0:0:0:0:
210,109,131194,1,8,0:0:0:0:
204,116,131382,1,0,0:0:0:0:
211,117,131757,1,8,0:0:0:0:
226,118,131944,1,0,0:0:0:0:
217,144,132132,5,8,0:0:0:0:
252,215,133632,1,8,0:0:0:0:
252,215,134194,1,0,0:0:0:0:
258,224,135132,1,0,0:0:0:0:
258,224,136632,1,8,0:0:0:0:
256,209,137194,1,0,0:0:0:0:
218,181,138132,1,8,0:0:0:0:
226,209,139632,1,8,0:0:0:0:
226,209,140194,1,0,0:0:0:0:
226,209,141132,1,0,0:0:0:0:
226,211,142632,1,8,0:0:0:0:
226,211,143194,1,0,0:0:0:0:
226,211,144132,1,8,0:0:0:0:
226,211,145632,1,8,0:0:0:0:
226,211,146194,1,0,0:0:0:0:
226,211,147132,1,0,0:0:0:0:
226,211,148632,1,8,0:0:0:0:
226,211,149194,1,0,0:0:0:0:
226,211,150132,1,8,0:0:0:0:
226,211,151632,1,8,0:0:0:0:
226,211,152194,1,0,0:0:0:0:
226,211,153132,1,0,0:0:0:0:
231,216,154632,1,8,0:0:0:0:
229,198,155194,1,0,0:0:0:0:
