osu file format v14

[General]
AudioFilename: audio.mp3
AudioLeadIn: 0
PreviewTime: 239641
Countdown: 0
SampleSet: Normal
StackLeniency: 0.7
Mode: 1
LetterboxInBreaks: 0
WidescreenStoryboard: 0

[Editor]
Bookmarks: 71970,142563,239970,334470
DistanceSpacing: 0.9
BeatDivisor: 4
GridSize: 32
TimelineZoom: 2.3

[Metadata]
Title:all the joy in life was gone once you left
TitleUnicode:all the joy in life was gone once you left
Artist:Sewerslvt
ArtistUnicode:Sewerslvt
Creator:HEAVENLY MOON
Version:oni
Source:
Tags:electronic experimental instrumental dance trance Atmospheric Drum & Bass and we had good times together, don't forget that sewerslut if you’re out there i miss you 。゚・ (>﹏<) ・゚。 dont youre ginjani dnb
BeatmapID:3892201
BeatmapSetID:1889708

[Difficulty]
HPDrainRate:5
CircleSize:5
OverallDifficulty:6.2
ApproachRate:5
SliderMultiplier:1.4
SliderTickRate:1

[Events]
//Background and Video events
0,0,"all the joy.png",0,0
//Break Periods
2,147170,148770
2,153170,154770
2,159170,160770
//Storyboard Layer 0 (Background)
//Storyboard Layer 1 (Fail)
//Storyboard Layer 2 (Pass)
//Storyboard Layer 3 (Foreground)
//Storyboard Layer 4 (Overlay)
//Storyboard Sound Samples

[TimingPoints]
1470,375,4,1,0,5,1,0
1470,-166.666666666667,4,1,0,5,0,0
23970,375,4,1,0,5,1,0
23970,-166.666666666667,4,1,0,15,0,0
47970,-125,4,1,0,80,0,0
68970,-123.456790123457,4,1,0,80,0,0
69157,-121.677593314546,4,1,0,80,0,0
69345,-119.948949726996,4,1,0,80,0,0
69532,-118.268734950303,4,1,0,80,0,0
69626,-117.446018873575,4,1,0,80,0,0
69720,-116.634805925515,4,1,0,80,0,0
69907,-115.045540777317,4,1,0,80,0,0
70095,-113.499004046239,4,1,0,80,0,0
70188,-112.741223941275,4,1,0,80,0,0
70282,-111.993495417786,4,1,0,80,0,0
70470,-110.527403611814,4,1,0,80,0,0
70657,-109.099200630157,4,1,0,80,0,0
70845,-107.707320435741,4,1,0,80,0,0
71032,-106.350620981276,4,1,0,80,0,0
71126,-105.685007947513,4,1,0,80,0,0
71313,-104.378467974598,4,1,0,80,0,0
71407,-103.737237726329,4,1,0,80,0,0
71595,-102.478126043996,4,1,0,80,0,0
71688,-101.859962922974,4,1,0,80,0,0
71782,-101.249212787371,4,1,0,80,0,0
71876,-100.64574308765,4,1,0,80,0,0
71970,-100,4,1,0,90,0,0
76470,-90.9090909090909,4,1,0,90,0,0
77970,-100,4,1,0,90,0,0
82376,-90.9090909090909,4,1,0,90,0,0
83876,-100,4,1,0,90,0,0
88398,-90.9090909090909,4,1,0,90,0,0
89898,-100,4,1,0,90,0,0
94470,-90.9090909090909,4,1,0,80,0,0
94845,-95.2380952380952,4,1,0,80,0,0
95220,-100,4,1,0,80,0,0
95595,-105.263157894737,4,1,0,80,0,0
95970,-125,4,1,0,90,0,0
116970,-123.456790123457,4,1,0,90,0,0
117157,-122.607618837435,4,1,0,90,0,0
117345,-121.769901159371,4,1,0,90,0,0
117438,-121.355394125913,4,1,0,90,0,0
117532,-120.943699498446,4,1,0,90,0,0
117626,-120.534788750729,4,1,0,90,0,0
117720,-120.128489432297,4,1,0,90,0,0
117907,-119.324337869249,4,1,0,90,0,0
118095,-118.530880850388,4,1,0,90,0,0
118188,-118.13795678041,4,1,0,90,0,0
118282,-117.747767796692,4,1,0,90,0,0
118470,-116.975071442525,4,1,0,90,0,0
118657,-116.212315251472,4,1,0,90,0,0
118845,-115.459575293498,4,1,0,90,0,0
118938,-115.086850291573,4,1,0,90,0,0
119032,-114.71652399755,4,1,0,90,0,0
119220,-113.98284558174,4,1,0,90,0,0
119407,-113.258620396745,4,1,0,90,0,0
119595,-112.543540282147,4,1,0,90,0,0
119782,-111.837308031261,4,1,0,90,0,0
119970,-111.140007513065,4,1,0,90,0,0
124470,-100,4,1,0,90,0,0
125970,-111.111111111111,4,1,0,90,0,0
130395,-100,4,1,0,90,0,0
131895,-111.111111111111,4,1,0,90,0,0
136403,-100,4,1,0,90,0,0
137903,-111.111111111111,4,1,0,90,0,0
142470,-100,4,1,0,80,0,0
142657,-102.564102564103,4,1,0,80,0,0
142845,-105.263157894737,4,1,0,80,0,0
143032,-108.108108108108,4,1,0,80,0,0
143220,-111.111111111111,4,1,0,80,0,0
143407,-114.285714285714,4,1,0,80,0,0
143595,-117.647058823529,4,1,0,80,0,0
143782,-121.212121212121,4,1,0,80,0,0
143970,-125,4,1,0,70,0,0
145470,-166.666666666667,4,1,0,70,0,0
167970,-125,4,1,0,75,0,0
191970,-111.111111111111,4,1,0,80,0,0
215970,-100,4,1,0,85,0,0
239970,-86.9565217391304,4,1,0,90,0,1
263970,-80,4,1,0,90,0,1
286470,-90.9090909090909,4,1,0,80,0,0
286845,-95.2380952380952,4,1,0,80,0,0
287220,-100,4,1,0,80,0,0
287595,-105.263157894737,4,1,0,80,0,0
287970,-111.111111111111,4,1,0,85,0,0
307470,-109.89010989011,4,1,0,85,0,0
307657,-108.452576941681,4,1,0,85,0,0
307845,-107.052054061287,4,1,0,85,0,0
308032,-105.687353556961,4,1,0,85,0,0
308126,-105.017968574423,4,1,0,85,0,0
308220,-104.356900600052,4,1,0,85,0,0
308407,-103.059634426865,4,1,0,85,0,0
308595,-101.794225010027,4,1,0,85,0,0
308688,-101.172999759208,4,1,0,85,0,0
308782,-100.559412009006,4,1,0,85,0,0
308970,-99.3542964275176,4,1,0,85,0,0
309157,-98.1776268896739,4,1,0,85,0,0
309345,-97.0285962678921,4,1,0,85,0,0
309532,-95.9061500777799,4,1,0,85,0,0
309626,-95.3545185645712,4,1,0,85,0,0
309720,-94.8092863799824,4,1,0,85,0,0
309907,-93.7373161694058,4,1,0,85,0,0
310095,-92.6893156099003,4,1,0,85,0,0
310188,-92.1739691493725,4,1,0,85,0,0
310282,-91.6644056113283,4,1,0,85,0,0
310470,-90.6619957606451,4,1,0,85,0,0
310657,-89.6811923293883,4,1,0,85,0,0
310845,-88.7214616328475,4,1,0,85,0,0
311032,-87.7820547145547,4,1,0,85,0,0
311126,-87.3196957432522,4,1,0,85,0,0
311220,-86.8622573068531,4,1,0,85,0,0
311407,-85.9616095451771,4,1,0,85,0,0
311595,-85.0793748027222,4,1,0,85,0,0
311688,-84.6450494496379,4,1,0,85,0,0
311782,-84.2151359863908,4,1,0,85,0,0
311970,-83.3682785367533,4,1,0,90,0,0
332970,-82.6446280991736,4,1,0,90,0,0
333063,-81.9672131147541,4,1,0,90,0,0
333157,-81.3008130081301,4,1,0,90,0,0
333251,-80.6451612903226,4,1,0,90,0,0
333345,-80,4,1,0,90,0,0
333438,-79.3650793650794,4,1,0,90,0,0
333532,-78.7401574803149,4,1,0,90,0,0
333626,-78.125,4,1,0,90,0,0
333720,-77.5193798449612,4,1,0,90,0,0
333813,-76.9230769230769,4,1,0,90,0,0
333907,-76.3358778625954,4,1,0,90,0,0
334001,-75.7575757575758,4,1,0,90,0,0
334095,-75.187969924812,4,1,0,90,0,0
334188,-74.6268656716418,4,1,0,90,0,0
334282,-74.0740740740741,4,1,0,90,0,0
334376,-73.5294117647059,4,1,0,90,0,0
334470,-72.992700729927,4,1,0,90,0,0

[HitObjects]
256,192,23970,5,2,0:0:0:0:
256,192,24345,1,0,0:0:0:0:
256,192,24532,1,2,0:0:0:0:
256,192,24907,1,0,0:0:0:0:
256,192,25282,1,0,0:0:0:0:
256,192,25470,1,2,0:0:0:0:
256,192,25657,1,2,0:0:0:0:
256,192,26032,1,2,0:0:0:0:
256,192,26407,1,0,0:0:0:0:
256,192,26782,1,0,0:0:0:0:
256,192,26970,1,2,0:0:0:0:
256,192,27157,1,0,0:0:0:0:
256,192,27532,1,2,0:0:0:0:
256,192,27907,1,0,0:0:0:0:
256,192,28282,1,0,0:0:0:0:
256,192,28470,1,0,0:0:0:0:
256,192,28657,1,2,0:0:0:0:
256,192,29032,1,2,0:0:0:0:
256,192,29407,1,0,0:0:0:0:
256,192,29782,1,2,0:0:0:0:
256,192,29970,1,0,0:0:0:0:
256,192,30157,1,2,0:0:0:0:
256,192,30532,1,2,0:0:0:0:
256,192,30907,1,0,0:0:0:0:
256,192,31282,1,0,0:0:0:0:
256,192,31470,1,2,0:0:0:0:
256,192,31657,1,2,0:0:0:0:
256,192,32032,1,2,0:0:0:0:
256,192,32407,1,0,0:0:0:0:
256,192,32782,1,0,0:0:0:0:
256,192,32970,1,2,0:0:0:0:
256,192,33157,1,0,0:0:0:0:
256,192,33532,1,2,0:0:0:0:
256,192,33907,1,0,0:0:0:0:
256,192,34282,1,0,0:0:0:0:
256,192,34470,1,0,0:0:0:0:
256,192,34657,1,2,0:0:0:0:
256,192,35032,1,2,0:0:0:0:
256,192,35407,1,0,0:0:0:0:
256,192,35782,1,2,0:0:0:0:
256,192,35970,1,0,0:0:0:0:
256,192,36157,1,2,0:0:0:0:
256,192,36532,1,2,0:0:0:0:
256,192,36907,1,0,0:0:0:0:
256,192,37282,1,0,0:0:0:0:
256,192,37470,1,2,0:0:0:0:
256,192,37657,1,2,0:0:0:0:
256,192,38032,1,2,0:0:0:0:
256,192,38407,1,0,0:0:0:0:
256,192,38782,1,0,0:0:0:0:
256,192,38970,1,2,0:0:0:0:
256,192,39157,1,0,0:0:0:0:
256,192,39532,1,2,0:0:0:0:
256,192,39907,1,0,0:0:0:0:
256,192,40282,1,0,0:0:0:0:
256,192,40470,1,0,0:0:0:0:
256,192,40657,1,2,0:0:0:0:
256,192,41032,1,2,0:0:0:0:
256,192,41407,1,0,0:0:0:0:
256,192,41782,1,2,0:0:0:0:
256,192,41970,1,0,0:0:0:0:
256,192,42157,1,2,0:0:0:0:
256,192,42532,1,2,0:0:0:0:
256,192,42907,1,0,0:0:0:0:
256,192,43282,1,0,0:0:0:0:
256,192,43470,1,2,0:0:0:0:
256,192,43657,1,2,0:0:0:0:
256,192,44032,1,2,0:0:0:0:
256,192,44407,1,0,0:0:0:0:
256,192,44782,1,0,0:0:0:0:
256,192,44970,1,2,0:0:0:0:
256,192,45157,1,0,0:0:0:0:
256,192,45532,1,2,0:0:0:0:
256,192,45907,1,0,0:0:0:0:
256,192,46282,1,0,0:0:0:0:
256,192,46470,1,0,0:0:0:0:
256,192,46657,1,2,0:0:0:0:
256,192,47032,5,2,0:0:0:0:
256,192,47407,1,0,0:0:0:0:
256,192,47782,1,0,0:0:0:0:
256,192,47970,5,0,0:0:0:0:
256,192,48157,1,0,0:0:0:0:
256,192,48345,1,2,0:0:0:0:
256,192,48532,1,0,0:0:0:0:
256,192,48626,1,2,0:0:0:0:
256,192,48813,1,2,0:0:0:0:
256,192,48907,1,0,0:0:0:0:
256,192,49095,1,2,0:0:0:0:
256,192,49188,1,2,0:0:0:0:
256,192,49282,1,0,0:0:0:0:
256,192,49470,1,0,0:0:0:0:
256,192,49657,1,0,0:0:0:0:
256,192,49845,1,0,0:0:0:0:
256,192,49938,1,2,0:0:0:0:
256,192,50126,1,2,0:0:0:0:
256,192,50313,1,0,0:0:0:0:
256,192,50407,1,0,0:0:0:0:
256,192,50595,1,2,0:0:0:0:
256,192,50688,1,0,0:0:0:0:
256,192,50782,1,2,0:0:0:0:
256,192,50970,1,0,0:0:0:0:
256,192,51157,1,0,0:0:0:0:
256,192,51345,1,2,0:0:0:0:
256,192,51532,1,0,0:0:0:0:
256,192,51626,1,0,0:0:0:0:
256,192,51720,1,2,0:0:0:0:
256,192,51907,1,0,0:0:0:0:
256,192,52095,1,2,0:0:0:0:
256,192,52188,1,2,0:0:0:0:
256,192,52282,1,0,0:0:0:0:
256,192,52470,1,0,0:0:0:0:
256,192,52657,1,0,0:0:0:0:
256,192,52845,1,2,0:0:0:0:
256,192,53032,1,0,0:0:0:0:
256,192,53126,1,2,0:0:0:0:
256,192,53313,1,0,0:0:0:0:
256,192,53407,1,0,0:0:0:0:
256,192,53595,1,2,0:0:0:0:
256,192,53688,1,0,0:0:0:0:
256,192,53782,1,0,0:0:0:0:
256,192,53876,1,2,0:0:0:0:
256,192,53970,1,0,0:0:0:0:
256,192,54157,1,0,0:0:0:0:
256,192,54345,1,2,0:0:0:0:
256,192,54532,1,0,0:0:0:0:
256,192,54626,1,0,0:0:0:0:
256,192,54813,1,2,0:0:0:0:
256,192,54907,1,0,0:0:0:0:
256,192,55095,1,0,0:0:0:0:
256,192,55188,1,2,0:0:0:0:
256,192,55282,1,0,0:0:0:0:
256,192,55470,1,0,0:0:0:0:
256,192,55657,1,0,0:0:0:0:
256,192,55845,1,2,0:0:0:0:
256,192,55938,1,0,0:0:0:0:
256,192,56126,1,2,0:0:0:0:
256,192,56313,1,2,0:0:0:0:
256,192,56407,1,0,0:0:0:0:
256,192,56595,1,2,0:0:0:0:
256,192,56688,1,2,0:0:0:0:
256,192,56782,1,0,0:0:0:0:
256,192,56970,1,0,0:0:0:0:
256,192,57157,1,0,0:0:0:0:
256,192,57345,1,2,0:0:0:0:
256,192,57532,1,0,0:0:0:0:
256,192,57626,1,0,0:0:0:0:
256,192,57720,1,2,0:0:0:0:
256,192,57907,1,0,0:0:0:0:
256,192,58095,1,2,0:0:0:0:
256,192,58188,1,0,0:0:0:0:
256,192,58282,1,2,0:0:0:0:
256,192,58470,1,0,0:0:0:0:
256,192,58657,1,0,0:0:0:0:
256,192,58845,1,2,0:0:0:0:
256,192,59032,1,0,0:0:0:0:
256,192,59126,1,2,0:0:0:0:
256,192,59313,1,0,0:0:0:0:
256,192,59407,1,2,0:0:0:0:
256,192,59595,1,0,0:0:0:0:
256,192,59688,1,2,0:0:0:0:
256,192,59782,1,2,0:0:0:0:
256,192,59876,1,2,0:0:0:0:
256,192,59970,1,0,0:0:0:0:
256,192,60157,1,0,0:0:0:0:
256,192,60345,1,2,0:0:0:0:
256,192,60532,1,2,0:0:0:0:
256,192,60626,1,2,0:0:0:0:
256,192,60813,1,0,0:0:0:0:
256,192,60907,1,0,0:0:0:0:
256,192,61095,1,2,0:0:0:0:
256,192,61188,1,0,0:0:0:0:
256,192,61282,1,0,0:0:0:0:
256,192,61470,1,0,0:0:0:0:
256,192,61657,1,0,0:0:0:0:
256,192,61845,1,2,0:0:0:0:
256,192,61938,1,0,0:0:0:0:
256,192,62126,1,2,0:0:0:0:
256,192,62313,1,0,0:0:0:0:
256,192,62407,1,2,0:0:0:0:
256,192,62595,1,0,0:0:0:0:
256,192,62688,1,0,0:0:0:0:
256,192,62782,1,2,0:0:0:0:
256,192,62970,1,0,0:0:0:0:
256,192,63157,1,0,0:0:0:0:
256,192,63345,1,2,0:0:0:0:
256,192,63532,1,0,0:0:0:0:
256,192,63626,1,2,0:0:0:0:
256,192,63720,1,2,0:0:0:0:
256,192,63907,1,0,0:0:0:0:
256,192,64095,1,2,0:0:0:0:
256,192,64188,1,2,0:0:0:0:
256,192,64282,1,0,0:0:0:0:
256,192,64470,1,0,0:0:0:0:
256,192,64657,1,0,0:0:0:0:
256,192,64845,1,2,0:0:0:0:
256,192,65032,1,0,0:0:0:0:
256,192,65126,1,2,0:0:0:0:
256,192,65313,1,0,0:0:0:0:
256,192,65407,1,0,0:0:0:0:
256,192,65595,1,2,0:0:0:0:
256,192,65688,1,0,0:0:0:0:
256,192,65782,1,0,0:0:0:0:
256,192,65876,1,2,0:0:0:0:
256,192,65970,1,0,0:0:0:0:
256,192,66157,1,0,0:0:0:0:
256,192,66345,1,2,0:0:0:0:
256,192,66532,1,0,0:0:0:0:
256,192,66626,1,2,0:0:0:0:
256,192,66813,1,2,0:0:0:0:
256,192,66907,1,0,0:0:0:0:
256,192,67095,1,2,0:0:0:0:
256,192,67188,1,0,0:0:0:0:
256,192,67282,1,2,0:0:0:0:
256,192,67470,1,0,0:0:0:0:
256,192,67657,1,0,0:0:0:0:
256,192,67845,1,2,0:0:0:0:
256,192,67938,1,0,0:0:0:0:
256,192,68126,1,2,0:0:0:0:
256,192,68313,1,0,0:0:0:0:
256,192,68407,1,0,0:0:0:0:
256,192,68595,1,0,0:0:0:0:
256,192,68688,1,2,0:0:0:0:
256,192,68782,1,0,0:0:0:0:
256,192,68970,1,0,0:0:0:0:
256,192,69157,1,0,0:0:0:0:
256,192,69345,1,2,0:0:0:0:
256,192,69532,1,0,0:0:0:0:
256,192,69626,1,0,0:0:0:0:
256,192,69720,1,2,0:0:0:0:
256,192,69907,1,0,0:0:0:0:
256,192,70095,1,2,0:0:0:0:
256,192,70188,1,2,0:0:0:0:
256,192,70282,1,0,0:0:0:0:
256,192,70470,1,0,0:0:0:0:
256,192,70657,1,0,0:0:0:0:
256,192,70845,1,2,0:0:0:0:
256,192,71032,1,0,0:0:0:0:
256,192,71126,1,2,0:0:0:0:
256,192,71313,1,0,0:0:0:0:
256,192,71407,1,0,0:0:0:0:
256,192,71595,1,2,0:0:0:0:
256,192,71688,1,0,0:0:0:0:
256,192,71782,1,2,0:0:0:0:
256,192,71876,1,2,0:0:0:0:
256,192,71970,1,0,0:0:0:0:
256,192,72157,1,0,0:0:0:0:
256,192,72251,1,2,0:0:0:0:
256,192,72345,1,0,0:0:0:0:
256,192,72532,1,0,0:0:0:0:
256,192,72720,1,2,0:0:0:0:
256,192,72813,1,0,0:0:0:0:
256,192,72907,1,0,0:0:0:0:
256,192,73095,1,0,0:0:0:0:
256,192,73282,1,2,0:0:0:0:
256,192,73376,1,2,0:0:0:0:
256,192,73470,1,0,0:0:0:0:
256,192,73657,1,0,0:0:0:0:
256,192,73845,1,2,0:0:0:0:
256,192,73938,1,2,0:0:0:0:
256,192,74032,1,2,0:0:0:0:
256,192,74126,1,2,0:0:0:0:
256,192,74220,1,0,0:0:0:0:
256,192,74313,1,0,0:0:0:0:
256,192,74407,1,2,0:0:0:0:
256,192,74595,5,0,0:0:0:0:
256,192,74688,1,2,0:0:0:0:
256,192,74782,1,0,0:0:0:0:
256,192,74970,1,0,0:0:0:0:
256,192,75157,1,0,0:0:0:0:
256,192,75345,1,2,0:0:0:0:
256,192,75438,1,2,0:0:0:0:
256,192,75532,1,0,0:0:0:0:
256,192,75720,1,0,0:0:0:0:
256,192,75907,1,2,0:0:0:0:
256,192,76095,1,0,0:0:0:0:
256,192,76188,1,2,0:0:0:0:
256,192,76282,1,0,0:0:0:0:
256,192,76470,1,2,0:0:0:0:
256,192,76657,1,0,0:0:0:0:
256,192,76845,1,2,0:0:0:0:
256,192,76938,1,0,0:0:0:0:
256,192,77032,1,2,0:0:0:0:
256,192,77126,1,2,0:0:0:0:
256,192,77220,1,0,0:0:0:0:
256,192,77407,1,0,0:0:0:0:
256,192,77595,1,2,0:0:0:0:
256,192,77688,1,0,0:0:0:0:
256,192,77782,1,0,0:0:0:0:
256,192,77970,1,2,0:0:0:0:
256,192,78157,1,0,0:0:0:0:
256,192,78251,1,0,0:0:0:0:
256,192,78345,1,2,0:0:0:0:
256,192,78532,1,0,0:0:0:0:
256,192,78720,1,2,0:0:0:0:
256,192,78813,1,2,0:0:0:0:
256,192,78907,1,0,0:0:0:0:
256,192,79095,1,0,0:0:0:0:
256,192,79282,1,2,0:0:0:0:
256,192,79376,1,0,0:0:0:0:
256,192,79470,1,0,0:0:0:0:
256,192,79657,1,0,0:0:0:0:
256,192,79845,1,0,0:0:0:0:
256,192,79938,1,2,0:0:0:0:
256,192,80032,1,0,0:0:0:0:
256,192,80126,1,0,0:0:0:0:
256,192,80220,1,2,0:0:0:0:
256,192,80313,1,0,0:0:0:0:
256,192,80407,1,2,0:0:0:0:
256,192,80595,1,0,0:0:0:0:
256,192,80782,1,2,0:0:0:0:
256,192,80876,1,2,0:0:0:0:
256,192,80970,1,0,0:0:0:0:
256,192,81157,1,0,0:0:0:0:
256,192,81345,1,2,0:0:0:0:
256,192,81438,1,0,0:0:0:0:
256,192,81532,1,2,0:0:0:0:
256,192,81720,1,0,0:0:0:0:
256,192,81907,1,0,0:0:0:0:
256,192,82095,1,2,0:0:0:0:
256,192,82188,1,2,0:0:0:0:
256,192,82282,1,0,0:0:0:0:
256,192,82470,1,2,0:0:0:0:
256,192,82657,1,0,0:0:0:0:
256,192,82845,1,2,0:0:0:0:
256,192,82938,1,2,0:0:0:0:
256,192,83032,1,0,0:0:0:0:
256,192,83126,1,2,0:0:0:0:
256,192,83220,1,2,0:0:0:0:
256,192,83407,1,0,0:0:0:0:
256,192,83595,1,2,0:0:0:0:
256,192,83688,1,0,0:0:0:0:
256,192,83782,1,0,0:0:0:0:
256,192,83970,1,2,0:0:0:0:
256,192,84157,1,2,0:0:0:0:
256,192,84251,1,0,0:0:0:0:
256,192,84345,1,0,0:0:0:0:
256,192,84532,1,0,0:0:0:0:
256,192,84720,1,2,0:0:0:0:
256,192,84813,1,2,0:0:0:0:
256,192,84907,1,0,0:0:0:0:
256,192,85095,1,0,0:0:0:0:
256,192,85282,1,0,0:0:0:0:
256,192,85376,1,2,0:0:0:0:
256,192,85470,1,0,0:0:0:0:
256,192,85657,1,0,0:0:0:0:
256,192,85845,1,2,0:0:0:0:
256,192,85938,1,2,0:0:0:0:
256,192,86032,1,2,0:0:0:0:
256,192,86126,1,2,0:0:0:0:
256,192,86220,1,0,0:0:0:0:
256,192,86313,1,0,0:0:0:0:
256,192,86407,1,2,0:0:0:0:
256,192,86595,1,0,0:0:0:0:
256,192,86688,1,2,0:0:0:0:
256,192,86782,1,0,0:0:0:0:
256,192,86970,1,0,0:0:0:0:
256,192,87157,1,0,0:0:0:0:
256,192,87345,1,2,0:0:0:0:
256,192,87438,1,2,0:0:0:0:
256,192,87532,1,0,0:0:0:0:
256,192,87720,1,0,0:0:0:0:
256,192,87907,1,2,0:0:0:0:
256,192,88095,1,2,0:0:0:0:
256,192,88188,1,0,0:0:0:0:
256,192,88282,1,0,0:0:0:0:
256,192,88470,1,0,0:0:0:0:
256,192,88657,1,0,0:0:0:0:
256,192,88845,1,2,0:0:0:0:
256,192,88938,1,2,0:0:0:0:
256,192,89032,1,2,0:0:0:0:
256,192,89126,1,0,0:0:0:0:
256,192,89220,1,2,0:0:0:0:
256,192,89313,1,2,0:0:0:0:
256,192,89407,1,0,0:0:0:0:
256,192,89595,1,2,0:0:0:0:
256,192,89688,1,0,0:0:0:0:
256,192,89782,1,0,0:0:0:0:
256,192,89970,1,2,0:0:0:0:
256,192,90157,1,0,0:0:0:0:
256,192,90251,1,0,0:0:0:0:
256,192,90345,1,2,0:0:0:0:
256,192,90532,1,0,0:0:0:0:
256,192,90720,1,2,0:0:0:0:
256,192,90813,1,0,0:0:0:0:
256,192,90907,1,0,0:0:0:0:
256,192,91095,1,0,0:0:0:0:
256,192,91282,1,2,0:0:0:0:
256,192,91376,1,2,0:0:0:0:
256,192,91470,1,0,0:0:0:0:
256,192,91657,1,0,0:0:0:0:
256,192,91751,1,0,0:0:0:0:
256,192,91845,1,2,0:0:0:0:
256,192,91938,1,2,0:0:0:0:
256,192,92032,1,2,0:0:0:0:
256,192,92126,1,2,0:0:0:0:
256,192,92220,1,0,0:0:0:0:
256,192,92407,1,2,0:0:0:0:
256,192,92595,1,0,0:0:0:0:
256,192,92782,1,0,0:0:0:0:
256,192,92876,1,2,0:0:0:0:
256,192,92970,1,0,0:0:0:0:
256,192,93157,1,0,0:0:0:0:
256,192,93345,1,2,0:0:0:0:
256,192,93438,1,0,0:0:0:0:
256,192,93532,1,2,0:0:0:0:
256,192,93720,1,2,0:0:0:0:
256,192,93907,1,0,0:0:0:0:
256,192,94095,1,2,0:0:0:0:
256,192,94188,1,0,0:0:0:0:
256,192,94282,1,0,0:0:0:0:
256,192,94470,1,2,0:0:0:0:
256,192,94845,1,0,0:0:0:0:
256,192,95220,1,2,0:0:0:0:
256,192,95595,1,0,0:0:0:0:
256,192,95970,1,0,0:0:0:0:
256,192,96157,1,0,0:0:0:0:
256,192,96345,1,2,0:0:0:0:
256,192,96532,1,0,0:0:0:0:
256,192,96626,1,2,0:0:0:0:
256,192,96720,1,2,0:0:0:0:
256,192,96813,1,2,0:0:0:0:
256,192,96907,1,0,0:0:0:0:
256,192,97095,1,2,0:0:0:0:
256,192,97188,1,0,0:0:0:0:
256,192,97282,1,2,0:0:0:0:
256,192,97470,1,0,0:0:0:0:
256,192,97657,1,0,0:0:0:0:
256,192,97845,1,2,0:0:0:0:
256,192,98032,1,0,0:0:0:0:
256,192,98126,1,2,0:0:0:0:
256,192,98220,1,2,0:0:0:0:
256,192,98313,1,0,0:0:0:0:
256,192,98407,1,2,0:0:0:0:
256,192,98595,1,2,0:0:0:0:
256,192,98688,1,2,0:0:0:0:
256,192,98782,1,0,0:0:0:0:
256,192,98970,1,0,0:0:0:0:
256,192,99157,1,0,0:0:0:0:
256,192,99345,1,2,0:0:0:0:
256,192,99532,1,0,0:0:0:0:
256,192,99626,1,2,0:0:0:0:
256,192,99720,1,2,0:0:0:0:
256,192,99813,1,0,0:0:0:0:
256,192,99907,1,0,0:0:0:0:
256,192,100095,1,2,0:0:0:0:
256,192,100188,1,0,0:0:0:0:
256,192,100282,1,0,0:0:0:0:
256,192,100470,1,0,0:0:0:0:
256,192,100657,1,0,0:0:0:0:
256,192,100845,1,2,0:0:0:0:
256,192,101032,1,0,0:0:0:0:
256,192,101126,1,0,0:0:0:0:
256,192,101220,1,0,0:0:0:0:
256,192,101407,1,0,0:0:0:0:
256,192,101595,1,2,0:0:0:0:
256,192,101688,1,0,0:0:0:0:
256,192,101782,1,0,0:0:0:0:
256,192,101970,1,0,0:0:0:0:
256,192,102157,1,0,0:0:0:0:
256,192,102345,1,2,0:0:0:0:
256,192,102532,1,0,0:0:0:0:
256,192,102626,1,2,0:0:0:0:
256,192,102720,1,2,0:0:0:0:
256,192,102813,1,0,0:0:0:0:
256,192,102907,1,2,0:0:0:0:
256,192,103095,1,2,0:0:0:0:
256,192,103188,1,2,0:0:0:0:
256,192,103282,1,0,0:0:0:0:
256,192,103376,1,2,0:0:0:0:
256,192,103470,1,0,0:0:0:0:
256,192,103657,1,0,0:0:0:0:
256,192,103845,1,2,0:0:0:0:
256,192,104032,1,0,0:0:0:0:
256,192,104126,1,2,0:0:0:0:
256,192,104220,1,0,0:0:0:0:
256,192,104313,1,2,0:0:0:0:
256,192,104407,1,2,0:0:0:0:
256,192,104595,1,2,0:0:0:0:
256,192,104688,1,2,0:0:0:0:
256,192,104782,1,0,0:0:0:0:
256,192,104970,1,4,0:0:0:0:
256,192,105157,1,4,0:0:0:0:
256,192,105345,1,2,0:0:0:0:
256,192,105438,1,0,0:0:0:0:
256,192,105532,1,2,0:0:0:0:
256,192,105626,1,2,0:0:0:0:
256,192,105720,1,0,0:0:0:0:
256,192,105907,1,2,0:0:0:0:
256,192,106095,1,0,0:0:0:0:
256,192,106188,1,2,0:0:0:0:
256,192,106282,1,2,0:0:0:0:
256,192,106376,1,2,0:0:0:0:
256,192,106470,1,0,0:0:0:0:
256,192,106657,1,2,0:0:0:0:
256,192,106845,1,0,0:0:0:0:
256,192,107032,1,2,0:0:0:0:
256,192,107126,1,2,0:0:0:0:
256,192,107220,1,0,0:0:0:0:
256,192,107313,1,0,0:0:0:0:
256,192,107407,1,2,0:0:0:0:
256,192,107595,1,0,0:0:0:0:
256,192,107688,1,2,0:0:0:0:
256,192,107782,1,2,0:0:0:0:
256,192,107970,1,0,0:0:0:0:
256,192,108157,1,0,0:0:0:0:
256,192,108345,1,2,0:0:0:0:
256,192,108532,1,0,0:0:0:0:
256,192,108626,1,0,0:0:0:0:
256,192,108720,1,2,0:0:0:0:
256,192,108813,1,2,0:0:0:0:
256,192,108907,1,2,0:0:0:0:
256,192,109095,1,2,0:0:0:0:
256,192,109188,1,0,0:0:0:0:
256,192,109282,1,2,0:0:0:0:
256,192,109376,1,2,0:0:0:0:
256,192,109470,1,0,0:0:0:0:
256,192,109657,1,0,0:0:0:0:
256,192,109845,1,2,0:0:0:0:
256,192,110032,1,0,0:0:0:0:
256,192,110126,1,2,0:0:0:0:
256,192,110220,1,2,0:0:0:0:
256,192,110313,1,2,0:0:0:0:
256,192,110407,1,0,0:0:0:0:
256,192,110595,1,0,0:0:0:0:
256,192,110688,1,2,0:0:0:0:
256,192,110782,1,2,0:0:0:0:
256,192,110876,1,0,0:0:0:0:
256,192,110970,1,0,0:0:0:0:
256,192,111157,1,0,0:0:0:0:
256,192,111345,1,2,0:0:0:0:
256,192,111532,1,0,0:0:0:0:
256,192,111626,1,2,0:0:0:0:
256,192,111720,1,2,0:0:0:0:
256,192,111813,1,0,0:0:0:0:
256,192,111907,1,0,0:0:0:0:
256,192,112095,1,0,0:0:0:0:
256,192,112188,1,2,0:0:0:0:
256,192,112282,1,0,0:0:0:0:
256,192,112376,1,0,0:0:0:0:
256,192,112470,1,0,0:0:0:0:
256,192,112657,1,0,0:0:0:0:
256,192,112845,1,2,0:0:0:0:
256,192,113032,1,0,0:0:0:0:
256,192,113126,1,2,0:0:0:0:
256,192,113220,1,0,0:0:0:0:
256,192,113407,1,2,0:0:0:0:
256,192,113595,1,0,0:0:0:0:
256,192,113782,1,0,0:0:0:0:
256,192,113970,1,0,0:0:0:0:
256,192,114157,1,0,0:0:0:0:
256,192,114345,1,2,0:0:0:0:
256,192,114532,1,0,0:0:0:0:
256,192,114626,1,2,0:0:0:0:
256,192,114720,1,2,0:0:0:0:
256,192,114813,1,0,0:0:0:0:
256,192,114907,1,2,0:0:0:0:
256,192,115095,1,0,0:0:0:0:
256,192,115188,1,2,0:0:0:0:
256,192,115282,1,2,0:0:0:0:
256,192,115376,1,0,0:0:0:0:
256,192,115470,1,0,0:0:0:0:
256,192,115657,1,0,0:0:0:0:
256,192,115845,1,2,0:0:0:0:
256,192,116032,1,0,0:0:0:0:
256,192,116126,1,2,0:0:0:0:
256,192,116220,1,2,0:0:0:0:
256,192,116313,1,0,0:0:0:0:
256,192,116407,1,0,0:0:0:0:
256,192,116595,1,0,0:0:0:0:
256,192,116688,1,2,0:0:0:0:
256,192,116782,1,0,0:0:0:0:
256,192,116970,1,4,0:0:0:0:
256,192,117157,1,4,0:0:0:0:
256,192,117345,1,2,0:0:0:0:
256,192,117438,1,0,0:0:0:0:
256,192,117532,1,2,0:0:0:0:
256,192,117626,1,2,0:0:0:0:
256,192,117720,1,0,0:0:0:0:
256,192,117907,1,0,0:0:0:0:
256,192,118095,1,2,0:0:0:0:
256,192,118188,1,2,0:0:0:0:
256,192,118282,1,0,0:0:0:0:
256,192,118470,1,2,0:0:0:0:
256,192,118657,1,2,0:0:0:0:
256,192,118845,1,0,0:0:0:0:
256,192,118938,1,2,0:0:0:0:
256,192,119032,1,0,0:0:0:0:
256,192,119220,1,0,0:0:0:0:
256,192,119407,1,2,0:0:0:0:
256,192,119595,1,0,0:0:0:0:
256,192,119782,1,2,0:0:0:0:
256,192,119970,1,0,0:0:0:0:
256,192,120157,1,2,0:0:0:0:
256,192,120251,1,2,0:0:0:0:
256,192,120345,1,0,0:0:0:0:
256,192,120532,1,0,0:0:0:0:
256,192,120720,1,2,0:0:0:0:
256,192,120813,1,0,0:0:0:0:
256,192,120907,1,0,0:0:0:0:
256,192,121095,1,0,0:0:0:0:
256,192,121282,1,0,0:0:0:0:
256,192,121376,1,2,0:0:0:0:
256,192,121470,1,2,0:0:0:0:
256,192,121657,1,0,0:0:0:0:
256,192,121845,1,2,0:0:0:0:
256,192,121938,1,2,0:0:0:0:
256,192,122032,1,0,0:0:0:0:
256,192,122126,1,0,0:0:0:0:
256,192,122220,1,2,0:0:0:0:
256,192,122313,1,0,0:0:0:0:
256,192,122407,1,2,0:0:0:0:
256,192,122595,1,2,0:0:0:0:
256,192,122688,1,0,0:0:0:0:
256,192,122782,1,0,0:0:0:0:
256,192,122970,1,0,0:0:0:0:
256,192,123157,1,0,0:0:0:0:
256,192,123345,1,2,0:0:0:0:
256,192,123438,1,2,0:0:0:0:
256,192,123532,1,0,0:0:0:0:
256,192,123720,1,0,0:0:0:0:
256,192,123813,1,2,0:0:0:0:
256,192,123907,1,0,0:0:0:0:
256,192,124001,1,0,0:0:0:0:
256,192,124095,1,2,0:0:0:0:
256,192,124188,1,2,0:0:0:0:
256,192,124282,1,0,0:0:0:0:
256,192,124470,1,0,0:0:0:0:
256,192,124657,1,0,0:0:0:0:
256,192,124845,1,2,0:0:0:0:
256,192,124938,1,0,0:0:0:0:
256,192,125032,1,0,0:0:0:0:
256,192,125126,1,2,0:0:0:0:
256,192,125220,1,0,0:0:0:0:
256,192,125407,1,0,0:0:0:0:
256,192,125595,1,2,0:0:0:0:
256,192,125688,1,2,0:0:0:0:
256,192,125782,1,0,0:0:0:0:
256,192,125970,1,0,0:0:0:0:
256,192,126157,1,2,0:0:0:0:
256,192,126251,1,0,0:0:0:0:
256,192,126345,1,0,0:0:0:0:
256,192,126532,1,0,0:0:0:0:
256,192,126720,1,2,0:0:0:0:
256,192,126813,1,2,0:0:0:0:
256,192,126907,1,0,0:0:0:0:
256,192,127095,1,0,0:0:0:0:
256,192,127282,1,2,0:0:0:0:
256,192,127376,1,0,0:0:0:0:
256,192,127470,1,2,0:0:0:0:
256,192,127657,1,0,0:0:0:0:
256,192,127845,1,2,0:0:0:0:
256,192,127938,1,0,0:0:0:0:
256,192,128032,1,2,0:0:0:0:
256,192,128126,1,2,0:0:0:0:
256,192,128220,1,0,0:0:0:0:
256,192,128313,1,0,0:0:0:0:
256,192,128407,1,2,0:0:0:0:
256,192,128595,1,0,0:0:0:0:
256,192,128688,1,2,0:0:0:0:
256,192,128782,1,0,0:0:0:0:
256,192,128970,1,4,0:0:0:0:
256,192,129157,1,4,0:0:0:0:
256,192,129345,1,2,0:0:0:0:
256,192,129438,1,0,0:0:0:0:
256,192,129532,1,2,0:0:0:0:
256,192,129626,1,0,0:0:0:0:
256,192,129720,1,0,0:0:0:0:
256,192,129907,1,2,0:0:0:0:
256,192,130001,1,0,0:0:0:0:
256,192,130095,1,0,0:0:0:0:
256,192,130188,1,0,0:0:0:0:
256,192,130282,1,0,0:0:0:0:
256,192,130470,1,2,0:0:0:0:
256,192,130657,1,2,0:0:0:0:
256,192,130845,1,2,0:0:0:0:
256,192,131032,1,0,0:0:0:0:
256,192,131126,1,2,0:0:0:0:
256,192,131220,1,0,0:0:0:0:
256,192,131407,1,2,0:0:0:0:
256,192,131595,1,0,0:0:0:0:
256,192,131782,1,0,0:0:0:0:
256,192,131970,1,2,0:0:0:0:
256,192,132157,1,0,0:0:0:0:
256,192,132251,1,2,0:0:0:0:
256,192,132345,1,0,0:0:0:0:
256,192,132532,1,0,0:0:0:0:
256,192,132720,1,2,0:0:0:0:
256,192,132813,1,0,0:0:0:0:
256,192,132907,1,0,0:0:0:0:
256,192,133095,1,0,0:0:0:0:
256,192,133282,1,2,0:0:0:0:
256,192,133376,1,2,0:0:0:0:
256,192,133470,1,0,0:0:0:0:
256,192,133657,1,0,0:0:0:0:
256,192,133845,1,2,0:0:0:0:
256,192,133938,1,2,0:0:0:0:
256,192,134032,1,2,0:0:0:0:
256,192,134126,1,2,0:0:0:0:
256,192,134220,1,0,0:0:0:0:
256,192,134313,1,0,0:0:0:0:
256,192,134407,1,2,0:0:0:0:
256,192,134595,1,0,0:0:0:0:
256,192,134782,1,2,0:0:0:0:
256,192,134876,1,0,0:0:0:0:
256,192,134970,1,0,0:0:0:0:
256,192,135157,1,0,0:0:0:0:
256,192,135345,1,2,0:0:0:0:
256,192,135438,1,2,0:0:0:0:
256,192,135532,1,0,0:0:0:0:
256,192,135626,1,2,0:0:0:0:
256,192,135720,1,0,0:0:0:0:
256,192,135907,1,0,0:0:0:0:
256,192,136001,1,2,0:0:0:0:
256,192,136095,1,2,0:0:0:0:
256,192,136188,1,2,0:0:0:0:
256,192,136282,1,0,0:0:0:0:
256,192,136470,1,0,0:0:0:0:
256,192,136657,1,0,0:0:0:0:
256,192,136845,1,2,0:0:0:0:
256,192,136938,1,2,0:0:0:0:
256,192,137032,1,2,0:0:0:0:
256,192,137126,1,0,0:0:0:0:
256,192,137220,1,2,0:0:0:0:
256,192,137313,1,2,0:0:0:0:
256,192,137407,1,0,0:0:0:0:
256,192,137595,1,0,0:0:0:0:
256,192,137688,1,2,0:0:0:0:
256,192,137782,1,0,0:0:0:0:
256,192,137970,1,0,0:0:0:0:
256,192,138157,1,2,0:0:0:0:
256,192,138251,1,2,0:0:0:0:
256,192,138345,1,0,0:0:0:0:
256,192,138532,1,0,0:0:0:0:
256,192,138720,1,2,0:0:0:0:
256,192,138813,1,0,0:0:0:0:
256,192,138907,1,0,0:0:0:0:
256,192,139095,1,0,0:0:0:0:
256,192,139282,1,0,0:0:0:0:
256,192,139376,1,2,0:0:0:0:
256,192,139470,1,0,0:0:0:0:
256,192,139657,1,0,0:0:0:0:
256,192,139845,1,2,0:0:0:0:
256,192,139938,1,2,0:0:0:0:
256,192,140032,1,0,0:0:0:0:
256,192,140126,1,2,0:0:0:0:
256,192,140220,1,0,0:0:0:0:
256,192,140313,1,0,0:0:0:0:
256,192,140407,1,2,0:0:0:0:
256,192,140595,1,0,0:0:0:0:
256,192,140688,1,2,0:0:0:0:
256,192,140782,1,0,0:0:0:0:
256,192,140970,1,4,0:0:0:0:
256,192,141157,1,4,0:0:0:0:
256,192,141345,1,2,0:0:0:0:
256,192,141438,1,2,0:0:0:0:
256,192,141532,1,2,0:0:0:0:
256,192,141626,1,2,0:0:0:0:
256,192,141720,1,0,0:0:0:0:
256,192,141907,1,2,0:0:0:0:
256,192,142095,1,0,0:0:0:0:
256,192,142282,1,0,0:0:0:0:
256,192,142470,1,2,0:0:0:0:
256,192,142657,1,2,0:0:0:0:
256,192,142845,1,0,0:0:0:0:
256,192,143032,1,0,0:0:0:0:
256,192,143220,1,2,0:0:0:0:
256,192,143407,1,2,0:0:0:0:
256,192,143595,1,0,0:0:0:0:
256,192,143782,1,0,0:0:0:0:
256,192,143970,1,0,0:0:0:0:
256,192,145470,1,0,0:0:0:0:
256,192,146970,1,0,0:0:0:0:
256,192,149970,5,0,0:0:0:0:
256,192,151470,1,0,0:0:0:0:
256,192,152970,1,0,0:0:0:0:
256,192,155970,5,0,0:0:0:0:
256,192,157470,1,0,0:0:0:0:
256,192,158970,1,0,0:0:0:0:
256,192,161970,5,0,0:0:0:0:
256,192,163470,1,0,0:0:0:0:
256,192,164970,1,0,0:0:0:0:
256,192,165063,12,0,167876,0:0:0:0:
256,192,167970,5,2,0:0:0:0:
256,192,168532,1,0,0:0:0:0:
256,192,168720,1,2,0:0:0:0:
256,192,169095,1,2,0:0:0:0:
256,192,170032,1,2,0:0:0:0:
256,192,170220,1,0,0:0:0:0:
256,192,170595,1,2,0:0:0:0:
256,192,170970,1,0,0:0:0:0:
256,192,171532,1,0,0:0:0:0:
256,192,171720,1,2,0:0:0:0:
256,192,172095,1,2,0:0:0:0:
256,192,172470,1,0,0:0:0:0:
256,192,172845,1,0,0:0:0:0:
256,192,173220,1,2,0:0:0:0:
256,192,173595,1,0,0:0:0:0:
256,192,173970,1,2,0:0:0:0:
256,192,174532,1,0,0:0:0:0:
256,192,174720,1,2,0:0:0:0:
256,192,175095,1,0,0:0:0:0:
256,192,175470,1,2,0:0:0:0:
256,192,175845,1,0,0:0:0:0:
256,192,176220,1,2,0:0:0:0:
256,192,176407,1,2,0:0:0:0:
256,192,176595,1,0,0:0:0:0:
256,192,176782,1,0,0:0:0:0:
256,192,176970,1,0,0:0:0:0:
256,192,177157,1,2,0:0:0:0:
256,192,177345,1,0,0:0:0:0:
256,192,177720,1,0,0:0:0:0:
256,192,177907,1,2,0:0:0:0:
256,192,178095,1,2,0:0:0:0:
256,192,178282,1,0,0:0:0:0:
256,192,178470,1,2,0:0:0:0:
256,192,178845,1,2,0:0:0:0:
256,192,179032,1,0,0:0:0:0:
256,192,179220,1,2,0:0:0:0:
256,192,179595,1,0,0:0:0:0:
256,192,179970,1,2,0:0:0:0:
256,192,180532,1,0,0:0:0:0:
256,192,180720,1,2,0:0:0:0:
256,192,181095,1,2,0:0:0:0:
256,192,182032,1,2,0:0:0:0:
256,192,182220,1,0,0:0:0:0:
256,192,182595,1,2,0:0:0:0:
256,192,182970,1,0,0:0:0:0:
256,192,183532,1,0,0:0:0:0:
256,192,183720,1,2,0:0:0:0:
256,192,184095,1,2,0:0:0:0:
256,192,184470,1,0,0:0:0:0:
256,192,184845,1,2,0:0:0:0:
256,192,185032,1,2,0:0:0:0:
256,192,185220,1,0,0:0:0:0:
256,192,185595,1,0,0:0:0:0:
256,192,185970,1,2,0:0:0:0:
256,192,186532,1,0,0:0:0:0:
256,192,186720,1,2,0:0:0:0:
256,192,187095,1,0,0:0:0:0:
256,192,187470,1,2,0:0:0:0:
256,192,187845,1,0,0:0:0:0:
256,192,188220,1,0,0:0:0:0:
256,192,188407,1,2,0:0:0:0:
256,192,188595,1,0,0:0:0:0:
256,192,188782,1,0,0:0:0:0:
256,192,188970,1,2,0:0:0:0:
256,192,189157,1,2,0:0:0:0:
256,192,189345,1,0,0:0:0:0:
256,192,189720,1,0,0:0:0:0:
256,192,189907,1,2,0:0:0:0:
256,192,190095,1,2,0:0:0:0:
256,192,190282,1,2,0:0:0:0:
256,192,190470,1,0,0:0:0:0:
256,192,190845,1,0,0:0:0:0:
256,192,191032,1,0,0:0:0:0:
256,192,191220,1,2,0:0:0:0:
256,192,191595,1,0,0:0:0:0:
256,192,191970,1,2,0:0:0:0:
256,192,192157,1,0,0:0:0:0:
256,192,192345,1,2,0:0:0:0:
256,192,192532,1,0,0:0:0:0:
256,192,192626,1,0,0:0:0:0:
256,192,192720,1,2,0:0:0:0:
256,192,192907,1,0,0:0:0:0:
256,192,193095,1,2,0:0:0:0:
256,192,193188,1,2,0:0:0:0:
256,192,193282,1,0,0:0:0:0:
256,192,193470,1,0,0:0:0:0:
256,192,193657,1,0,0:0:0:0:
256,192,193845,1,2,0:0:0:0:
256,192,194032,1,0,0:0:0:0:
256,192,194126,1,2,0:0:0:0:
256,192,194220,1,2,0:0:0:0:
256,192,194407,1,0,0:0:0:0:
256,192,194595,1,2,0:0:0:0:
256,192,194688,1,0,0:0:0:0:
256,192,194782,1,0,0:0:0:0:
256,192,194970,1,2,0:0:0:0:
256,192,195157,1,0,0:0:0:0:
256,192,195345,1,2,0:0:0:0:
256,192,195532,1,2,0:0:0:0:
256,192,195626,1,0,0:0:0:0:
256,192,195720,1,2,0:0:0:0:
256,192,195907,1,0,0:0:0:0:
256,192,196095,1,2,0:0:0:0:
256,192,196282,1,0,0:0:0:0:
256,192,196470,1,2,0:0:0:0:
256,192,196563,1,0,0:0:0:0:
256,192,196657,1,0,0:0:0:0:
256,192,196845,1,2,0:0:0:0:
256,192,197032,1,0,0:0:0:0:
256,192,197220,1,2,0:0:0:0:
256,192,197313,1,2,0:0:0:0:
256,192,197407,1,0,0:0:0:0:
256,192,197595,1,0,0:0:0:0:
256,192,197688,1,0,0:0:0:0:
256,192,197782,1,0,0:0:0:0:
256,192,197876,1,2,0:0:0:0:
256,192,197970,1,0,0:0:0:0:
256,192,198157,1,0,0:0:0:0:
256,192,198345,1,2,0:0:0:0:
256,192,198532,1,0,0:0:0:0:
256,192,198720,1,2,0:0:0:0:
256,192,198813,1,2,0:0:0:0:
256,192,198907,1,0,0:0:0:0:
256,192,199095,1,2,0:0:0:0:
256,192,199282,1,0,0:0:0:0:
256,192,199470,1,2,0:0:0:0:
256,192,199563,1,2,0:0:0:0:
256,192,199657,1,2,0:0:0:0:
256,192,199751,1,2,0:0:0:0:
256,192,199845,1,0,0:0:0:0:
256,192,200032,1,0,0:0:0:0:
256,192,200220,1,2,0:0:0:0:
256,192,200407,1,0,0:0:0:0:
256,192,200501,1,2,0:0:0:0:
256,192,200595,1,0,0:0:0:0:
256,192,200782,1,0,0:0:0:0:
256,192,200970,1,2,0:0:0:0:
256,192,201063,1,0,0:0:0:0:
256,192,201157,1,2,0:0:0:0:
256,192,201345,1,2,0:0:0:0:
256,192,201532,1,0,0:0:0:0:
256,192,201720,1,0,0:0:0:0:
256,192,201907,1,0,0:0:0:0:
256,192,202001,1,2,0:0:0:0:
256,192,202095,1,2,0:0:0:0:
256,192,202282,1,0,0:0:0:0:
256,192,202470,1,2,0:0:0:0:
256,192,202563,1,0,0:0:0:0:
256,192,202657,1,0,0:0:0:0:
256,192,202845,1,2,0:0:0:0:
256,192,203032,1,0,0:0:0:0:
256,192,203220,1,2,0:0:0:0:
256,192,203313,1,2,0:0:0:0:
256,192,203407,1,0,0:0:0:0:
256,192,203501,1,0,0:0:0:0:
256,192,203595,1,2,0:0:0:0:
256,192,203782,1,0,0:0:0:0:
256,192,203876,1,2,0:0:0:0:
256,192,203970,1,0,0:0:0:0:
256,192,204157,1,0,0:0:0:0:
256,192,204345,1,2,0:0:0:0:
256,192,204532,1,2,0:0:0:0:
256,192,204626,1,0,0:0:0:0:
256,192,204720,1,2,0:0:0:0:
256,192,204907,1,0,0:0:0:0:
256,192,205095,1,2,0:0:0:0:
256,192,205188,1,2,0:0:0:0:
256,192,205282,1,0,0:0:0:0:
256,192,205470,1,0,0:0:0:0:
256,192,205657,1,0,0:0:0:0:
256,192,205845,1,2,0:0:0:0:
256,192,206032,1,0,0:0:0:0:
256,192,206126,1,0,0:0:0:0:
256,192,206220,1,2,0:0:0:0:
256,192,206407,1,0,0:0:0:0:
256,192,206595,1,2,0:0:0:0:
256,192,206688,1,2,0:0:0:0:
256,192,206782,1,0,0:0:0:0:
256,192,206970,1,2,0:0:0:0:
256,192,207157,1,0,0:0:0:0:
256,192,207345,1,0,0:0:0:0:
256,192,207532,1,0,0:0:0:0:
256,192,207626,1,2,0:0:0:0:
256,192,207720,1,2,0:0:0:0:
256,192,207907,1,0,0:0:0:0:
256,192,208095,1,2,0:0:0:0:
256,192,208282,1,0,0:0:0:0:
256,192,208470,1,2,0:0:0:0:
256,192,208563,1,0,0:0:0:0:
256,192,208657,1,0,0:0:0:0:
256,192,208845,1,2,0:0:0:0:
256,192,209032,1,0,0:0:0:0:
256,192,209220,1,2,0:0:0:0:
256,192,209313,1,2,0:0:0:0:
256,192,209407,1,0,0:0:0:0:
256,192,209595,1,2,0:0:0:0:
256,192,209688,1,0,0:0:0:0:
256,192,209782,1,0,0:0:0:0:
256,192,209876,1,2,0:0:0:0:
256,192,209970,1,0,0:0:0:0:
256,192,210157,1,0,0:0:0:0:
256,192,210345,1,2,0:0:0:0:
256,192,210532,1,0,0:0:0:0:
256,192,210720,1,2,0:0:0:0:
256,192,210813,1,2,0:0:0:0:
256,192,210907,1,0,0:0:0:0:
256,192,211095,1,2,0:0:0:0:
256,192,211282,1,0,0:0:0:0:
256,192,211470,1,2,0:0:0:0:
256,192,211563,1,2,0:0:0:0:
256,192,211657,1,2,0:0:0:0:
256,192,211751,1,2,0:0:0:0:
256,192,211845,1,0,0:0:0:0:
256,192,212032,1,0,0:0:0:0:
256,192,212220,1,2,0:0:0:0:
256,192,212407,1,0,0:0:0:0:
256,192,212501,1,2,0:0:0:0:
256,192,212595,1,0,0:0:0:0:
256,192,212782,1,0,0:0:0:0:
256,192,212970,1,2,0:0:0:0:
256,192,213063,1,2,0:0:0:0:
256,192,213157,1,0,0:0:0:0:
256,192,213345,1,2,0:0:0:0:
256,192,213532,1,0,0:0:0:0:
256,192,213720,1,0,0:0:0:0:
256,192,213907,1,0,0:0:0:0:
256,192,214001,1,2,0:0:0:0:
256,192,214095,1,2,0:0:0:0:
256,192,214282,1,0,0:0:0:0:
256,192,214470,1,2,0:0:0:0:
256,192,214563,1,0,0:0:0:0:
256,192,214657,1,0,0:0:0:0:
256,192,214845,1,2,0:0:0:0:
256,192,215032,1,0,0:0:0:0:
256,192,215220,1,2,0:0:0:0:
256,192,215313,1,2,0:0:0:0:
256,192,215407,1,0,0:0:0:0:
256,192,215501,1,0,0:0:0:0:
256,192,215595,1,2,0:0:0:0:
256,192,215782,1,0,0:0:0:0:
256,192,215876,1,2,0:0:0:0:
256,192,215970,1,0,0:0:0:0:
256,192,216157,1,0,0:0:0:0:
256,192,216345,1,0,0:0:0:0:
256,192,216438,1,0,0:0:0:0:
256,192,216532,1,2,0:0:0:0:
256,192,216626,1,0,0:0:0:0:
256,192,216720,1,2,0:0:0:0:
256,192,216907,1,0,0:0:0:0:
256,192,217095,1,2,0:0:0:0:
256,192,217188,1,2,0:0:0:0:
256,192,217282,1,0,0:0:0:0:
256,192,217470,1,2,0:0:0:0:
256,192,217657,1,0,0:0:0:0:
256,192,217845,1,2,0:0:0:0:
256,192,218032,1,0,0:0:0:0:
256,192,218126,1,2,0:0:0:0:
256,192,218220,1,2,0:0:0:0:
256,192,218313,1,0,0:0:0:0:
256,192,218407,1,0,0:0:0:0:
256,192,218595,1,2,0:0:0:0:
256,192,218688,1,2,0:0:0:0:
256,192,218782,1,2,0:0:0:0:
256,192,218970,1,0,0:0:0:0:
256,192,219157,1,0,0:0:0:0:
256,192,219345,1,2,0:0:0:0:
256,192,219532,1,0,0:0:0:0:
256,192,219626,1,0,0:0:0:0:
256,192,219720,1,2,0:0:0:0:
256,192,219813,1,2,0:0:0:0:
256,192,219907,1,0,0:0:0:0:
256,192,220095,1,2,0:0:0:0:
256,192,220188,1,2,0:0:0:0:
256,192,220282,1,0,0:0:0:0:
256,192,220470,1,2,0:0:0:0:
256,192,220563,1,0,0:0:0:0:
256,192,220657,1,0,0:0:0:0:
256,192,220845,1,2,0:0:0:0:
256,192,221032,1,0,0:0:0:0:
256,192,221220,1,2,0:0:0:0:
256,192,221313,1,2,0:0:0:0:
256,192,221407,1,2,0:0:0:0:
256,192,221595,1,0,0:0:0:0:
256,192,221688,1,0,0:0:0:0:
256,192,221782,1,2,0:0:0:0:
256,192,221876,1,2,0:0:0:0:
256,192,221970,1,0,0:0:0:0:
256,192,222063,1,2,0:0:0:0:
256,192,222157,1,0,0:0:0:0:
256,192,222345,1,2,0:0:0:0:
256,192,222532,1,0,0:0:0:0:
256,192,222720,1,2,0:0:0:0:
256,192,222813,1,2,0:0:0:0:
256,192,222907,1,0,0:0:0:0:
256,192,223001,1,0,0:0:0:0:
256,192,223095,1,2,0:0:0:0:
256,192,223282,1,0,0:0:0:0:
256,192,223470,1,2,0:0:0:0:
256,192,223563,1,2,0:0:0:0:
256,192,223657,1,2,0:0:0:0:
256,192,223751,1,2,0:0:0:0:
256,192,223845,1,0,0:0:0:0:
256,192,223938,1,0,0:0:0:0:
256,192,224032,1,0,0:0:0:0:
256,192,224220,1,2,0:0:0:0:
256,192,224407,1,0,0:0:0:0:
256,192,224501,1,2,0:0:0:0:
256,192,224595,1,0,0:0:0:0:
256,192,224782,1,0,0:0:0:0:
256,192,224970,1,2,0:0:0:0:
256,192,225063,1,0,0:0:0:0:
256,192,225157,1,2,0:0:0:0:
256,192,225251,1,2,0:0:0:0:
256,192,225345,1,2,0:0:0:0:
256,192,225532,1,0,0:0:0:0:
256,192,225720,1,0,0:0:0:0:
256,192,225907,1,0,0:0:0:0:
256,192,226001,1,2,0:0:0:0:
256,192,226095,1,2,0:0:0:0:
256,192,226282,1,0,0:0:0:0:
256,192,226470,1,2,0:0:0:0:
256,192,226563,1,0,0:0:0:0:
256,192,226657,1,0,0:0:0:0:
256,192,226751,1,0,0:0:0:0:
256,192,226845,1,2,0:0:0:0:
256,192,227032,1,0,0:0:0:0:
256,192,227220,1,2,0:0:0:0:
256,192,227313,1,2,0:0:0:0:
256,192,227407,1,0,0:0:0:0:
256,192,227501,1,0,0:0:0:0:
256,192,227595,1,2,0:0:0:0:
256,192,227782,1,0,0:0:0:0:
256,192,227876,1,2,0:0:0:0:
256,192,227970,1,0,0:0:0:0:
256,192,228157,1,0,0:0:0:0:
256,192,228345,1,0,0:0:0:0:
256,192,228438,1,0,0:0:0:0:
256,192,228532,1,2,0:0:0:0:
256,192,228626,1,0,0:0:0:0:
256,192,228720,1,2,0:0:0:0:
256,192,228907,1,0,0:0:0:0:
256,192,229095,1,2,0:0:0:0:
256,192,229188,1,2,0:0:0:0:
256,192,229282,1,0,0:0:0:0:
256,192,229470,1,0,0:0:0:0:
256,192,229657,1,0,0:0:0:0:
256,192,229845,1,2,0:0:0:0:
256,192,230032,1,0,0:0:0:0:
256,192,230126,1,0,0:0:0:0:
256,192,230220,1,2,0:0:0:0:
256,192,230313,1,0,0:0:0:0:
256,192,230407,1,0,0:0:0:0:
256,192,230595,1,2,0:0:0:0:
256,192,230688,1,2,0:0:0:0:
256,192,230782,1,0,0:0:0:0:
256,192,230970,1,2,0:0:0:0:
256,192,231157,1,0,0:0:0:0:
256,192,231345,1,2,0:0:0:0:
256,192,231532,1,2,0:0:0:0:
256,192,231626,1,0,0:0:0:0:
256,192,231720,1,2,0:0:0:0:
256,192,231813,1,0,0:0:0:0:
256,192,231907,1,0,0:0:0:0:
256,192,232095,1,2,0:0:0:0:
256,192,232188,1,2,0:0:0:0:
256,192,232282,1,0,0:0:0:0:
256,192,232470,1,2,0:0:0:0:
256,192,232563,1,0,0:0:0:0:
256,192,232657,1,0,0:0:0:0:
256,192,232845,1,2,0:0:0:0:
256,192,233032,1,0,0:0:0:0:
256,192,233220,1,2,0:0:0:0:
256,192,233313,1,2,0:0:0:0:
256,192,233407,1,0,0:0:0:0:
256,192,233595,1,2,0:0:0:0:
256,192,233688,1,0,0:0:0:0:
256,192,233782,1,2,0:0:0:0:
256,192,233876,1,2,0:0:0:0:
256,192,233970,1,0,0:0:0:0:
256,192,234063,1,0,0:0:0:0:
256,192,234157,1,0,0:0:0:0:
256,192,234345,1,2,0:0:0:0:
256,192,234532,1,0,0:0:0:0:
256,192,234720,1,2,0:0:0:0:
256,192,234813,1,2,0:0:0:0:
256,192,234907,1,0,0:0:0:0:
256,192,235001,1,0,0:0:0:0:
256,192,235095,1,2,0:0:0:0:
256,192,235282,1,0,0:0:0:0:
256,192,235470,1,2,0:0:0:0:
256,192,235563,1,2,0:0:0:0:
256,192,235657,1,2,0:0:0:0:
256,192,235751,1,2,0:0:0:0:
256,192,235845,1,0,0:0:0:0:
256,192,235938,1,2,0:0:0:0:
256,192,236032,1,0,0:0:0:0:
256,192,236220,1,0,0:0:0:0:
256,192,236407,1,2,0:0:0:0:
256,192,236501,1,0,0:0:0:0:
256,192,236595,1,2,0:0:0:0:
256,192,236782,1,0,0:0:0:0:
256,192,236970,1,2,0:0:0:0:
256,192,237063,1,0,0:0:0:0:
256,192,237157,1,0,0:0:0:0:
256,192,237251,1,2,0:0:0:0:
256,192,237345,1,2,0:0:0:0:
256,192,237532,1,0,0:0:0:0:
256,192,237720,1,0,0:0:0:0:
256,192,237907,1,0,0:0:0:0:
256,192,238001,1,2,0:0:0:0:
256,192,238095,1,2,0:0:0:0:
256,192,238282,1,2,0:0:0:0:
160,192,238470,2,0,B|32:192|32:192|352:192,1,420
256,192,239970,1,2,0:0:0:0:
256,192,240063,1,2,0:0:0:0:
256,192,240157,1,0,0:0:0:0:
256,192,240345,1,2,0:0:0:0:
256,192,240532,1,2,0:0:0:0:
256,192,240626,1,0,0:0:0:0:
256,192,240720,1,2,0:0:0:0:
256,192,240813,1,2,0:0:0:0:
256,192,240907,1,0,0:0:0:0:
256,192,241095,1,2,0:0:0:0:
256,192,241188,1,2,0:0:0:0:
256,192,241282,1,2,0:0:0:0:
256,192,241470,1,0,0:0:0:0:
256,192,241657,1,0,0:0:0:0:
256,192,241845,1,2,0:0:0:0:
256,192,242032,1,0,0:0:0:0:
256,192,242126,1,0,0:0:0:0:
256,192,242220,1,2,0:0:0:0:
256,192,242313,1,2,0:0:0:0:
256,192,242407,1,0,0:0:0:0:
256,192,242595,1,2,0:0:0:0:
256,192,242688,1,2,0:0:0:0:
256,192,242782,1,0,0:0:0:0:
256,192,242876,1,2,0:0:0:0:
256,192,242970,1,0,0:0:0:0:
256,192,243157,1,0,0:0:0:0:
256,192,243345,1,2,0:0:0:0:
256,192,243532,1,0,0:0:0:0:
256,192,243626,1,2,0:0:0:0:
256,192,243720,1,0,0:0:0:0:
256,192,243907,1,0,0:0:0:0:
256,192,244095,1,2,0:0:0:0:
256,192,244188,1,0,0:0:0:0:
256,192,244282,1,2,0:0:0:0:
256,192,244376,1,2,0:0:0:0:
256,192,244470,1,0,0:0:0:0:
256,192,244563,1,0,0:0:0:0:
256,192,244657,1,0,0:0:0:0:
256,192,244845,1,2,0:0:0:0:
256,192,244938,1,0,0:0:0:0:
256,192,245032,1,0,0:0:0:0:
256,192,245220,1,2,0:0:0:0:
256,192,245313,1,2,0:0:0:0:
256,192,245407,1,0,0:0:0:0:
256,192,245595,1,2,0:0:0:0:
256,192,245688,1,0,0:0:0:0:
256,192,245782,1,0,0:0:0:0:
256,192,245876,1,0,0:0:0:0:
256,192,245970,1,2,0:0:0:0:
256,192,246157,1,0,0:0:0:0:
256,192,246345,1,2,0:0:0:0:
256,192,246532,1,0,0:0:0:0:
256,192,246626,1,0,0:0:0:0:
256,192,246720,1,2,0:0:0:0:
256,192,246813,1,2,0:0:0:0:
256,192,246907,1,0,0:0:0:0:
256,192,247095,1,2,0:0:0:0:
256,192,247188,1,0,0:0:0:0:
256,192,247282,1,0,0:0:0:0:
256,192,247470,1,2,0:0:0:0:
256,192,247563,1,2,0:0:0:0:
256,192,247657,1,2,0:0:0:0:
256,192,247751,1,0,0:0:0:0:
256,192,247845,1,2,0:0:0:0:
256,192,247938,1,2,0:0:0:0:
256,192,248032,1,0,0:0:0:0:
256,192,248220,1,2,0:0:0:0:
256,192,248407,1,2,0:0:0:0:
256,192,248501,1,0,0:0:0:0:
256,192,248595,1,2,0:0:0:0:
256,192,248782,1,0,0:0:0:0:
256,192,248970,1,2,0:0:0:0:
256,192,249063,1,2,0:0:0:0:
256,192,249157,1,0,0:0:0:0:
256,192,249345,1,2,0:0:0:0:
256,192,249532,1,0,0:0:0:0:
256,192,249626,1,0,0:0:0:0:
256,192,249720,1,2,0:0:0:0:
256,192,249813,1,0,0:0:0:0:
256,192,249907,1,2,0:0:0:0:
256,192,250095,1,2,0:0:0:0:
256,192,250188,1,2,0:0:0:0:
256,192,250282,1,0,0:0:0:0:
256,192,250470,1,2,0:0:0:0:
256,192,250657,1,0,0:0:0:0:
256,192,250845,1,2,0:0:0:0:
256,192,250938,1,0,0:0:0:0:
256,192,251032,1,2,0:0:0:0:
256,192,251126,1,2,0:0:0:0:
256,192,251220,1,0,0:0:0:0:
256,192,251313,1,2,0:0:0:0:
256,192,251407,1,0,0:0:0:0:
256,192,251595,1,0,0:0:0:0:
256,192,251688,1,2,0:0:0:0:
256,192,251782,1,2,0:0:0:0:
256,192,251876,1,2,0:0:0:0:
256,192,251970,1,0,0:0:0:0:
256,192,252063,1,0,0:0:0:0:
256,192,252157,1,2,0:0:0:0:
256,192,252345,1,2,0:0:0:0:
256,192,252532,1,0,0:0:0:0:
256,192,252626,1,0,0:0:0:0:
256,192,252720,1,2,0:0:0:0:
256,192,252813,1,2,0:0:0:0:
256,192,252907,1,2,0:0:0:0:
256,192,253095,1,2,0:0:0:0:
256,192,253188,1,0,0:0:0:0:
256,192,253282,1,0,0:0:0:0:
256,192,253470,1,2,0:0:0:0:
256,192,253657,1,0,0:0:0:0:
256,192,253845,1,2,0:0:0:0:
256,192,254032,1,0,0:0:0:0:
256,192,254126,1,2,0:0:0:0:
256,192,254220,1,0,0:0:0:0:
256,192,254313,1,0,0:0:0:0:
256,192,254407,1,2,0:0:0:0:
256,192,254595,1,2,0:0:0:0:
256,192,254688,1,2,0:0:0:0:
256,192,254782,1,0,0:0:0:0:
256,192,254876,1,2,0:0:0:0:
256,192,254970,1,2,0:0:0:0:
256,192,255157,1,0,0:0:0:0:
256,192,255345,1,2,0:0:0:0:
256,192,255532,1,2,0:0:0:0:
256,192,255626,1,0,0:0:0:0:
256,192,255720,1,2,0:0:0:0:
256,192,255907,1,0,0:0:0:0:
256,192,256095,1,2,0:0:0:0:
256,192,256188,1,2,0:0:0:0:
256,192,256282,1,0,0:0:0:0:
256,192,256376,1,0,0:0:0:0:
256,192,256470,1,2,0:0:0:0:
256,192,256563,1,0,0:0:0:0:
256,192,256657,1,0,0:0:0:0:
256,192,256845,1,2,0:0:0:0:
256,192,256938,1,2,0:0:0:0:
256,192,257032,1,0,0:0:0:0:
256,192,257220,1,2,0:0:0:0:
256,192,257313,1,0,0:0:0:0:
256,192,257407,1,2,0:0:0:0:
256,192,257595,1,2,0:0:0:0:
256,192,257688,1,2,0:0:0:0:
256,192,257782,1,0,0:0:0:0:
256,192,257876,1,0,0:0:0:0:
256,192,257970,1,2,0:0:0:0:
256,192,258157,1,0,0:0:0:0:
256,192,258345,1,2,0:0:0:0:
256,192,258532,1,0,0:0:0:0:
256,192,258626,1,0,0:0:0:0:
256,192,258720,1,2,0:0:0:0:
256,192,258813,1,2,0:0:0:0:
256,192,258907,1,0,0:0:0:0:
256,192,259095,1,0,0:0:0:0:
256,192,259188,1,2,0:0:0:0:
256,192,259282,1,0,0:0:0:0:
256,192,259470,1,2,0:0:0:0:
256,192,259563,1,2,0:0:0:0:
256,192,259657,1,2,0:0:0:0:
256,192,259751,1,2,0:0:0:0:
256,192,259845,1,0,0:0:0:0:
256,192,259938,1,2,0:0:0:0:
256,192,260032,1,0,0:0:0:0:
256,192,260220,1,2,0:0:0:0:
256,192,260407,1,0,0:0:0:0:
256,192,260501,1,2,0:0:0:0:
256,192,260595,1,2,0:0:0:0:
256,192,260782,1,0,0:0:0:0:
256,192,260970,1,2,0:0:0:0:
256,192,261063,1,2,0:0:0:0:
256,192,261157,1,0,0:0:0:0:
256,192,261345,1,2,0:0:0:0:
256,192,261532,1,0,0:0:0:0:
256,192,261626,1,0,0:0:0:0:
256,192,261720,1,2,0:0:0:0:
256,192,261813,1,0,0:0:0:0:
256,192,261907,1,2,0:0:0:0:
256,192,262095,1,2,0:0:0:0:
256,192,262188,1,2,0:0:0:0:
256,192,262282,1,0,0:0:0:0:
256,192,262470,1,2,0:0:0:0:
256,192,262657,1,0,0:0:0:0:
256,192,262845,1,2,0:0:0:0:
256,192,262938,1,2,0:0:0:0:
256,192,263032,1,0,0:0:0:0:
256,192,263126,1,2,0:0:0:0:
256,192,263220,1,0,0:0:0:0:
256,192,263313,1,0,0:0:0:0:
256,192,263407,1,2,0:0:0:0:
256,192,263595,1,0,0:0:0:0:
256,192,263688,1,2,0:0:0:0:
256,192,263782,1,0,0:0:0:0:
256,192,263876,1,0,0:0:0:0:
256,192,263970,1,2,0:0:0:0:
256,192,264063,1,2,0:0:0:0:
256,192,264157,1,0,0:0:0:0:
256,192,264345,1,2,0:0:0:0:
256,192,264532,1,0,0:0:0:0:
256,192,264626,1,0,0:0:0:0:
256,192,264720,1,2,0:0:0:0:
256,192,264813,1,2,0:0:0:0:
256,192,264907,1,2,0:0:0:0:
256,192,265095,1,0,0:0:0:0:
256,192,265188,1,2,0:0:0:0:
256,192,265282,1,0,0:0:0:0:
256,192,265376,1,0,0:0:0:0:
256,192,265470,1,2,0:0:0:0:
256,192,265657,1,0,0:0:0:0:
256,192,265845,1,2,0:0:0:0:
256,192,265938,1,2,0:0:0:0:
256,192,266032,1,0,0:0:0:0:
256,192,266126,1,0,0:0:0:0:
256,192,266220,1,2,0:0:0:0:
256,192,266313,1,0,0:0:0:0:
256,192,266407,1,2,0:0:0:0:
256,192,266595,1,2,0:0:0:0:
256,192,266688,1,2,0:0:0:0:
256,192,266782,1,0,0:0:0:0:
256,192,266876,1,0,0:0:0:0:
256,192,266970,1,2,0:0:0:0:
256,192,267157,1,0,0:0:0:0:
256,192,267345,1,0,0:0:0:0:
256,192,267438,1,2,0:0:0:0:
256,192,267532,1,0,0:0:0:0:
256,192,267626,1,0,0:0:0:0:
256,192,267720,1,2,0:0:0:0:
256,192,267813,1,2,0:0:0:0:
256,192,267907,1,0,0:0:0:0:
256,192,268095,1,2,0:0:0:0:
256,192,268188,1,2,0:0:0:0:
256,192,268282,1,2,0:0:0:0:
256,192,268376,1,0,0:0:0:0:
256,192,268470,1,2,0:0:0:0:
256,192,268563,1,2,0:0:0:0:
256,192,268657,1,0,0:0:0:0:
256,192,268845,1,2,0:0:0:0:
256,192,268938,1,0,0:0:0:0:
256,192,269032,1,0,0:0:0:0:
256,192,269220,1,2,0:0:0:0:
256,192,269313,1,2,0:0:0:0:
256,192,269407,1,0,0:0:0:0:
256,192,269595,1,2,0:0:0:0:
256,192,269688,1,0,0:0:0:0:
256,192,269782,1,0,0:0:0:0:
256,192,269876,1,2,0:0:0:0:
256,192,269970,1,2,0:0:0:0:
256,192,270157,1,0,0:0:0:0:
256,192,270345,1,2,0:0:0:0:
256,192,270532,1,0,0:0:0:0:
256,192,270626,1,0,0:0:0:0:
256,192,270720,1,2,0:0:0:0:
256,192,270813,1,2,0:0:0:0:
256,192,270907,1,2,0:0:0:0:
256,192,271095,1,0,0:0:0:0:
256,192,271188,1,2,0:0:0:0:
256,192,271282,1,0,0:0:0:0:
256,192,271470,1,2,0:0:0:0:
256,192,271563,1,2,0:0:0:0:
256,192,271657,1,2,0:0:0:0:
256,192,271751,1,2,0:0:0:0:
256,192,271845,1,0,0:0:0:0:
256,192,271938,1,2,0:0:0:0:
256,192,272032,1,0,0:0:0:0:
256,192,272126,1,0,0:0:0:0:
256,192,272220,1,2,0:0:0:0:
256,192,272407,1,2,0:0:0:0:
256,192,272501,1,2,0:0:0:0:
256,192,272595,1,0,0:0:0:0:
256,192,272782,1,2,0:0:0:0:
256,192,272970,1,0,0:0:0:0:
256,192,273063,1,0,0:0:0:0:
256,192,273157,1,2,0:0:0:0:
256,192,273251,1,2,0:0:0:0:
256,192,273345,1,0,0:0:0:0:
256,192,273532,1,0,0:0:0:0:
256,192,273626,1,2,0:0:0:0:
256,192,273720,1,0,0:0:0:0:
256,192,273813,1,0,0:0:0:0:
256,192,273907,1,2,0:0:0:0:
256,192,274001,1,0,0:0:0:0:
256,192,274095,1,2,0:0:0:0:
256,192,274282,1,2,0:0:0:0:
256,192,274470,1,0,0:0:0:0:
256,192,274563,1,2,0:0:0:0:
256,192,274657,1,0,0:0:0:0:
256,192,274845,1,2,0:0:0:0:
256,192,274938,1,0,0:0:0:0:
256,192,275032,1,2,0:0:0:0:
256,192,275126,1,2,0:0:0:0:
256,192,275220,1,2,0:0:0:0:
256,192,275407,1,0,0:0:0:0:
256,192,275595,1,0,0:0:0:0:
256,192,275688,1,0,0:0:0:0:
256,192,275782,1,2,0:0:0:0:
256,192,275876,1,2,0:0:0:0:
256,192,275970,1,0,0:0:0:0:
256,192,276063,1,2,0:0:0:0:
256,192,276157,1,0,0:0:0:0:
256,192,276345,1,2,0:0:0:0:
256,192,276532,1,0,0:0:0:0:
256,192,276626,1,2,0:0:0:0:
256,192,276720,1,2,0:0:0:0:
256,192,276813,1,2,0:0:0:0:
256,192,276907,1,0,0:0:0:0:
256,192,277095,1,2,0:0:0:0:
256,192,277188,1,2,0:0:0:0:
256,192,277282,1,0,0:0:0:0:
256,192,277376,1,2,0:0:0:0:
256,192,277470,1,2,0:0:0:0:
256,192,277657,1,0,0:0:0:0:
256,192,277845,1,2,0:0:0:0:
256,192,277938,1,2,0:0:0:0:
256,192,278032,1,0,0:0:0:0:
256,192,278126,1,2,0:0:0:0:
256,192,278220,1,0,0:0:0:0:
256,192,278313,1,0,0:0:0:0:
256,192,278407,1,2,0:0:0:0:
256,192,278595,1,2,0:0:0:0:
256,192,278688,1,2,0:0:0:0:
256,192,278782,1,0,0:0:0:0:
256,192,278876,1,0,0:0:0:0:
256,192,278970,1,2,0:0:0:0:
256,192,279157,1,0,0:0:0:0:
256,192,279345,1,2,0:0:0:0:
256,192,279532,1,0,0:0:0:0:
256,192,279626,1,0,0:0:0:0:
256,192,279720,1,2,0:0:0:0:
256,192,279813,1,2,0:0:0:0:
256,192,279907,1,0,0:0:0:0:
256,192,280095,1,2,0:0:0:0:
256,192,280188,1,0,0:0:0:0:
256,192,280282,1,2,0:0:0:0:
256,192,280376,1,2,0:0:0:0:
256,192,280470,1,0,0:0:0:0:
256,192,280563,1,0,0:0:0:0:
256,192,280657,1,0,0:0:0:0:
256,192,280845,1,2,0:0:0:0:
256,192,280938,1,0,0:0:0:0:
256,192,281032,1,0,0:0:0:0:
256,192,281220,1,2,0:0:0:0:
256,192,281313,1,2,0:0:0:0:
256,192,281407,1,0,0:0:0:0:
256,192,281595,1,0,0:0:0:0:
256,192,281688,1,0,0:0:0:0:
256,192,281782,1,2,0:0:0:0:
256,192,281876,1,2,0:0:0:0:
256,192,281970,1,0,0:0:0:0:
256,192,282063,1,2,0:0:0:0:
256,192,282157,1,0,0:0:0:0:
256,192,282345,1,0,0:0:0:0:
256,192,282532,1,0,0:0:0:0:
256,192,282626,1,0,0:0:0:0:
256,192,282720,1,2,0:0:0:0:
256,192,282813,1,2,0:0:0:0:
256,192,282907,1,0,0:0:0:0:
256,192,283095,1,2,0:0:0:0:
256,192,283282,1,0,0:0:0:0:
256,192,283470,1,2,0:0:0:0:
256,192,283563,1,2,0:0:0:0:
256,192,283657,1,2,0:0:0:0:
256,192,283751,1,0,0:0:0:0:
256,192,283845,1,2,0:0:0:0:
256,192,283938,1,2,0:0:0:0:
256,192,284032,1,0,0:0:0:0:
256,192,284126,1,0,0:0:0:0:
256,192,284220,1,2,0:0:0:0:
256,192,284407,1,0,0:0:0:0:
256,192,284501,1,2,0:0:0:0:
256,192,284595,1,0,0:0:0:0:
256,192,284782,1,0,0:0:0:0:
256,192,284970,1,2,0:0:0:0:
256,192,285063,1,2,0:0:0:0:
256,192,285157,1,0,0:0:0:0:
256,192,285251,1,0,0:0:0:0:
256,192,285345,1,2,0:0:0:0:
256,192,285532,1,0,0:0:0:0:
256,192,285720,1,2,0:0:0:0:
256,192,285813,1,0,0:0:0:0:
256,192,285907,1,2,0:0:0:0:
256,192,286001,1,2,0:0:0:0:
256,192,286095,1,0,0:0:0:0:
256,192,286188,1,2,0:0:0:0:
256,192,286282,1,0,0:0:0:0:
256,192,286470,1,2,0:0:0:0:
256,192,286845,1,0,0:0:0:0:
256,192,287220,1,2,0:0:0:0:
256,192,287595,1,0,0:0:0:0:
256,192,287970,1,2,0:0:0:0:
256,192,288157,1,0,0:0:0:0:
256,192,288345,1,2,0:0:0:0:
256,192,288532,1,0,0:0:0:0:
256,192,288626,1,0,0:0:0:0:
256,192,288720,1,2,0:0:0:0:
256,192,288907,1,0,0:0:0:0:
256,192,289095,1,2,0:0:0:0:
256,192,289188,1,2,0:0:0:0:
256,192,289282,1,0,0:0:0:0:
256,192,289470,1,2,0:0:0:0:
256,192,289657,1,0,0:0:0:0:
256,192,289845,1,2,0:0:0:0:
256,192,290032,1,0,0:0:0:0:
256,192,290126,1,2,0:0:0:0:
256,192,290220,1,2,0:0:0:0:
256,192,290407,1,0,0:0:0:0:
256,192,290595,1,2,0:0:0:0:
256,192,290688,1,0,0:0:0:0:
256,192,290782,1,0,0:0:0:0:
256,192,290970,1,2,0:0:0:0:
256,192,291157,1,0,0:0:0:0:
256,192,291345,1,2,0:0:0:0:
256,192,291532,1,0,0:0:0:0:
256,192,291626,1,2,0:0:0:0:
256,192,291720,1,0,0:0:0:0:
256,192,291907,1,0,0:0:0:0:
256,192,292095,1,2,0:0:0:0:
256,192,292188,1,0,0:0:0:0:
256,192,292282,1,2,0:0:0:0:
256,192,292470,1,2,0:0:0:0:
256,192,292657,1,0,0:0:0:0:
256,192,292845,1,2,0:0:0:0:
256,192,293032,1,0,0:0:0:0:
256,192,293126,1,2,0:0:0:0:
256,192,293220,1,2,0:0:0:0:
256,192,293407,1,0,0:0:0:0:
256,192,293595,1,2,0:0:0:0:
256,192,293688,1,2,0:0:0:0:
256,192,293782,1,0,0:0:0:0:
256,192,293876,1,0,0:0:0:0:
256,192,293970,1,2,0:0:0:0:
256,192,294157,1,0,0:0:0:0:
256,192,294345,1,2,0:0:0:0:
256,192,294532,1,0,0:0:0:0:
256,192,294626,1,0,0:0:0:0:
256,192,294720,1,2,0:0:0:0:
256,192,294907,1,0,0:0:0:0:
256,192,295095,1,2,0:0:0:0:
256,192,295188,1,2,0:0:0:0:
256,192,295282,1,0,0:0:0:0:
256,192,295470,1,2,0:0:0:0:
256,192,295657,1,0,0:0:0:0:
256,192,295845,1,2,0:0:0:0:
256,192,296032,1,0,0:0:0:0:
256,192,296126,1,2,0:0:0:0:
256,192,296220,1,2,0:0:0:0:
256,192,296407,1,0,0:0:0:0:
256,192,296595,1,2,0:0:0:0:
256,192,296688,1,2,0:0:0:0:
256,192,296782,1,0,0:0:0:0:
256,192,296970,1,2,0:0:0:0:
256,192,297157,1,0,0:0:0:0:
256,192,297345,1,2,0:0:0:0:
256,192,297532,1,0,0:0:0:0:
256,192,297626,1,2,0:0:0:0:
256,192,297720,1,0,0:0:0:0:
256,192,297907,1,0,0:0:0:0:
256,192,298095,1,2,0:0:0:0:
256,192,298188,1,0,0:0:0:0:
256,192,298282,1,2,0:0:0:0:
256,192,298470,1,2,0:0:0:0:
256,192,298657,1,0,0:0:0:0:
256,192,298845,1,2,0:0:0:0:
256,192,299032,1,0,0:0:0:0:
256,192,299126,1,2,0:0:0:0:
256,192,299220,1,2,0:0:0:0:
256,192,299407,1,0,0:0:0:0:
256,192,299595,1,2,0:0:0:0:
256,192,299688,1,0,0:0:0:0:
256,192,299782,1,0,0:0:0:0:
256,192,299876,1,2,0:0:0:0:
256,192,299970,1,2,0:0:0:0:
256,192,300157,1,0,0:0:0:0:
256,192,300345,1,2,0:0:0:0:
256,192,300532,1,0,0:0:0:0:
256,192,300626,1,0,0:0:0:0:
256,192,300720,1,2,0:0:0:0:
256,192,300907,1,0,0:0:0:0:
256,192,301095,1,2,0:0:0:0:
256,192,301188,1,2,0:0:0:0:
256,192,301282,1,0,0:0:0:0:
256,192,301470,1,2,0:0:0:0:
256,192,301657,1,0,0:0:0:0:
256,192,301845,1,2,0:0:0:0:
256,192,302032,1,0,0:0:0:0:
256,192,302126,1,2,0:0:0:0:
256,192,302220,1,2,0:0:0:0:
256,192,302407,1,0,0:0:0:0:
256,192,302595,1,2,0:0:0:0:
256,192,302688,1,0,0:0:0:0:
256,192,302782,1,0,0:0:0:0:
256,192,302970,1,2,0:0:0:0:
256,192,303157,1,0,0:0:0:0:
256,192,303345,1,2,0:0:0:0:
256,192,303532,1,2,0:0:0:0:
256,192,303626,1,0,0:0:0:0:
256,192,303720,1,2,0:0:0:0:
256,192,303907,1,0,0:0:0:0:
256,192,304095,1,0,0:0:0:0:
256,192,304188,1,2,0:0:0:0:
256,192,304282,1,0,0:0:0:0:
256,192,304470,1,2,0:0:0:0:
256,192,304657,1,0,0:0:0:0:
256,192,304845,1,2,0:0:0:0:
256,192,305032,1,0,0:0:0:0:
256,192,305126,1,2,0:0:0:0:
256,192,305220,1,2,0:0:0:0:
256,192,305407,1,0,0:0:0:0:
256,192,305595,1,2,0:0:0:0:
256,192,305688,1,2,0:0:0:0:
256,192,305782,1,0,0:0:0:0:
256,192,305876,1,0,0:0:0:0:
256,192,305970,1,2,0:0:0:0:
256,192,306157,1,0,0:0:0:0:
256,192,306345,1,2,0:0:0:0:
256,192,306532,1,2,0:0:0:0:
256,192,306626,1,2,0:0:0:0:
256,192,306720,1,0,0:0:0:0:
256,192,306907,1,0,0:0:0:0:
256,192,307095,1,0,0:0:0:0:
256,192,307188,1,0,0:0:0:0:
256,192,307282,1,2,0:0:0:0:
256,192,307470,1,2,0:0:0:0:
256,192,307657,1,0,0:0:0:0:
256,192,307845,1,2,0:0:0:0:
256,192,308032,1,0,0:0:0:0:
256,192,308126,1,2,0:0:0:0:
256,192,308220,1,2,0:0:0:0:
256,192,308407,1,0,0:0:0:0:
256,192,308595,1,2,0:0:0:0:
256,192,308688,1,0,0:0:0:0:
256,192,308782,1,0,0:0:0:0:
256,192,308970,1,2,0:0:0:0:
256,192,309157,1,0,0:0:0:0:
256,192,309345,1,2,0:0:0:0:
256,192,309532,1,0,0:0:0:0:
256,192,309626,1,2,0:0:0:0:
256,192,309720,1,0,0:0:0:0:
256,192,309907,1,0,0:0:0:0:
256,192,310095,1,2,0:0:0:0:
256,192,310188,1,0,0:0:0:0:
256,192,310282,1,2,0:0:0:0:
256,192,310470,1,2,0:0:0:0:
256,192,310657,1,0,0:0:0:0:
256,192,310845,1,2,0:0:0:0:
256,192,311032,1,0,0:0:0:0:
256,192,311126,1,2,0:0:0:0:
256,192,311220,1,2,0:0:0:0:
256,192,311407,1,0,0:0:0:0:
256,192,311595,1,2,0:0:0:0:
256,192,311688,1,2,0:0:0:0:
256,192,311782,1,0,0:0:0:0:
256,192,311970,5,2,0:0:0:0:
256,192,312063,1,0,0:0:0:0:
256,192,312157,1,2,0:0:0:0:
256,192,312251,1,0,0:0:0:0:
256,192,312345,1,2,0:0:0:0:
256,192,312438,1,2,0:0:0:0:
256,192,312532,1,0,0:0:0:0:
256,192,312626,1,0,0:0:0:0:
256,192,312720,1,2,0:0:0:0:
256,192,312813,1,0,0:0:0:0:
256,192,312907,1,2,0:0:0:0:
256,192,313001,1,2,0:0:0:0:
256,192,313095,1,0,0:0:0:0:
256,192,313188,1,2,0:0:0:0:
256,192,313282,1,0,0:0:0:0:
256,192,313376,1,0,0:0:0:0:
256,192,313470,1,2,0:0:0:0:
256,192,313563,1,0,0:0:0:0:
256,192,313657,1,0,0:0:0:0:
256,192,313751,1,0,0:0:0:0:
256,192,313845,1,2,0:0:0:0:
256,192,313938,1,2,0:0:0:0:
256,192,314032,1,0,0:0:0:0:
256,192,314126,1,0,0:0:0:0:
256,192,314220,1,2,0:0:0:0:
256,192,314313,1,2,0:0:0:0:
256,192,314407,1,2,0:0:0:0:
256,192,314501,1,0,0:0:0:0:
256,192,314595,1,2,0:0:0:0:
256,192,314688,1,0,0:0:0:0:
256,192,314782,1,2,0:0:0:0:
256,192,314876,1,2,0:0:0:0:
256,192,314970,1,0,0:0:0:0:
256,192,315063,1,0,0:0:0:0:
256,192,315157,1,0,0:0:0:0:
256,192,315251,1,0,0:0:0:0:
256,192,315345,1,2,0:0:0:0:
256,192,315438,1,0,0:0:0:0:
256,192,315532,1,2,0:0:0:0:
256,192,315626,1,2,0:0:0:0:
256,192,315720,1,0,0:0:0:0:
256,192,315813,1,0,0:0:0:0:
256,192,315907,1,2,0:0:0:0:
256,192,316001,1,0,0:0:0:0:
256,192,316095,1,2,0:0:0:0:
256,192,316188,1,2,0:0:0:0:
256,192,316282,1,2,0:0:0:0:
256,192,316376,1,0,0:0:0:0:
256,192,316470,1,2,0:0:0:0:
256,192,316563,1,2,0:0:0:0:
256,192,316657,1,0,0:0:0:0:
256,192,316751,1,0,0:0:0:0:
256,192,316845,1,2,0:0:0:0:
256,192,316938,1,2,0:0:0:0:
256,192,317032,1,0,0:0:0:0:
256,192,317126,1,2,0:0:0:0:
256,192,317220,1,0,0:0:0:0:
256,192,317313,1,0,0:0:0:0:
256,192,317407,1,2,0:0:0:0:
256,192,317501,1,0,0:0:0:0:
256,192,317595,1,2,0:0:0:0:
256,192,317688,1,2,0:0:0:0:
256,192,317782,1,2,0:0:0:0:
256,192,317876,1,0,0:0:0:0:
256,192,317970,1,2,0:0:0:0:
256,192,318063,1,0,0:0:0:0:
256,192,318157,1,0,0:0:0:0:
256,192,318251,1,0,0:0:0:0:
256,192,318345,1,2,0:0:0:0:
256,192,318438,1,0,0:0:0:0:
256,192,318532,1,2,0:0:0:0:
256,192,318626,1,0,0:0:0:0:
256,192,318720,1,2,0:0:0:0:
256,192,318813,1,2,0:0:0:0:
256,192,318907,1,2,0:0:0:0:
256,192,319001,1,0,0:0:0:0:
256,192,319095,1,2,0:0:0:0:
256,192,319188,1,2,0:0:0:0:
256,192,319282,1,0,0:0:0:0:
256,192,319376,1,0,0:0:0:0:
256,192,319470,1,2,0:0:0:0:
256,192,319563,1,2,0:0:0:0:
256,192,319657,1,0,0:0:0:0:
256,192,319751,1,0,0:0:0:0:
256,192,319845,1,2,0:0:0:0:
256,192,319938,1,0,0:0:0:0:
256,192,320032,1,2,0:0:0:0:
256,192,320126,1,2,0:0:0:0:
256,192,320220,1,0,0:0:0:0:
256,192,320313,1,0,0:0:0:0:
256,192,320407,1,0,0:0:0:0:
256,192,320501,1,0,0:0:0:0:
256,192,320595,1,2,0:0:0:0:
256,192,320688,1,2,0:0:0:0:
256,192,320782,1,2,0:0:0:0:
256,192,320876,1,0,0:0:0:0:
256,192,320970,1,2,0:0:0:0:
256,192,321063,1,2,0:0:0:0:
256,192,321157,1,0,0:0:0:0:
256,192,321251,1,0,0:0:0:0:
256,192,321345,1,2,0:0:0:0:
256,192,321438,1,0,0:0:0:0:
256,192,321532,1,2,0:0:0:0:
256,192,321626,1,2,0:0:0:0:
256,192,321720,1,0,0:0:0:0:
256,192,321813,1,0,0:0:0:0:
256,192,321907,1,2,0:0:0:0:
256,192,322001,1,2,0:0:0:0:
256,192,322095,1,0,0:0:0:0:
256,192,322188,1,2,0:0:0:0:
256,192,322282,1,0,0:0:0:0:
256,192,322376,1,0,0:0:0:0:
256,192,322470,1,2,0:0:0:0:
256,192,322563,1,0,0:0:0:0:
256,192,322657,1,2,0:0:0:0:
256,192,322751,1,0,0:0:0:0:
256,192,322845,1,2,0:0:0:0:
256,192,322938,1,2,0:0:0:0:
256,192,323032,1,0,0:0:0:0:
256,192,323126,1,2,0:0:0:0:
256,192,323220,1,0,0:0:0:0:
256,192,323313,1,0,0:0:0:0:
256,192,323407,1,2,0:0:0:0:
256,192,323501,1,0,0:0:0:0:
256,192,323595,1,2,0:0:0:0:
256,192,323688,1,2,0:0:0:0:
256,192,323782,1,2,0:0:0:0:
256,192,323876,1,0,0:0:0:0:
256,192,323970,1,2,0:0:0:0:
256,192,324063,1,2,0:0:0:0:
256,192,324157,1,0,0:0:0:0:
256,192,324251,1,0,0:0:0:0:
256,192,324345,1,2,0:0:0:0:
256,192,324438,1,0,0:0:0:0:
256,192,324532,1,2,0:0:0:0:
256,192,324626,1,2,0:0:0:0:
256,192,324720,1,0,0:0:0:0:
256,192,324813,1,2,0:0:0:0:
256,192,324907,1,0,0:0:0:0:
256,192,325001,1,0,0:0:0:0:
256,192,325095,1,2,0:0:0:0:
256,192,325188,1,2,0:0:0:0:
256,192,325282,1,0,0:0:0:0:
256,192,325376,1,0,0:0:0:0:
256,192,325470,1,2,0:0:0:0:
256,192,325563,1,2,0:0:0:0:
256,192,325657,1,0,0:0:0:0:
256,192,325751,1,0,0:0:0:0:
256,192,325845,1,2,0:0:0:0:
256,192,325938,1,0,0:0:0:0:
256,192,326032,1,2,0:0:0:0:
256,192,326126,1,2,0:0:0:0:
256,192,326220,1,2,0:0:0:0:
256,192,326313,1,0,0:0:0:0:
256,192,326407,1,2,0:0:0:0:
256,192,326501,1,0,0:0:0:0:
256,192,326595,1,2,0:0:0:0:
256,192,326688,1,2,0:0:0:0:
256,192,326782,1,0,0:0:0:0:
256,192,326876,1,0,0:0:0:0:
256,192,326970,1,2,0:0:0:0:
256,192,327063,1,2,0:0:0:0:
256,192,327157,1,0,0:0:0:0:
256,192,327251,1,0,0:0:0:0:
256,192,327345,1,2,0:0:0:0:
256,192,327438,1,0,0:0:0:0:
256,192,327532,1,2,0:0:0:0:
256,192,327626,1,2,0:0:0:0:
256,192,327720,1,0,0:0:0:0:
256,192,327813,1,0,0:0:0:0:
256,192,327907,1,0,0:0:0:0:
256,192,328001,1,0,0:0:0:0:
256,192,328095,1,2,0:0:0:0:
256,192,328188,1,2,0:0:0:0:
256,192,328282,1,2,0:0:0:0:
256,192,328376,1,0,0:0:0:0:
256,192,328470,1,2,0:0:0:0:
256,192,328563,1,2,0:0:0:0:
256,192,328657,1,0,0:0:0:0:
256,192,328751,1,0,0:0:0:0:
256,192,328845,1,2,0:0:0:0:
256,192,328938,1,0,0:0:0:0:
256,192,329032,1,2,0:0:0:0:
256,192,329126,1,2,0:0:0:0:
256,192,329220,1,0,0:0:0:0:
256,192,329313,1,0,0:0:0:0:
256,192,329407,1,0,0:0:0:0:
256,192,329501,1,0,0:0:0:0:
256,192,329595,1,2,0:0:0:0:
256,192,329688,1,2,0:0:0:0:
256,192,329782,1,0,0:0:0:0:
256,192,329876,1,0,0:0:0:0:
256,192,329970,1,2,0:0:0:0:
256,192,330063,1,2,0:0:0:0:
256,192,330157,1,2,0:0:0:0:
256,192,330251,1,0,0:0:0:0:
256,192,330345,1,2,0:0:0:0:
256,192,330438,1,2,0:0:0:0:
256,192,330532,1,0,0:0:0:0:
256,192,330626,1,0,0:0:0:0:
256,192,330720,1,2,0:0:0:0:
256,192,330813,1,0,0:0:0:0:
256,192,330907,1,2,0:0:0:0:
256,192,331001,1,2,0:0:0:0:
256,192,331095,1,0,0:0:0:0:
256,192,331188,1,0,0:0:0:0:
256,192,331282,1,2,0:0:0:0:
256,192,331376,1,0,0:0:0:0:
256,192,331470,1,2,0:0:0:0:
256,192,331563,1,2,0:0:0:0:
256,192,331657,1,0,0:0:0:0:
256,192,331751,1,2,0:0:0:0:
256,192,331845,1,0,0:0:0:0:
256,192,331938,1,0,0:0:0:0:
256,192,332032,1,2,0:0:0:0:
256,192,332126,1,2,0:0:0:0:
256,192,332220,1,0,0:0:0:0:
256,192,332313,1,0,0:0:0:0:
256,192,332407,1,2,0:0:0:0:
256,192,332501,1,0,0:0:0:0:
256,192,332595,1,2,0:0:0:0:
256,192,332688,1,2,0:0:0:0:
256,192,332782,1,0,0:0:0:0:
256,192,332876,1,2,0:0:0:0:
256,192,332970,1,0,0:0:0:0:
256,192,333063,1,0,0:0:0:0:
256,192,333157,1,0,0:0:0:0:
256,192,333251,1,0,0:0:0:0:
256,192,333345,1,2,0:0:0:0:
256,192,333438,1,2,0:0:0:0:
256,192,333532,1,0,0:0:0:0:
256,192,333626,1,2,0:0:0:0:
256,192,333720,1,0,0:0:0:0:
256,192,333813,1,0,0:0:0:0:
256,192,333907,1,2,0:0:0:0:
256,192,334001,1,0,0:0:0:0:
256,192,334095,1,2,0:0:0:0:
256,192,334188,1,2,0:0:0:0:
256,192,334282,1,2,0:0:0:0:
256,192,334376,1,2,0:0:0:0:
