osu file format v14

[General]
AudioFilename: audio.mp3
AudioLeadIn: 0
PreviewTime: 239782
Countdown: 0
SampleSet: Soft
StackLeniency: 0.7
Mode: 0
LetterboxInBreaks: 0
WidescreenStoryboard: 1

[Editor]
Bookmarks: 71970,95970,119970,143970,167970,191970,215970,239970,263970,287970,334470
DistanceSpacing: 0.9
BeatDivisor: 4
GridSize: 32
TimelineZoom: 1.1

[Metadata]
Title:all the joy in life was gone once you left
TitleUnicode:all the joy in life was gone once you left
Artist:Sewerslvt
ArtistUnicode:Sewerslvt
Creator:Mirash
Version:----
Source:
Tags:electronic experimental instrumental dance trance Atmospheric Drum & Bass we had good times together, don't forget that sewerslut if you’re out there i miss you 。゚・ (>﹏<) ・゚。
BeatmapID:3340985
BeatmapSetID:1637043

[Difficulty]
HPDrainRate:6
CircleSize:5
OverallDifficulty:8
ApproachRate:9
SliderMultiplier:1.6
SliderTickRate:1

[Events]
//Background and Video events
0,0,"lain all the jou in life.jpg",0,0
//Break Periods
//Storyboard Layer 0 (Background)
//Storyboard Layer 1 (Fail)
//Storyboard Layer 2 (Pass)
//Storyboard Layer 3 (Foreground)
//Storyboard Layer 4 (Overlay)
//Storyboard Sound Samples

[TimingPoints]
23970,375,4,2,0,40,1,0
47970,-80,4,2,1,60,0,0
71970,-66.6666666666667,4,2,1,60,0,0
88470,-57.1428571428571,4,2,1,60,0,0
89970,-66.6666666666667,4,2,1,60,0,0
94470,-200,4,2,1,50,0,0
95924,-80,4,2,1,70,0,0
95970,-80,4,2,1,70,0,0
119970,-66.6666666666667,4,2,1,70,0,0
142470,-100,4,2,1,60,0,0
143595,-200,4,2,1,50,0,0
143970,-400,4,2,1,50,0,0
143976,-400,4,2,1,30,0,0
144157,-400,4,2,2,35,0,0
144345,-400,4,2,3,40,0,0
144532,-400,4,2,4,45,0,0
144720,-400,4,2,5,50,0,0
144907,-400,4,2,6,55,0,0
145095,-400,4,2,7,60,0,0
145282,-400,4,2,8,70,0,0
145464,-400,4,2,8,50,0,0
145476,-400,4,2,8,70,0,0
145657,-400,4,2,7,60,0,0
145845,-400,4,2,6,55,0,0
146032,-400,4,2,5,50,0,0
146220,-400,4,2,4,45,0,0
146407,-400,4,2,3,40,0,0
146595,-400,4,2,2,35,0,0
146782,-400,4,2,2,30,0,0
146964,-400,4,2,1,30,0,0
146970,-400,4,2,1,50,0,0
148282,-400,4,2,1,36,0,0
149970,-400,4,2,1,50,0,0
149976,-400,4,2,1,30,0,0
150157,-400,4,2,2,35,0,0
150345,-400,4,2,3,40,0,0
150532,-400,4,2,4,45,0,0
150720,-400,4,2,5,50,0,0
150907,-400,4,2,6,55,0,0
151095,-400,4,2,7,60,0,0
151282,-400,4,2,8,70,0,0
151464,-400,4,2,8,50,0,0
151476,-400,4,2,8,70,0,0
151657,-400,4,2,7,60,0,0
151845,-400,4,2,6,55,0,0
152032,-400,4,2,5,50,0,0
152220,-400,4,2,4,45,0,0
152407,-400,4,2,3,40,0,0
152595,-400,4,2,2,35,0,0
152782,-400,4,2,2,30,0,0
152964,-400,4,2,1,30,0,0
152970,-400,4,2,1,50,0,0
154095,-400,4,2,1,36,0,0
155970,-400,4,2,1,50,0,0
155976,-400,4,2,1,30,0,0
156157,-400,4,2,2,35,0,0
156345,-400,4,2,3,40,0,0
156532,-400,4,2,4,45,0,0
156720,-400,4,2,5,50,0,0
156907,-400,4,2,6,55,0,0
157095,-400,4,2,7,60,0,0
157282,-400,4,2,8,70,0,0
157464,-400,4,2,8,50,0,0
157476,-400,4,2,8,70,0,0
157657,-400,4,2,7,60,0,0
157845,-400,4,2,6,55,0,0
158032,-400,4,2,5,50,0,0
158220,-400,4,2,4,45,0,0
158407,-400,4,2,3,40,0,0
158595,-400,4,2,2,35,0,0
158782,-400,4,2,2,30,0,0
158964,-400,4,2,1,30,0,0
158970,-400,4,2,1,50,0,0
159720,-400,4,2,1,36,0,0
161970,-400,4,2,1,50,0,0
161976,-400,4,2,1,30,0,0
162157,-400,4,2,2,35,0,0
162345,-400,4,2,3,40,0,0
162532,-400,4,2,4,45,0,0
162720,-400,4,2,5,50,0,0
162907,-400,4,2,6,55,0,0
163095,-400,4,2,7,60,0,0
163282,-400,4,2,8,70,0,0
163464,-400,4,2,8,50,0,0
163476,-400,4,2,8,70,0,0
163657,-400,4,2,8,50,0,0
164407,-400,4,2,8,55,0,0
164970,-400,4,2,8,60,0,0
165720,-400,4,2,8,65,0,0
166470,-400,4,2,8,70,0,0
167595,-400,4,2,8,5,0,0
167970,-133.333333333333,4,2,0,50,0,0
191970,-133.333333333333,4,2,1,60,0,0
215970,-133.333333333333,4,2,1,65,0,0
238470,-200,4,2,1,50,0,0
238476,-200,4,2,2,70,0,0
238845,-200,4,2,3,80,0,0
239220,-200,4,2,4,90,0,0
239595,-200,4,2,1,5,0,0
239970,-80,4,2,1,70,0,0
286470,-200,4,2,1,50,0,0
287970,-200,4,2,1,60,0,0
290970,-200,4,2,1,50,0,0
293970,-200,4,2,1,60,0,0
296970,-200,4,2,1,50,0,0
299970,-200,4,2,1,60,0,0
302970,-200,4,2,1,50,0,0
305970,-200,4,2,1,60,0,0
308970,-200,4,2,1,50,0,0
310470,-200,4,2,1,60,0,0
311970,-200,4,2,1,60,0,0
312157,-100,4,2,1,60,0,0
314970,-100,4,2,1,50,0,0
317970,-100,4,2,1,60,0,0
320970,-100,4,2,1,50,0,0
323970,-100,4,2,1,60,0,0
326970,-100,4,2,1,50,0,0
329970,-100,4,2,1,60,0,0
332970,-100,4,2,1,50,0,0
334470,-100,4,2,1,50,0,0
335595,-100,4,2,1,40,0,0

[Colours]
Combo1 : 141,153,184
Combo2 : 117,100,145
Combo3 : 118,146,154
Combo4 : 163,92,146

[HitObjects]
487,118,23970,6,0,B|445:149|445:149|469:268,1,160,2|0,0:0|0:0,0:0:0:0:
413,315,24532,2,0,L|254:284,1,160,2|2,0:0|0:0,0:0:0:0:
163,153,25282,1,0,0:0:0:0:
232,193,25470,1,2,0:0:0:0:
163,233,25657,1,0,0:0:0:0:
163,153,25845,1,2,0:0:0:0:
233,114,26032,2,0,L|390:83,1,160,2|2,0:0|0:0,0:0:0:0:
257,2,26782,5,0,0:0:0:0:
197,56,26970,1,2,0:0:0:0:
117,55,27157,1,0,0:0:0:0:
58,9,27345,1,2,0:0:0:0:
58,9,27532,2,0,B|94:50|94:50|75:182,1,160,2|2,0:0|0:0,0:0:0:0:
28,306,28282,1,0,0:0:0:0:
102,335,28470,1,2,0:0:0:0:
127,259,28657,1,0,0:0:0:0:
53,230,28845,1,2,0:0:0:0:
127,259,29032,6,0,L|289:226,2,160,2|2|2,0:0|0:0|0:0,0:0:0:0:
156,184,29970,1,2,0:0:0:0:
235,188,30157,1,0,0:0:0:0:
259,264,30345,1,2,0:0:0:0:
211,328,30532,2,0,B|167:323|167:323|67:392,1,160,2|2,0:0|0:0,0:0:0:0:
8,241,31282,1,0,0:0:0:0:
36,165,31470,1,2,0:0:0:0:
114,178,31657,1,0,0:0:0:0:
128,256,31845,1,2,0:0:0:0:
64,303,32032,2,0,L|46:132,1,160,2|2,0:0|0:0,0:0:0:0:
200,97,32782,5,0,0:0:0:0:
179,19,32970,2,0,L|267:48,2,80,2|0|2,0:0|0:0|0:0,0:0:0:0:
271,112,33532,2,0,L|435:66,1,160,2|2,0:0|0:0,0:0:0:0:
508,205,34282,1,0,0:0:0:0:
434,237,34470,2,0,B|401:209|401:209|422:161,1,80,2|0,0:0|0:0,0:0:0:0:
481,129,34845,1,2,0:0:0:0:
508,205,35032,2,0,B|522:238|522:238|458:360,1,160,2|2,0:0|0:0,0:0:0:0:
322,274,35782,5,2,0:0:0:0:
284,344,35970,2,0,L|192:359,1,80,2|0,0:0|0:0,0:0:0:0:
126,372,36345,1,2,0:0:0:0:
205,356,36532,2,0,L|385:339,1,160,2|2,0:0|0:0,0:0:0:0:
393,183,37282,1,0,0:0:0:0:
313,171,37470,2,0,L|230:160,1,80,2|0,0:0|0:0,0:0:0:0:
154,150,37845,1,2,0:0:0:0:
156,70,38032,2,0,B|197:32|197:32|294:104,2,160,2|2|0,0:0|0:0|0:0,0:0:0:0:
88,26,38970,5,2,0:0:0:0:
17,63,39157,1,0,0:0:0:0:
38,140,39345,1,2,0:0:0:0:
116,152,39532,2,0,L|147:317,1,160,2|2,0:0|0:0,0:0:0:0:
293,370,40282,1,0,0:0:0:0:
352,315,40470,1,2,0:0:0:0:
332,237,40657,1,0,0:0:0:0:
252,230,40845,1,2,0:0:0:0:
332,237,41032,2,0,L|361:79,1,160,2|2,0:0|0:0,0:0:0:0:
211,25,41782,5,2,0:0:0:0:
132,9,41970,1,2,0:0:0:0:
211,25,42157,1,0,0:0:0:0:
288,45,42345,1,2,0:0:0:0:
227,97,42532,2,0,L|254:260,1,160,2|2,0:0|0:0,0:0:0:0:
126,352,43282,1,0,0:0:0:0:
65,299,43470,2,0,L|76:210,1,80,2|0,0:0|0:0,0:0:0:0:
85,140,43845,1,2,0:0:0:0:
102,62,44032,2,0,L|85:249,1,160,2|2,0:0|0:0,0:0:0:0:
225,302,44782,5,0,0:0:0:0:
296,264,44970,1,2,0:0:0:0:
293,184,45157,1,0,0:0:0:0:
217,156,45345,1,2,0:0:0:0:
179,226,45532,2,0,B|219:201|219:201|337:253,2,160,2|2|0,0:0|0:0|0:0,0:0:0:0:
152,301,46470,2,0,L|68:282,1,80,2|0,0:0|0:0,0:0:0:0:
20,223,46845,1,2,0:0:0:0:
73,163,47032,2,0,L|47:-2,1,160,2|2,0:0|0:0,0:0:0:0:
172,105,47782,1,2,0:0:0:0:
237,59,47970,6,0,B|256:42|256:42|299:58,1,50,0|0,3:0|0:0,0:0:0:0:
316,103,48157,2,0,B|338:111|338:111|357:94,1,50,0|0,3:0|0:0,0:0:0:0:
407,51,48345,1,8,1:2:0:0:
425,57,48438,1,2,0:0:0:0:
443,63,48532,1,2,0:0:0:0:
461,69,48626,1,2,0:0:0:0:
479,77,48720,1,0,0:0:0:0:
336,217,48907,1,0,3:0:0:0:
318,211,49001,1,0,0:0:0:0:
300,205,49095,1,8,1:2:0:0:
282,199,49188,1,2,0:0:0:0:
264,191,49282,1,2,0:0:0:0:
236,159,49376,1,2,0:0:0:0:
199,191,49470,6,0,L|213:246,1,50,0|0,3:0|0:0,0:0:0:0:
269,274,49657,2,0,L|283:329,1,50,0|0,3:0|0:0,0:0:0:0:
236,372,49845,1,8,1:2:0:0:
216,369,49938,1,2,0:0:0:0:
200,356,50032,1,2,0:0:0:0:
189,339,50126,1,2,0:0:0:0:
186,319,50220,1,0,0:0:0:0:
406,189,50407,1,0,3:0:0:0:
422,202,50501,1,0,0:0:0:0:
433,219,50595,1,8,1:2:0:0:
436,239,50688,1,2,0:0:0:0:
433,258,50782,1,2,0:0:0:0:
411,290,50876,1,2,0:0:0:0:
420,308,50970,6,0,L|362:290,1,50,0|0,3:0|0:0,0:0:0:0:
326,242,51157,2,0,L|278:256,1,50,0|0,3:0|0:0,0:0:0:0:
219,288,51345,1,8,1:2:0:0:
200,280,51438,1,2,0:0:0:0:
181,271,51532,1,2,0:0:0:0:
162,263,51626,1,2,0:0:0:0:
143,254,51720,1,0,0:0:0:0:
279,145,51907,1,0,3:0:0:0:
298,154,52001,1,0,0:0:0:0:
317,162,52095,1,8,1:2:0:0:
336,171,52188,1,2,0:0:0:0:
352,181,52282,2,0,B|373:178|373:178|393:147,1,50,2|2,0:0|0:0,0:0:0:0:
374,90,52470,6,0,B|401:50|401:50|461:73,2,100,0|0|8,3:0|3:0|1:2,0:0:0:0:
359,76,52938,1,2,0:0:0:0:
344,62,53032,1,2,0:0:0:0:
328,74,53126,1,2,0:0:0:0:
313,87,53220,1,0,0:0:0:0:
138,92,53407,1,0,3:0:0:0:
151,77,53501,1,2,0:0:0:0:
166,63,53595,1,8,1:2:0:0:
182,75,53688,1,2,0:0:0:0:
197,88,53782,1,2,0:0:0:0:
241,82,53876,5,10,1:2:0:0:
259,123,53970,2,0,L|265:178,1,50,0|0,3:0|0:0,0:0:0:0:
264,239,54157,2,0,L|258:294,1,50,0|0,3:0|0:0,0:0:0:0:
259,355,54345,1,8,1:2:0:0:
278,352,54438,1,2,0:0:0:0:
296,345,54532,1,2,0:0:0:0:
314,336,54626,1,2,0:0:0:0:
331,326,54720,1,0,0:0:0:0:
193,235,54907,1,0,3:0:0:0:
174,232,55001,1,0,0:0:0:0:
156,225,55095,1,8,1:2:0:0:
138,216,55188,1,2,0:0:0:0:
121,206,55282,1,2,0:0:0:0:
92,223,55376,1,2,0:0:0:0:
73,230,55470,6,0,L|83:181,1,50,0|0,3:0|0:0,0:0:0:0:
56,120,55657,2,0,L|66:71,1,50,0|0,3:0|0:0,0:0:0:0:
33,14,55845,1,8,1:2:0:0:
50,3,55938,1,2,0:0:0:0:
69,0,56032,1,2,0:0:0:0:
88,1,56126,1,2,0:0:0:0:
106,7,56220,1,0,0:0:0:0:
188,108,56407,1,0,3:0:0:0:
206,114,56501,1,0,0:0:0:0:
225,115,56595,1,8,1:2:0:0:
244,112,56688,1,2,0:0:0:0:
261,101,56782,1,2,0:0:0:0:
272,62,56876,1,2,0:0:0:0:
259,46,56970,6,0,L|332:56,1,50,0|0,3:0|0:0,0:0:0:0:
358,100,57157,2,0,L|431:110,1,50,0|0,3:0|0:0,0:0:0:0:
451,163,57345,1,8,1:2:0:0:
469,156,57438,1,2,0:0:0:0:
481,140,57532,1,2,0:0:0:0:
490,122,57626,1,2,0:0:0:0:
492,102,57720,1,0,0:0:0:0:
371,184,57907,1,0,3:0:0:0:
373,204,58001,1,0,0:0:0:0:
382,222,58095,1,8,1:2:0:0:
394,238,58188,1,2,0:0:0:0:
412,245,58282,1,2,0:0:0:0:
447,229,58376,1,2,0:0:0:0:
462,242,58470,6,0,L|438:304,1,50,0|0,3:0|0:0,0:0:0:0:
380,315,58657,2,0,L|356:377,1,50,0|0,3:0|0:0,0:0:0:0:
292,361,58845,1,8,1:2:0:0:
277,347,58938,1,2,0:0:0:0:
271,327,59032,1,2,0:0:0:0:
270,306,59126,1,2,0:0:0:0:
274,286,59220,2,0,B|281:260|281:260|273:236,1,50,0|0,0:0|0:0,0:0:0:0:
119,218,59407,2,0,B|111:239|111:239|118:265,1,50,0|0,3:0|0:0,0:0:0:0:
185,360,59595,2,0,L|200:236,1,100,8|2,1:2|0:0,0:0:0:0:
201,217,59876,1,10,1:2:0:0:
187,204,59970,6,0,L|202:143,1,50,0|0,3:0|0:0,0:0:0:0:
252,111,60157,2,0,L|237:50,1,50,0|0,3:0|0:0,0:0:0:0:
186,25,60345,1,8,1:2:0:0:
358,5,60532,2,2,B|411:27|411:27|375:170,1,200,2|0,0:0|3:0,0:0:0:0:
319,197,61001,1,0,0:0:0:0:
319,197,61095,2,0,L|336:266,1,50,8|2,1:2|0:0,0:0:0:0:
355,311,61282,1,2,0:0:0:0:
355,311,61376,1,2,0:0:0:0:
355,311,61470,2,0,L|341:256,1,50,0|0,3:0|0:0,0:0:0:0:
265,249,61657,2,0,L|251:194,1,50,0|0,3:0|0:0,0:0:0:0:
196,157,61845,1,8,1:2:0:0:
54,197,62032,6,2,B|19:242|19:242|99:364,1,200,2|0,0:0|3:0,0:0:0:0:
113,349,62501,1,0,0:0:0:0:
129,337,62595,1,8,1:2:0:0:
145,325,62688,1,2,0:0:0:0:
159,338,62782,1,2,0:0:0:0:
172,352,62876,1,2,0:0:0:0:
184,367,62970,6,0,L|203:310,1,50,0|0,3:0|0:0,0:0:0:0:
268,330,63157,2,0,L|287:273,1,50,0|0,3:0|0:0,0:0:0:0:
350,242,63345,1,8,1:2:0:0:
277,99,63532,2,2,B|229:70|229:70|115:161,1,200,2|0,0:0|3:0,0:0:0:0:
121,179,64001,1,0,0:0:0:0:
139,170,64095,1,8,1:2:0:0:
55,128,64282,1,2,0:0:0:0:
133,265,64470,6,0,L|191:218,1,50,0|0,3:0|0:0,0:0:0:0:
239,219,64657,2,0,L|297:172,1,50,0|0,3:0|0:0,0:0:0:0:
350,186,64845,1,8,1:2:0:0:
352,338,65032,2,2,B|400:367|400:367|514:276,1,200,2|0,0:0|3:0,0:0:0:0:
504,258,65501,1,2,0:0:0:0:
484,261,65595,1,8,1:2:0:0:
386,145,65782,1,2,0:0:0:0:
351,151,65876,1,10,1:2:0:0:
335,138,65970,6,0,L|357:209,1,50,0|0,3:0|0:0,0:0:0:0:
425,192,66157,2,0,L|410:144,1,50,0|0,3:0|0:0,0:0:0:0:
369,82,66345,1,8,1:2:0:0:
405,66,66438,1,2,0:0:0:0:
437,86,66532,2,0,L|420:29,1,50,2|2,0:0|0:0,0:0:0:0:
88,63,66907,2,0,L|74:111,1,50,0|0,3:0|0:0,0:0:0:0:
134,141,67095,2,0,L|148:93,1,50,8|2,1:2|0:0,0:0:0:0:
88,63,67282,2,0,L|74:111,1,50,2|2,0:0|0:0,0:0:0:0:
146,12,67470,5,0,3:0:0:0:
213,35,67657,1,0,3:0:0:0:
229,103,67845,1,8,1:2:0:0:
213,115,67938,1,2,0:0:0:0:
212,135,68032,1,2,0:0:0:0:
255,193,68220,1,0,0:0:0:0:
326,192,68407,1,0,3:0:0:0:
363,131,68595,1,8,1:2:0:0:
430,118,68782,1,2,0:0:0:0:
503,277,68970,5,0,3:0:0:0:
454,322,69157,1,0,3:0:0:0:
386,320,69345,1,8,1:2:0:0:
370,307,69438,1,2,0:0:0:0:
361,288,69532,1,2,0:0:0:0:
303,247,69720,1,0,0:0:0:0:
233,267,69907,1,0,3:0:0:0:
228,340,70095,1,8,1:2:0:0:
290,374,70282,1,2,0:0:0:0:
309,350,70376,1,2,0:0:0:0:
338,358,70470,6,0,B|348:340|348:340|333:308,1,50,0|0,3:0|0:0,0:0:0:0:
300,257,70657,2,0,L|314:180,1,50,0|0,3:0|0:0,0:0:0:0:
368,172,70845,2,0,L|356:39,1,100,8|2,1:2|0:0,0:0:0:0:
344,54,71126,1,2,0:0:0:0:
354,16,71220,5,0,0:0:0:0:
428,73,71407,2,0,B|446:94|446:94|425:126,1,50,0|0,3:0|0:0,0:0:0:0:
263,101,71595,2,0,B|241:56|241:56|279:12,1,100,8|2,1:2|0:0,0:0:0:0:
354,16,71876,1,8,1:2:0:0:
346,31,71970,6,0,L|355:119,1,60.0000022888184,6|0,3:1|0:0,0:0:0:0:
309,156,72157,2,0,B|275:183|275:183|129:132,1,180.000006866455,2|2,3:1|0:0,0:0:0:0:
136,115,72532,1,0,1:0:0:0:
12,33,72720,2,0,L|32:226,1,180.000006866455,2|0,1:1|0:0,0:0:0:0:
24,235,73095,2,0,B|51:252|51:252|78:237,1,60.0000022888184,8|2,1:2|0:0,0:0:0:0:
134,211,73282,2,0,B|164:243|164:243|131:329|131:329|166:370,1,180.000006866455,2|0,1:0|0:0,0:0:0:0:
182,370,73657,2,0,L|111:379,1,60.0000022888184,2|0,3:1|0:0,0:0:0:0:
216,313,73845,2,0,L|360:299,1,120.000004577637,8|2,1:2|0:0,0:0:0:0:
349,281,74126,1,2,0:0:0:0:
367,295,74220,1,2,0:0:0:0:
384,279,74313,1,2,0:0:0:0:
404,291,74407,5,2,3:1:0:0:
439,265,74501,1,2,0:0:0:0:
458,278,74595,2,0,L|443:216,1,60.0000022888184,8|2,1:2|0:0,0:0:0:0:
389,173,74782,2,0,L|403:114,1,60.0000022888184,2|2,0:1|0:0,0:0:0:0:
311,57,74970,2,0,L|325:115,1,60.0000022888184,2|0,3:1|0:0,0:0:0:0:
270,162,75157,2,0,L|255:220,1,60.0000022888184,0|0,3:0|0:0,0:0:0:0:
190,283,75345,2,0,L|175:221,1,60.0000022888184,10|2,1:0|0:0,0:0:0:0:
121,178,75532,2,0,L|135:119,1,60.0000022888184,2|2,0:0|0:0,0:0:0:0:
185,74,75720,1,2,0:0:0:0:
180,50,75813,1,2,0:0:0:0:
175,26,75907,1,2,3:2:0:0:
169,2,76001,1,2,0:0:0:0:
150,17,76095,1,10,1:2:0:0:
134,35,76188,1,2,0:0:0:0:
118,53,76282,1,2,0:0:0:0:
144,98,76376,1,2,0:0:0:0:
140,124,76470,6,0,L|125:182,1,60.0000022888184,4|0,3:0|0:0,0:0:0:0:
96,240,76657,2,0,L|110:298,1,60.0000022888184,4|0,3:0|0:0,0:0:0:0:
113,363,76845,2,0,B|176:377|176:377|220:318,1,120.000004577637,12|2,1:2|0:0,0:0:0:0:
221,269,77126,1,2,0:0:0:0:
214,249,77220,2,0,B|257:207|257:207|316:255,3,120.000004577637,4|0|12|2,0:0|3:0|1:2|0:0,0:0:0:0:
340,190,77876,1,10,1:2:0:0:
362,205,77970,6,0,L|355:131,1,60.0000022888184,6|0,3:1|0:0,0:0:0:0:
306,104,78157,2,0,B|333:70|333:70|468:117,1,180.000006866455,2|2,3:1|0:0,0:0:0:0:
482,102,78532,1,0,1:0:0:0:
512,270,78720,2,0,B|485:236|485:236|350:283,1,180.000006866455,2|0,1:1|0:0,0:0:0:0:
353,304,79095,2,0,L|289:288,1,60.0000022888184,8|2,1:2|0:0,0:0:0:0:
264,229,79282,2,0,B|235:215|235:215|131:259|131:259|98:242,1,180.000006866455,2|0,1:0|0:0,0:0:0:0:
83,225,79657,2,0,L|13:254,1,60.0000022888184,2|0,3:1|0:0,0:0:0:0:
136,186,79845,2,0,L|253:137,1,120.000004577637,8|2,1:2|0:0,0:0:0:0:
258,118,80126,1,2,0:0:0:0:
277,131,80220,1,2,0:0:0:0:
287,109,80313,1,2,0:0:0:0:
317,113,80407,5,2,3:1:0:0:
345,87,80501,1,2,0:0:0:0:
366,97,80595,2,0,L|386:167,1,60.0000022888184,8|2,1:2|0:0,0:0:0:0:
445,182,80782,2,0,L|465:252,1,60.0000022888184,2|2,0:1|0:0,0:0:0:0:
358,230,80970,2,0,L|342:288,1,60.0000022888184,2|0,3:1|0:0,0:0:0:0:
279,315,81157,2,0,L|263:373,1,60.0000022888184,0|0,3:0|0:0,0:0:0:0:
184,258,81345,2,0,L|167:315,1,60.0000022888184,10|2,1:0|0:0,0:0:0:0:
263,173,81532,2,0,L|246:230,1,60.0000022888184,2|2,0:0|0:0,0:0:0:0:
406,311,81720,1,2,0:0:0:0:
423,327,81813,1,2,0:0:0:0:
439,344,81907,1,2,3:2:0:0:
453,363,82001,1,2,0:0:0:0:
428,363,82095,1,10,1:2:0:0:
404,363,82188,1,2,0:0:0:0:
380,360,82282,1,2,0:0:0:0:
363,323,82376,1,2,0:0:0:0:
347,317,82470,6,0,L|287:338,1,60.0000022888184,4|0,3:0|0:0,0:0:0:0:
241,289,82657,1,4,3:0:0:0:
207,266,82751,1,0,0:0:0:0:
181,297,82845,2,0,L|124:277,1,60.0000022888184,12|2,1:2|0:0,0:0:0:0:
67,297,83032,2,0,L|123:277,1,60.0000022888184,2|2,0:0|0:0,0:0:0:0:
129,213,83220,1,4,0:0:0:0:
131,189,83313,1,2,0:0:0:0:
112,162,83407,1,0,3:0:0:0:
135,141,83501,1,2,0:0:0:0:
138,117,83595,1,12,1:2:0:0:
140,93,83688,1,2,0:0:0:0:
143,69,83782,1,2,0:0:0:0:
169,46,83876,1,10,1:2:0:0:
149,21,83970,6,0,B|116:30|116:30|86:10,1,60.0000022888184,6|0,3:1|0:0,0:0:0:0:
204,104,84157,2,0,L|391:65,1,180.000006866455,2|2,3:1|0:0,0:0:0:0:
394,47,84532,1,0,1:0:0:0:
501,172,84720,2,0,B|457:222|457:222|323:169,1,180.000006866455,2|0,1:1|0:0,0:0:0:0:
340,159,85095,2,0,L|266:195,1,60.0000022888184,8|2,1:2|0:0,0:0:0:0:
249,239,85282,2,0,B|187:221|187:221|166:170|166:170|104:153,1,180.000006866455,2|0,1:0|0:0,0:0:0:0:
88,139,85657,2,0,L|141:112,1,60.0000022888184,2|0,3:1|0:0,0:0:0:0:
154,91,85845,1,8,1:2:0:0:
176,97,85938,1,0,0:0:0:0:
190,77,86032,2,0,L|306:107,1,120.000004577637,2|2,0:0|0:0,0:0:0:0:
328,97,86313,1,2,0:0:0:0:
342,116,86407,1,2,3:1:0:0:
391,106,86501,1,2,0:0:0:0:
402,128,86595,2,0,L|470:123,1,60.0000022888184,8|2,1:2|0:0,0:0:0:0:
512,105,86782,2,0,L|452:109,1,60.0000022888184,2|2,0:1|0:0,0:0:0:0:
387,190,86970,6,0,B|375:203|375:203|386:249,1,60.0000022888184,2|0,3:1|0:0,0:0:0:0:
484,260,87157,2,0,B|496:247|496:247|485:201,1,60.0000022888184,0|0,3:0|0:0,0:0:0:0:
401,192,87345,2,0,L|425:370,1,180.000006866455,10|2,1:0|0:0,0:0:0:0:
449,361,87720,1,2,0:0:0:0:
460,340,87813,1,2,0:0:0:0:
481,350,87907,2,0,L|422:382,1,60.0000022888184,2|2,3:2|0:0,0:0:0:0:
341,333,88095,1,10,1:2:0:0:
319,342,88188,1,2,0:0:0:0:
305,321,88282,1,2,0:0:0:0:
283,331,88376,1,2,0:0:0:0:
283,331,88470,6,0,B|248:341|248:341|217:297,1,70.000000667572,2|0,3:1|0:0,0:0:0:0:
161,309,88657,2,0,L|175:230,1,70.000000667572,0|0,3:1|0:0,0:0:0:0:
216,190,88845,1,10,1:1:0:0:
202,165,88938,1,0,0:0:0:0:
217,141,89032,1,2,0:0:0:0:
208,114,89126,1,2,0:0:0:0:
217,102,89220,1,2,0:1:0:0:
231,77,89313,1,0,0:0:0:0:
216,53,89407,1,0,3:0:0:0:
225,26,89501,1,2,0:0:0:0:
221,14,89595,1,10,1:0:0:0:
226,11,89688,1,0,0:0:0:0:
214,8,89782,1,2,0:0:0:0:
224,6,89876,1,10,1:2:0:0:
207,31,89970,6,0,B|178:17|178:17|148:43,1,60.0000022888184,6|0,3:1|0:0,0:0:0:0:
227,96,90157,2,0,L|418:55,1,180.000006866455,2|2,3:1|0:0,0:0:0:0:
417,38,90532,1,0,1:0:0:0:
488,188,90720,2,0,B|427:218|427:218|465:348,1,180.000006866455,2|0,1:1|0:0,0:0:0:0:
455,349,91095,2,0,L|396:338,1,60.0000022888184,8|2,1:2|0:0,0:0:0:0:
348,291,91282,2,0,B|312:280|312:280|221:338|221:338|178:326,1,180.000006866455,2|0,1:0|0:0,0:0:0:0:
173,309,91657,2,0,L|117:348,1,60.0000022888184,2|0,3:1|0:0,0:0:0:0:
120,367,91845,1,8,1:2:0:0:
96,361,91938,1,2,0:0:0:0:
84,382,92032,1,2,0:0:0:0:
1,253,92220,1,2,0:0:0:0:
136,228,92407,1,2,3:1:0:0:
147,206,92501,1,2,0:0:0:0:
129,189,92595,1,8,1:2:0:0:
142,169,92688,1,2,0:0:0:0:
142,169,92782,6,0,L|130:105,1,60.0000022888184,2|2,0:1|0:0,0:0:0:0:
68,72,92970,2,0,L|151:103,1,60.0000022888184,2|0,3:1|0:0,0:0:0:0:
195,62,93157,2,0,L|135:98,1,60.0000022888184,0|0,3:0|0:0,0:0:0:0:
226,5,93345,2,0,B|281:32|281:32|241:166,1,180.000006866455,10|2,1:0|0:0,0:0:0:0:
223,148,93720,2,0,L|236:220,1,60.0000022888184,2|2,0:0|0:0,0:0:0:0:
281,258,93907,1,2,3:2:0:0:
265,283,94001,1,2,0:0:0:0:
275,311,94095,1,10,1:2:0:0:
279,379,94282,1,2,0:0:0:0:
147,295,94470,6,2,L|159:199,3,80,4|2|2|2,0:0|0:0|0:0|0:1,1:0:0:0:
398,273,95970,6,0,B|426:278|426:278|458:250,1,50,4|0,3:1|0:0,0:0:0:0:
506,241,96157,2,0,L|501:182,1,50,0|0,3:0|0:0,0:0:0:0:
440,158,96345,2,0,L|454:7,1,150,8|8,1:3|1:3,0:0:0:0:
464,18,96720,1,8,0:3:0:0:
344,67,96907,1,0,3:0:0:0:
223,11,97095,1,8,1:3:0:0:
208,15,97188,1,8,0:3:0:0:
193,20,97282,1,8,1:3:0:0:
116,6,97470,6,0,B|94:18|94:18|108:57,1,50,0|0,3:0|0:0,0:0:0:0:
155,83,97657,2,0,L|160:139,1,50,0|0,3:0|0:0,0:0:0:0:
214,178,97845,2,0,B|173:212|173:212|79:179,1,150,8|8,0:3|1:3,0:0:0:0:
71,190,98220,1,8,0:3:0:0:
56,188,98313,1,8,1:3:0:0:
40,188,98407,1,0,3:0:0:0:
96,292,98595,1,8,1:3:0:0:
110,287,98688,1,8,0:3:0:0:
124,283,98782,1,8,1:3:0:0:
138,279,98876,1,8,0:3:0:0:
161,261,98970,6,0,L|216:273,1,50,0|0,3:0|0:0,0:0:0:0:
264,310,99157,2,0,B|284:294|284:294|281:263,1,50,0|0,3:0|0:0,0:0:0:0:
246,212,99345,2,0,L|268:57,1,150,8|8,1:3|1:3,0:0:0:0:
279,55,99720,1,8,0:3:0:0:
397,128,99907,2,0,B|445:155|445:155|419:263,1,150,0|8,3:0|0:3,0:0:0:0:
411,257,100282,1,8,1:3:0:0:
318,341,100470,6,0,B|299:356|299:356|271:346,1,50,0|0,3:0|0:0,0:0:0:0:
228,300,100657,2,0,L|173:309,1,50,0|0,3:0|0:0,0:0:0:0:
290,278,100845,2,0,B|267:185|267:185|315:158,1,150,8|8,1:3|1:3,0:0:0:0:
319,144,101220,1,8,0:3:0:0:
319,129,101313,1,0,0:0:0:0:
320,114,101407,1,0,3:0:0:0:
172,37,101595,1,8,1:3:0:0:
170,51,101688,1,8,0:3:0:0:
168,66,101782,1,8,1:3:0:0:
167,81,101876,1,8,0:3:0:0:
149,100,101970,6,0,L|158:165,1,50,4|0,3:1|0:0,0:0:0:0:
199,201,102157,2,0,L|192:250,1,50,0|0,3:0|0:0,0:0:0:0:
200,317,102345,2,0,B|137:329|137:329|105:231,1,150,8|8,1:3|1:3,0:0:0:0:
103,234,102720,1,8,0:3:0:0:
223,142,102907,1,0,3:0:0:0:
223,142,103001,1,0,0:0:0:0:
223,142,103095,1,8,1:3:0:0:
255,273,103282,1,8,1:3:0:0:
325,318,103470,6,0,B|352:313|352:313|373:278,1,50,0|0,3:0|0:0,0:0:0:0:
430,272,103657,2,0,L|419:193,1,50,0|0,3:0|0:0,0:0:0:0:
359,187,103845,2,0,L|382:62,1,100,8|0,0:3|0:0,0:0:0:0:
388,23,104126,1,8,1:3:0:0:
388,23,104220,1,8,0:3:0:0:
137,11,104407,1,0,3:0:0:0:
137,11,104501,1,8,0:3:0:0:
137,11,104595,2,0,L|155:109,1,100,8|8,1:3|1:3,0:0:0:0:
213,286,104970,6,0,B|189:298|189:298|155:276,1,50,4|0,3:1|0:0,0:0:0:0:
127,233,105157,2,0,L|75:248,1,50,4|0,3:1|0:0,0:0:0:0:
12,227,105345,1,8,1:3:0:0:
1,237,105438,1,8,0:3:0:0:
10,265,105532,1,8,0:3:0:0:
19,293,105626,1,8,1:3:0:0:
28,321,105720,1,8,0:3:0:0:
197,365,105907,1,0,3:0:0:0:
206,337,106001,1,8,0:3:0:0:
215,309,106095,1,8,0:3:0:0:
224,281,106188,1,8,0:3:0:0:
213,271,106282,1,8,1:3:0:0:
55,180,106470,6,0,L|112:189,1,50,0|0,3:0|0:0,0:0:0:0:
244,167,106657,2,0,L|194:174,1,50,0|0,3:0|0:0,0:0:0:0:
33,165,106845,2,0,L|82:157,1,50,8|0,1:3|0:0,0:0:0:0:
265,185,107032,2,0,L|215:177,1,50,8|8,0:3|1:3,0:0:0:0:
147,120,107220,1,8,0:3:0:0:
149,105,107313,1,8,0:3:0:0:
129,86,107407,1,0,3:0:0:0:
155,75,107501,1,0,0:0:0:0:
158,60,107595,1,8,1:3:0:0:
161,45,107688,1,8,0:3:0:0:
164,30,107782,1,8,1:3:0:0:
168,15,107876,1,8,0:3:0:0:
198,19,107970,6,0,B|221:33|221:33|255:23,1,50,4|0,3:1|0:0,0:0:0:0:
294,70,108157,2,0,L|363:79,1,50,0|0,3:0|0:0,0:0:0:0:
407,48,108345,2,0,B|451:82|451:82|417:183,1,150,8|8,1:3|1:3,0:0:0:0:
408,179,108720,1,8,0:3:0:0:
335,255,108907,2,0,L|327:142,2,100,0|8|8,3:0|1:3|1:3,0:0:0:0:
365,266,109376,1,0,0:0:0:0:
373,280,109470,6,0,L|323:286,1,50,0|0,3:0|0:0,0:0:0:0:
271,330,109657,2,0,B|248:321|248:321|236:290,1,50,0|0,3:0|0:0,0:0:0:0:
238,230,109845,2,0,B|191:212|191:212|102:281,1,150,8|8,0:3|1:3,0:0:0:0:
100,282,110220,1,8,0:3:0:0:
88,291,110313,1,8,1:3:0:0:
76,301,110407,1,0,3:0:0:0:
33,153,110595,1,8,1:3:0:0:
45,145,110688,1,8,0:3:0:0:
57,137,110782,1,8,1:3:0:0:
69,129,110876,1,8,0:3:0:0:
71,100,110970,6,0,B|94:86|94:86|129:108,1,50,0|0,3:0|0:0,0:0:0:0:
152,154,111157,2,0,L|207:149,1,50,0|0,3:0|0:0,0:0:0:0:
269,172,111345,2,0,B|309:146|309:146|263:44,1,150,8|8,1:3|1:3,0:0:0:0:
269,37,111720,2,0,L|219:41,1,50,8|0,0:3|0:0,0:0:0:0:
159,14,111907,1,0,3:0:0:0:
144,16,112001,1,0,0:0:0:0:
129,18,112095,1,8,0:3:0:0:
58,34,112282,1,8,1:3:0:0:
148,107,112470,6,0,L|197:102,1,50,0|0,3:0|0:0,0:0:0:0:
250,61,112657,2,0,B|275:73|275:73|273:119,1,50,0|0,3:0|0:0,0:0:0:0:
244,160,112845,2,0,L|276:314,1,150,8|8,1:3|1:3,0:0:0:0:
272,321,113220,1,8,0:3:0:0:
403,300,113407,1,0,3:0:0:0:
329,192,113595,1,8,1:3:0:0:
337,271,113782,5,8,1:3:0:0:
337,271,113876,1,8,0:3:0:0:
337,271,113970,2,0,L|341:218,1,50,4|0,3:1|0:0,0:0:0:0:
396,178,114157,2,0,L|392:125,1,50,0|0,3:0|0:0,0:0:0:0:
338,85,114345,2,0,B|362:45|362:45|480:68,1,150,8|8,1:3|1:3,0:0:0:0:
471,77,114720,1,8,0:3:0:0:
510,178,114907,2,0,L|506:227,1,50,0|0,3:0|0:0,0:0:0:0:
450,258,115095,1,8,1:3:0:0:
452,272,115188,1,0,0:0:0:0:
454,286,115282,1,8,1:3:0:0:
456,300,115376,1,0,0:0:0:0:
477,326,115470,6,0,L|417:317,1,50,0|0,3:0|0:0,0:0:0:0:
372,276,115657,2,0,B|346:280|346:280|335:310,1,50,0|0,3:0|0:0,0:0:0:0:
306,361,115845,2,0,L|145:333,1,150,8|8,0:3|1:3,0:0:0:0:
147,324,116220,1,8,0:3:0:0:
90,221,116407,2,0,L|-25:240,2,100,0|8|8,3:0|1:3|1:3,0:0:0:0:
106,178,116876,1,0,0:0:0:0:
125,186,116970,6,0,B|138:166|138:166|122:135,1,50,4|0,3:1|0:0,0:0:0:0:
67,104,117157,2,0,L|73:48,1,50,4|0,3:1|0:0,0:0:0:0:
131,6,117345,2,0,B|181:14|181:14|192:118,1,150,8|8,1:3|1:3,0:0:0:0:
197,126,117720,1,8,0:3:0:0:
445,104,117907,2,0,L|439:48,1,50,0|8,3:0|0:3,0:0:0:0:
381,6,118095,2,0,B|331:14|331:14|320:118,1,150,8|0,0:3|0:0,0:0:0:0:
315,126,118470,6,0,L|324:185,1,50,4|0,3:1|0:0,0:0:0:0:
189,175,118657,2,0,L|197:126,1,50,4|0,3:1|0:0,0:0:0:0:
256,217,118845,1,8,1:3:0:0:
256,231,118938,1,0,0:0:0:0:
256,246,119032,1,8,0:3:0:0:
256,261,119126,1,8,1:3:0:0:
256,276,119220,1,8,0:3:0:0:
256,290,119313,1,8,0:3:0:0:
230,303,119407,1,4,3:1:0:0:
256,320,119501,1,0,0:0:0:0:
280,340,119595,1,8,1:3:0:0:
256,349,119688,1,8,0:3:0:0:
256,364,119782,1,8,1:3:0:0:
256,379,119876,1,8,0:3:0:0:
223,380,119970,6,0,B|197:363|197:363|199:323,1,60.0000022888184,6|0,1:1|0:0,0:0:0:0:
322,237,120157,2,0,B|395:289|395:289|324:386,1,180.000006866455,2|2,3:1|0:0,0:0:0:0:
327,351,120532,1,0,1:0:0:0:
405,288,120720,2,0,L|480:273,1,60.0000022888184,2|0,1:1|0:0,0:0:0:0:
509,226,120907,1,0,3:0:0:0:
502,209,121001,1,0,0:0:0:0:
495,192,121095,1,8,1:3:0:0:
405,139,121282,1,2,1:0:0:0:
481,61,121470,6,0,L|473:128,1,60.0000022888184,0|0,1:0|0:0,0:0:0:0:
394,205,121657,2,0,B|362:201|362:201|339:161,1,60.0000022888184,2|0,3:1|0:0,0:0:0:0:
368,63,121845,2,0,L|236:84,1,120.000004577637,8|2,1:3|0:0,0:0:0:0:
231,78,122126,1,2,0:0:0:0:
213,82,122220,1,2,0:0:0:0:
195,86,122313,1,2,0:0:0:0:
177,90,122407,1,2,3:1:0:0:
143,212,122595,1,8,1:3:0:0:
160,208,122688,1,2,0:0:0:0:
177,204,122782,1,2,0:1:0:0:
194,200,122876,1,2,0:0:0:0:
214,175,122970,6,0,B|241:186|241:186|245:232,1,60.0000022888184,2|0,3:1|0:0,0:0:0:0:
183,324,123157,2,0,L|200:262,1,60.0000022888184,0|0,3:0|0:0,0:0:0:0:
347,334,123345,2,0,B|344:294|344:294|260:279,2,120.000004577637,8|2|2,1:3|0:0|0:0,0:0:0:0:
384,357,123813,1,2,0:0:0:0:
398,346,123907,1,2,3:2:0:0:
505,282,124095,1,10,1:3:0:0:
487,278,124188,1,2,0:0:0:0:
469,274,124282,1,2,0:0:0:0:
451,270,124376,1,2,0:0:0:0:
433,280,124470,6,0,B|409:264|409:264|416:221,1,60.0000022888184,4|0,3:0|0:0,0:0:0:0:
476,207,124657,2,0,L|467:134,1,60.0000022888184,4|0,3:0|0:0,0:0:0:0:
511,92,124845,2,0,B|474:45|474:45|349:106,1,180.000006866455,8|2,1:3|0:0,0:0:0:0:
305,66,125220,2,0,L|247:96,1,60.0000022888184,4|0,0:0|0:0,0:0:0:0:
191,128,125407,1,0,3:0:0:0:
175,137,125501,1,0,0:0:0:0:
159,145,125595,1,8,1:3:0:0:
147,130,125688,1,0,0:0:0:0:
135,115,125782,1,2,0:0:0:0:
168,99,125876,1,10,1:2:0:0:
175,75,125970,6,0,B|152:56|152:56|159:23,1,60.0000022888184,6|0,3:1|0:0,0:0:0:0:
34,69,126157,2,0,B|57:88|57:88|50:117,1,60.0000022888184,2|0,3:1|0:0,0:0:0:0:
132,221,126345,2,0,B|96:182|96:182|29:205,1,120.000004577637,8|0,0:3|1:0,0:0:0:0:
28,221,126626,1,0,0:0:0:0:
36,236,126720,1,2,1:1:0:0:
153,301,126907,1,0,3:0:0:0:
211,175,127095,1,8,1:3:0:0:
227,169,127188,1,2,0:0:0:0:
244,163,127282,1,2,1:0:0:0:
261,157,127376,1,0,0:0:0:0:
271,131,127470,6,0,L|282:199,1,60.0000022888184,0|0,1:0|0:0,0:0:0:0:
373,255,127657,2,0,B|351:273|351:273|311:250,1,60.0000022888184,2|0,3:1|0:0,0:0:0:0:
141,268,127845,2,0,B|171:236|171:236|274:259,1,120.000004577637,8|2,1:3|0:0,0:0:0:0:
250,269,128126,1,2,0:0:0:0:
254,286,128220,1,2,0:0:0:0:
258,303,128313,1,2,0:0:0:0:
262,320,128407,1,2,3:1:0:0:
359,185,128595,1,8,1:3:0:0:
355,167,128688,1,2,0:0:0:0:
351,149,128782,1,2,0:1:0:0:
348,131,128876,1,2,0:0:0:0:
370,108,128970,6,0,B|383:83|383:83|424:92,1,60.0000022888184,6|0,3:1|0:0,0:0:0:0:
490,162,129157,2,0,L|470:225,1,60.0000022888184,4|0,3:1|0:0,0:0:0:0:
384,276,129345,2,0,B|371:251|371:251|330:260,1,60.0000022888184,10|2,1:3|0:0,0:0:0:0:
241,213,129532,2,0,L|275:334,1,120.000004577637,6|2,0:0|0:0,0:0:0:0:
247,363,129813,1,2,0:0:0:0:
229,361,129907,2,0,L|235:296,1,60.0000022888184,2|2,3:2|0:0,0:0:0:0:
293,166,130095,1,8,1:3:0:0:
288,148,130188,1,2,0:0:0:0:
284,130,130282,1,2,0:0:0:0:
280,112,130376,1,2,0:0:0:0:
303,94,130470,6,0,B|313:65|313:65|296:40,1,60.0000022888184,4|0,3:0|0:0,0:0:0:0:
209,89,130657,2,0,L|219:18,1,60.0000022888184,4|0,3:0|0:0,0:0:0:0:
127,95,130845,2,0,B|117:66|117:66|134:41,1,60.0000022888184,8|2,1:3|0:0,0:0:0:0:
25,23,131032,1,2,0:0:0:0:
28,40,131126,1,2,0:0:0:0:
31,57,131220,1,6,0:0:0:0:
34,74,131313,1,2,0:0:0:0:
11,98,131407,2,0,B|4:126|4:126|24:158,1,60.0000022888184,0|0,3:0|0:0,0:0:0:0:
106,198,131595,2,0,L|96:266,1,60.0000022888184,8|0,1:3|0:0,0:0:0:0:
35,369,131782,1,2,0:0:0:0:
27,352,131876,1,10,1:2:0:0:
56,342,131970,6,0,L|132:358,1,60.0000022888184,6|0,3:1|0:0,0:0:0:0:
311,382,132157,2,0,B|298:343|298:343|159:306,1,180.000006866455,2|2,3:1|0:0,0:0:0:0:
156,290,132532,1,0,1:0:0:0:
271,253,132720,2,0,L|332:269,1,60.0000022888184,2|0,1:1|0:0,0:0:0:0:
391,247,132907,1,0,3:0:0:0:
407,254,133001,1,0,0:0:0:0:
423,261,133095,1,8,1:3:0:0:
414,357,133282,1,2,1:0:0:0:
330,197,133470,6,0,B|314:172|314:172|331:137,1,60.0000022888184,0|0,1:0|0:0,0:0:0:0:
480,118,133657,2,0,B|493:145|493:145|477:170,1,60.0000022888184,2|0,3:1|0:0,0:0:0:0:
367,30,133845,2,0,B|417:56|417:56|400:125,1,120.000004577637,8|2,1:3|0:0,0:0:0:0:
402,135,134126,1,0,0:0:0:0:
402,153,134220,1,2,0:0:0:0:
402,170,134313,1,2,0:0:0:0:
403,188,134407,1,2,3:1:0:0:
216,159,134595,1,8,1:3:0:0:
217,141,134688,1,2,0:0:0:0:
217,124,134782,1,2,0:1:0:0:
217,106,134876,1,2,0:0:0:0:
240,83,134970,6,0,B|218:64|218:64|183:76,1,60.0000022888184,2|0,3:1|0:0,0:0:0:0:
136,163,135157,2,0,L|55:154,1,60.0000022888184,0|0,3:0|0:0,0:0:0:0:
14,32,135345,2,0,B|74:13|74:13|116:108,2,120.000004577637,8|0|2,1:3|0:0|0:0,0:0:0:0:
20,61,135813,1,2,0:0:0:0:
4,70,135907,1,2,3:2:0:0:
45,256,136095,1,10,1:3:0:0:
61,250,136188,1,2,0:0:0:0:
77,243,136282,1,2,0:0:0:0:
94,237,136376,1,2,0:0:0:0:
98,219,136470,6,0,B|126:237|126:237|120:286,1,60.0000022888184,2|0,3:1|0:0,0:0:0:0:
209,316,136657,2,0,L|184:376,1,60.0000022888184,0|0,3:1|0:0,0:0:0:0:
80,358,136845,2,2,B|15:376|15:376|-10:244,1,180.000006866455,8|2,1:3|0:0,1:1:0:0:
5,251,137220,2,0,L|-6:180,1,60.0000022888184,2|0,0:1|0:0,0:0:0:0:
146,122,137407,1,0,3:0:0:0:
150,139,137501,1,2,0:0:0:0:
154,156,137595,1,10,1:1:0:0:
158,173,137688,1,0,0:0:0:0:
162,190,137782,1,2,0:0:0:0:
167,207,137876,1,10,1:2:0:0:
194,224,137970,6,0,B|225:212|225:212|236:173,1,60.0000022888184,6|0,3:1|0:0,0:0:0:0:
224,92,138157,2,0,L|298:133,1,60.0000022888184,2|0,3:1|0:0,0:0:0:0:
353,291,138345,2,0,B|315:272|315:272|306:167,1,120.000004577637,8|0,0:3|1:0,0:0:0:0:
324,187,138626,1,0,0:0:0:0:
335,200,138720,1,2,1:1:0:0:
434,228,138907,1,0,3:0:0:0:
471,131,139095,2,0,L|412:158,1,60.0000022888184,8|2,1:3|0:0,0:0:0:0:
356,123,139282,2,0,B|344:93|344:93|370:68,1,60.0000022888184,2|0,1:0|0:0,0:0:0:0:
425,10,139470,6,0,L|437:73,1,60.0000022888184,0|0,1:0|0:0,0:0:0:0:
286,7,139657,2,0,L|274:70,1,60.0000022888184,2|0,3:1|0:0,0:0:0:0:
133,8,139845,2,0,L|142:144,1,120.000004577637,8|2,1:3|0:0,0:0:0:0:
127,139,140126,1,0,0:0:0:0:
129,156,140220,1,2,0:0:0:0:
132,173,140313,1,0,0:0:0:0:
135,190,140407,1,2,3:1:0:0:
330,258,140595,1,10,1:3:0:0:
326,275,140688,1,2,0:0:0:0:
322,292,140782,1,2,0:1:0:0:
318,309,140876,1,2,0:0:0:0:
301,333,140970,6,0,B|275:328|275:328|254:288,1,60.0000022888184,6|0,3:1|0:0,0:0:0:0:
202,252,141157,2,0,L|221:180,1,60.0000022888184,4|0,3:1|0:0,0:0:0:0:
285,170,141345,2,0,L|261:36,1,120.000004577637,8|0,1:3|0:0,0:0:0:0:
247,60,141626,1,2,0:0:0:0:
248,42,141720,1,2,0:0:0:0:
250,24,141813,1,2,0:0:0:0:
253,6,141907,1,2,3:2:0:0:
338,63,142095,1,8,1:3:0:0:
341,80,142188,1,0,0:0:0:0:
344,97,142282,1,2,0:0:0:0:
155,64,142470,6,0,L|142:109,1,40,4|0,3:2|0:0,0:0:0:0:
94,44,142657,2,0,L|81:89,1,40,4|0,3:2|0:0,0:0:0:0:
11,197,142845,6,0,L|24:242,1,40,8|0,1:3|0:0,0:0:0:0:
72,177,143032,2,0,L|85:222,1,40,4|0,3:2|0:0,0:0:0:0:
230,284,143220,6,0,L|217:329,1,40,4|0,3:2|0:0,0:0:0:0:
169,264,143407,2,0,L|156:309,1,40,8|0,1:3|0:0,0:0:0:0:
23,365,143595,6,0,L|33:396,1,20,4|0,3:2|0:0,0:0:0:0:
85,344,143782,2,0,L|94:376,1,20,4|0,3:2|0:0,0:0:0:0:
155,371,143970,6,2,L|318:343,2,160,4|4|4,1:0|0:3|0:3,1:1:0:0:
105,329,148282,2,2,L|70:338,4,30,0|0|0|0|0,0:0|0:0|0:0|0:0|0:0,0:0:0:0:
357,371,149970,6,2,L|194:343,2,160,4|4|4,0:3|0:3|0:3,1:1:0:0:
407,329,154095,2,2,L|442:338,4,30,0|0|0|0|0,0:0|0:0|0:0|0:0|0:0,0:0:0:0:
310,285,155970,6,2,L|295:122,2,160,4|4|4,0:3|0:3|0:3,1:1:0:0:
254,320,159720,2,2,L|254:357,5,30,0|0|0|0|0|0,0:0|0:0|0:0|0:0|0:0|0:0,0:0:0:0:
202,285,161970,6,2,L|217:122,1,160,4|4,0:3|0:3,1:1:0:0:
256,192,163657,12,0,167595,0:0:0:0:
305,144,167970,5,2,1:0:0:0:
362,195,168157,2,0,L|345:318,1,120.000004577637,2|2,0:0|1:0,0:0:0:0:
280,357,168720,2,0,B|222:346|222:346|187:276,1,120.000004577637,2|2,1:0|1:0,0:0:0:0:
210,215,169282,1,2,0:0:0:0:
95,109,169657,1,2,0:0:0:0:
28,150,169845,1,2,0:0:0:0:
94,189,170032,1,2,1:0:0:0:
163,152,170220,2,0,L|180:22,1,120.000004577637,2|2,1:0|1:0,0:0:0:0:
333,33,170970,6,0,L|349:152,1,120.000004577637,2|2,1:0|0:0,0:0:0:0:
319,223,171532,1,2,1:0:0:0:
380,271,171720,2,0,B|432:266|432:266|388:200,1,120.000004577637,2|2,1:0|1:0,0:0:0:0:
246,146,172470,2,2,B|194:151|194:151|238:217,3,120.000004577637,0|2|2|2,1:0|0:0|0:0|0:1,1:1:0:0:
25,117,173970,6,0,L|43:240,1,120.000004577637,2|2,1:0|0:0,0:0:0:0:
106,280,174532,1,2,1:1:0:0:
62,345,174720,2,0,B|28:353|28:353|12:261,2,120.000004577637,2|2|2,1:0|1:0|1:0,0:0:0:0:
138,360,175657,2,0,L|219:372,1,60.0000022888184,2|2,0:0|0:0,0:0:0:0:
253,314,176032,1,2,1:0:0:0:
311,366,176220,2,2,B|341:353|341:353|351:316,1,60.0000022888184,2|0,1:0|0:1,1:1:0:0:
348,248,176595,2,0,L|334:180,1,60.0000022888184,2|2,1:0|0:1,0:0:0:0:
345,111,176970,5,2,1:0:0:0:
268,122,177157,2,2,L|282:54,2,60.0000022888184,2|2|0,1:0|0:0|1:0,1:1:0:0:
216,181,177720,1,2,1:0:0:0:
145,147,177907,2,0,L|74:157,1,60.0000022888184,2|2,1:0|0:1,1:1:0:0:
8,141,178282,1,2,1:0:0:0:
62,85,178470,6,2,B|102:79|102:79|64:-1,1,120.000004577637,2|2,1:0|0:1,1:1:0:0:
301,36,179220,2,2,B|266:107|266:107|306:113,1,120.000004577637,0|2,1:0|0:1,1:1:0:0:
179,203,179970,5,2,1:0:0:0:
202,277,180157,1,2,0:0:0:0:
146,332,180345,1,0,0:0:0:0:
117,259,180532,1,2,1:0:0:0:
39,267,180720,2,0,L|160:324,1,120.000004577637,2|2,1:0|1:0,0:0:0:0:
206,368,181282,1,2,0:0:0:0:
356,302,181657,1,2,0:0:0:0:
301,245,181845,1,2,0:0:0:0:
254,307,182032,1,2,1:0:0:0:
309,362,182220,2,0,B|336:345|336:345|367:359,1,60.0000022888184,2|0,1:0|0:0,0:0:0:0:
438,372,182595,2,0,L|431:295,1,60.0000022888184,2|0,1:0|0:0,0:0:0:0:
417,235,182970,6,0,B|442:205|442:205|411:104,1,120.000004577637,2|2,1:0|0:0,0:0:0:0:
412,50,183532,1,2,1:0:0:0:
342,13,183720,2,0,L|213:52,1,120.000004577637,2|2,1:0|1:0,0:0:0:0:
117,158,184470,2,2,B|64:135|64:135|63:69,3,120.000004577637,0|2|2|2,1:0|0:0|0:0|0:1,1:1:0:0:
119,18,185782,1,2,0:0:0:0:
188,52,185970,6,0,B|231:79|231:79|199:150,1,120.000004577637,2|2,1:0|0:0,0:0:0:0:
190,219,186532,1,2,1:1:0:0:
231,285,186720,2,0,B|228:324|228:324|301:371,2,120.000004577637,2|2|2,1:0|1:0|1:0,0:0:0:0:
276,221,187657,2,0,L|350:263,1,60.0000022888184,2|2,0:0|0:0,0:0:0:0:
395,290,188032,1,2,1:0:0:0:
465,323,188220,2,2,L|464:237,1,60.0000022888184,2|0,1:0|0:1,1:1:0:0:
454,185,188595,2,0,L|380:228,1,60.0000022888184,2|2,1:0|0:1,0:0:0:0:
338,170,188970,5,2,1:0:0:0:
321,93,189157,1,2,1:0:0:0:
396,71,189345,2,0,L|469:114,1,60.0000022888184,2|0,0:0|1:0,0:0:0:0:
465,25,189720,1,2,1:0:0:0:
387,33,189907,1,2,1:0:0:0:
367,108,190095,1,2,0:1:0:0:
425,159,190282,1,2,1:0:0:0:
496,119,190470,6,2,L|490:37,1,60.0000022888184,2|0,1:0|0:0,1:1:0:0:
496,119,190845,1,2,0:1:0:0:
496,119,191032,1,0,0:0:0:0:
493,188,191220,2,2,L|514:315,1,120.000004577637,0|2,1:0|0:1,1:1:0:0:
136,273,191970,5,2,1:2:0:0:
200,229,192157,2,0,L|240:247,2,30.0000011444092,2|2|8,0:0|0:0|0:0,0:0:0:0:
159,124,192532,1,2,0:1:0:0:
90,125,192720,2,0,L|103:208,1,60.0000022888184,2|2,0:1|0:0,0:0:0:0:
41,227,193095,2,2,L|19:87,1,120.000004577637,8|2,0:0|0:0,0:0:0:0:
11,31,193657,2,0,L|5:0,2,30.0000011444092,2|2|8,0:0|0:0|0:0,0:0:0:0:
81,55,194032,1,2,0:1:0:0:
148,15,194220,2,0,L|215:29,1,60.0000022888184,2|2,0:1|0:0,0:0:0:0:
252,90,194595,2,0,L|310:77,1,60.0000022888184,10|2,0:1|0:0,0:0:0:0:
367,23,194970,6,2,B|417:53|417:53|384:130,1,120.000004577637,2|8,1:1|0:0,0:0:0:0:
327,152,195532,1,2,0:1:0:0:
384,205,195720,2,0,L|400:337,1,120.000004577637,2|10,0:1|0:1,0:0:0:0:
466,361,196282,1,2,0:0:0:0:
480,284,196470,6,0,L|469:204,1,60.0000022888184,2|2,0:1|0:0,0:0:0:0:
310,277,196845,2,0,L|318:336,1,60.0000022888184,10|2,0:1|0:0,0:0:0:0:
471,255,197220,6,0,L|460:175,1,60.0000022888184,2|2,0:1|0:1,0:0:0:0:
301,248,197595,2,0,L|309:307,1,60.0000022888184,10|0,0:1|0:0,0:0:0:0:
279,283,197876,1,8,0:0:0:0:
266,282,197970,5,2,1:1:0:0:
211,226,198157,2,0,L|176:239,2,30.0000011444092,2|2|8,0:0|0:0|0:0,0:0:0:0:
279,144,198532,1,2,0:1:0:0:
233,80,198720,2,0,L|245:-1,1,60.0000022888184,2|2,0:1|0:0,0:0:0:0:
178,7,199095,2,2,L|158:138,1,120.000004577637,10|2,0:1|0:1,0:0:0:0:
105,181,199657,2,0,L|59:191,2,30.0000011444092,2|2|8,0:0|0:0|0:0,0:0:0:0:
173,219,200032,5,2,0:1:0:0:
208,288,200220,1,2,0:1:0:0:
145,334,200407,1,0,0:0:0:0:
91,276,200595,1,10,0:1:0:0:
168,272,200782,1,2,0:1:0:0:
147,347,200970,1,0,1:0:0:0:
69,347,201157,1,2,0:1:0:0:
91,276,201345,2,2,L|82:209,1,60.0000022888184,10|2,0:1|0:0,1:1:0:0:
240,250,201720,2,2,L|232:309,1,60.0000022888184,2|2,0:1|0:1,0:1:0:0:
397,246,202095,2,0,L|389:186,1,60.0000022888184,8|2,0:1|0:1,0:0:0:0:
328,137,202470,6,2,B|299:82|299:82|338:19,1,120.000004577637,2|8,0:1|0:0,1:1:0:0:
404,56,203032,1,2,0:1:0:0:
481,64,203220,2,2,B|510:119|510:119|471:182,1,120.000004577637,2|8,0:1|0:0,1:1:0:0:
481,298,203782,5,2,0:0:0:0:
481,298,203876,1,8,0:0:0:0:
481,298,203970,2,0,L|416:315,1,60.0000022888184,2|2,1:2|0:0,0:0:0:0:
374,374,204345,1,8,0:0:0:0:
277,297,204532,1,2,0:1:0:0:
282,218,204720,2,0,L|217:235,1,60.0000022888184,2|2,0:1|0:0,0:0:0:0:
181,299,205095,2,2,L|53:277,1,120.000004577637,8|2,0:0|0:0,0:0:0:0:
33,206,205657,2,0,L|19:162,2,30.0000011444092,2|2|8,0:0|0:0|0:0,0:0:0:0:
105,177,206032,1,2,0:1:0:0:
179,200,206220,2,0,L|191:137,1,60.0000022888184,2|2,0:1|0:0,0:0:0:0:
124,98,206595,2,0,L|112:35,1,60.0000022888184,10|2,0:1|0:0,0:0:0:0:
217,0,206970,6,2,B|271:12|271:12|282:93,1,120.000004577637,2|8,1:1|0:0,0:0:0:0:
255,150,207532,1,2,0:1:0:0:
301,213,207720,2,0,L|372:192,1,60.0000022888184,2|0,0:1|0:0,0:0:0:0:
387,123,208095,2,0,L|509:148,1,120.000004577637,10|2,0:1|0:1,0:0:0:0:
463,213,208657,2,0,L|426:205,2,30.0000011444092,2|0|10,0:0|0:0|0:1,0:0:0:0:
424,281,209032,1,2,0:0:0:0:
488,324,209220,2,0,L|498:389,1,60.0000022888184,2|2,0:1|0:1,0:0:0:0:
351,379,209595,2,0,L|360:319,1,60.0000022888184,10|0,0:1|0:0,0:0:0:0:
330,345,209876,1,8,0:0:0:0:
318,341,209970,5,2,1:1:0:0:
256,313,210157,2,0,L|248:348,2,30.0000011444092,2|2|8,0:0|0:0|0:0,0:0:0:0:
318,266,210532,1,2,0:1:0:0:
263,209,210720,2,2,L|249:81,1,120.000004577637,2|10,0:1|0:1,0:0:0:0:
236,12,211282,1,2,0:0:0:0:
236,12,211376,1,2,0:0:0:0:
236,12,211470,2,0,B|181:42|181:42|113:16,1,120.000004577637,2|8,0:1|0:0,0:0:0:0:
49,23,212032,5,2,0:1:0:0:
14,93,212220,2,0,L|33:155,1,60.0000022888184,2|0,0:1|0:0,0:0:0:0:
97,192,212595,1,10,0:1:0:0:
54,256,212782,1,2,0:1:0:0:
111,309,212970,2,0,L|92:371,1,60.0000022888184,0|2,1:0|0:1,0:0:0:0:
25,327,213345,1,10,0:1:0:0:
54,256,213532,1,2,0:0:0:0:
130,241,213720,1,2,0:1:0:0:
180,299,213907,1,2,0:1:0:0:
239,350,214095,1,8,0:1:0:0:
315,335,214282,1,2,0:1:0:0:
374,284,214470,6,2,L|452:313,1,60.0000022888184,2|0,0:1|0:0,1:1:0:0:
428,181,214845,2,0,L|371:160,1,60.0000022888184,8|2,0:0|0:1,0:0:0:0:
313,270,215220,6,2,L|393:261,1,60.0000022888184,2|0,0:1|0:0,1:1:0:0:
494,158,215595,2,0,L|434:164,1,60.0000022888184,8|2,0:0|0:0,0:0:0:0:
414,130,215876,1,8,0:0:0:0:
424,120,215970,5,6,1:2:0:0:
391,36,216157,2,0,B|345:22|345:22|278:86,1,120.000004577637,2|2,1:2|0:1,0:0:0:0:
249,136,216720,2,0,L|190:120,1,60.0000022888184,2|2,0:1|0:0,0:0:0:0:
138,62,217095,1,10,0:1:0:0:
72,103,217282,1,2,0:0:0:0:
72,103,217376,1,0,0:0:0:0:
72,103,217470,2,0,L|56:162,1,60.0000022888184,2|2,0:0|0:0,0:0:0:0:
0,215,217845,2,0,L|16:274,1,60.0000022888184,8|2,0:0|0:1,0:0:0:0:
89,297,218220,1,2,0:1:0:0:
91,374,218407,1,2,0:0:0:0:
16,348,218595,1,10,0:1:0:0:
15,272,218782,5,2,0:0:0:0:
15,272,218876,1,2,0:0:0:0:
15,272,218970,2,2,L|142:301,1,120.000004577637,2|8,1:1|0:0,0:0:0:0:
194,252,219532,1,2,0:1:0:0:
204,329,219720,2,0,L|267:344,1,60.0000022888184,2|0,0:1|0:0,0:0:0:0:
400,314,220095,2,0,L|341:300,1,60.0000022888184,10|2,0:1|0:0,0:0:0:0:
284,246,220470,6,2,L|271:111,3,120.000004577637,2|10|2|10,0:1|0:1|0:1|0:1,1:1:0:0:
292,51,221782,5,2,0:0:0:0:
288,42,221876,1,8,0:0:0:0:
285,33,221970,2,0,B|249:11|249:11|170:64,1,120.000004577637,2|8,1:1|0:0,0:0:0:0:
157,127,222532,1,2,0:1:0:0:
88,90,222720,2,0,L|23:134,1,60.0000022888184,2|2,0:1|0:0,0:0:0:0:
143,225,223095,2,2,L|192:191,1,60.0000022888184,10|0,0:1|0:0,0:0:0:0:
26,197,223470,6,0,B|67:210|67:210|82:297,1,120.000004577637,2|8,0:1|0:0,0:0:0:0:
103,360,224032,1,2,0:1:0:0:
159,306,224220,2,0,L|126:366,1,60.0000022888184,2|0,0:1|0:0,0:0:0:0:
224,338,224595,1,10,0:1:0:0:
218,260,224782,1,2,0:1:0:0:
289,292,224970,2,0,L|322:352,1,60.0000022888184,0|2,1:0|0:1,0:0:0:0:
393,291,225345,1,10,0:1:0:0:
399,213,225532,1,2,0:0:0:0:
328,245,225720,2,0,L|295:305,1,60.0000022888184,2|2,0:1|0:1,0:0:0:0:
336,172,226095,2,0,L|307:119,1,60.0000022888184,8|2,0:1|0:1,0:0:0:0:
512,251,226470,6,2,L|380:206,3,120.000004577637,2|8|2|10,0:1|0:0|0:1|0:1,1:1:0:0:
266,230,227782,5,2,0:0:0:0:
266,230,227876,1,8,0:0:0:0:
266,230,227970,2,0,L|209:249,1,60.0000022888184,2|2,1:2|1:2,0:0:0:0:
148,199,228345,1,8,0:0:0:0:
94,255,228532,1,2,0:1:0:0:
153,306,228720,2,2,L|273:265,1,120.000004577637,2|8,0:1|0:0,0:0:0:0:
361,324,229282,5,2,0:0:0:0:
361,324,229376,1,2,0:0:0:0:
361,324,229470,2,0,L|316:195,1,120.000004577637,2|8,0:0|0:0,0:0:0:0:
339,134,230032,1,2,0:1:0:0:
304,63,230220,2,0,L|297:128,1,60.0000022888184,2|2,0:1|0:0,0:0:0:0:
195,199,230595,2,0,L|265:180,1,60.0000022888184,10|2,0:1|0:0,0:0:0:0:
386,183,230970,6,2,L|513:222,1,120.000004577637,2|8,1:1|0:0,0:0:0:0:
488,141,231532,1,2,0:1:0:0:
414,113,231720,2,0,L|404:45,1,60.0000022888184,2|0,0:1|0:0,0:0:0:0:
469,10,232095,2,0,L|477:69,1,60.0000022888184,10|0,0:1|0:0,0:0:0:0:
335,103,232470,6,2,B|297:115|297:115|239:42,3,120.000004577637,2|10|2|10,0:1|0:1|0:1|0:1,1:1:0:0:
156,152,233782,5,2,0:0:0:0:
156,152,233876,1,8,0:0:0:0:
156,152,233970,2,0,L|170:280,1,120.000004577637,2|8,1:1|0:0,0:0:0:0:
100,309,234532,1,2,0:1:0:0:
34,266,234720,2,2,L|39:202,1,60.0000022888184,2|0,0:1|0:0,0:0:0:0:
92,149,235095,2,0,L|80:89,1,60.0000022888184,10|2,0:1|0:0,0:0:0:0:
36,16,235470,6,2,B|66:0|66:0|167:36,1,120.000004577637,2|8,0:1|0:0,1:1:0:0:
193,91,236032,1,2,0:1:0:0:
268,69,236220,1,2,0:1:0:0:
221,6,236407,1,0,0:0:0:0:
147,29,236595,2,0,L|162:96,1,60.0000022888184,10|2,0:1|0:1,0:0:0:0:
221,132,236970,1,0,1:0:0:0:
268,69,237157,1,2,0:1:0:0:
342,92,237345,2,0,L|327:159,1,60.0000022888184,10|2,0:1|0:0,0:0:0:0:
288,217,237720,1,2,0:1:0:0:
331,281,237907,1,2,0:1:0:0:
405,257,238095,1,8,0:1:0:0:
401,179,238282,1,2,0:1:0:0:
505,222,238470,6,2,B|476:208|476:208|302:237|302:237|259:215,1,240,0|0,0:1|0:0,0:1:0:0:
33,75,239970,5,6,3:2:0:0:
160,45,240157,1,2,1:2:0:0:
160,45,240251,1,0,0:0:0:0:
160,45,240345,2,0,L|174:151,1,100,8|2,3:1|0:1,0:0:0:0:
94,300,240720,1,2,3:1:0:0:
162,259,240907,1,2,0:0:0:0:
92,222,241095,1,10,3:1:0:0:
94,300,241282,1,2,0:0:0:0:
272,358,241470,5,2,3:2:0:0:
371,277,241657,1,2,0:0:0:0:
371,277,241751,1,0,0:0:0:0:
371,277,241845,2,0,L|267:247,1,100,8|2,3:2|0:1,0:0:0:0:
352,361,242220,2,0,L|448:333,1,100,2|2,3:1|0:0,0:0:0:0:
499,238,242595,1,10,3:1:0:0:
421,190,242782,1,2,0:0:0:0:
506,102,242970,6,2,B|455:112|455:112|398:54,1,100,2|0,3:1|0:0,0:0:0:0:
428,49,243251,1,2,0:0:0:0:
420,39,243345,1,8,3:2:0:0:
329,123,243532,1,2,0:1:0:0:
288,59,243720,2,0,B|241:41|241:41|198:79,1,100,2|2,3:1|0:0,0:0:0:0:
155,131,244095,2,0,L|51:115,1,100,10|2,3:1|0:0,0:0:0:0:
239,147,244470,5,2,3:1:0:0:
282,207,244657,1,2,0:0:0:0:
264,280,244845,1,10,3:1:0:0:
190,295,245032,1,2,0:0:0:0:
176,289,245126,1,0,0:0:0:0:
164,279,245220,1,2,3:1:0:0:
140,208,245407,1,2,0:0:0:0:
214,215,245595,2,0,L|231:322,1,100,10|2,3:1|0:0,0:0:0:0:
288,350,245876,1,8,0:0:0:0:
297,328,245970,6,0,L|397:358,2,100,2|2|8,3:1|0:0|3:1,0:0:0:0:
435,296,246532,1,2,0:1:0:0:
448,290,246626,1,0,0:0:0:0:
461,282,246720,2,0,B|437:251|437:251|457:182,1,100,2|2,3:1|0:0,0:0:0:0:
310,168,247095,2,2,L|299:64,1,100,10|2,3:1|0:0,0:0:0:0:
434,13,247470,2,0,B|458:60|458:60|391:152,1,150,2|0,3:1|0:0,0:0:0:0:
394,152,247845,1,8,3:1:0:0:
370,57,248032,5,2,0:1:0:0:
316,4,248220,1,2,3:1:0:0:
236,11,248407,1,2,0:0:0:0:
190,76,248595,1,10,3:1:0:0:
124,121,248782,1,2,0:1:0:0:
109,123,248876,1,2,0:0:0:0:
93,122,248970,1,0,3:0:0:0:
31,71,249157,5,2,0:1:0:0:
89,15,249345,1,10,3:1:0:0:
160,51,249532,1,2,0:0:0:0:
150,130,249720,1,2,3:1:0:0:
71,146,249907,1,2,0:1:0:0:
91,82,250095,6,0,L|149:97,1,50,8|0,3:1|0:0,0:0:0:0:
212,97,250282,2,0,L|270:112,1,50,2|0,0:1|0:0,0:0:0:0:
328,196,250470,5,2,3:1:0:0:
398,158,250657,1,2,0:0:0:0:
415,79,250845,1,8,3:1:0:0:
427,157,251032,1,0,0:0:0:0:
477,219,251220,1,2,3:1:0:0:
407,257,251407,1,2,0:0:0:0:
390,336,251595,1,10,3:1:0:0:
378,258,251782,1,2,0:0:0:0:
369,245,251876,1,8,0:0:0:0:
360,232,251970,2,0,L|256:255,2,100,2|2|8,3:1|0:2|3:1,0:0:0:0:
204,185,252532,5,2,0:1:0:0:
135,226,252720,2,2,B|86:214|86:214|71:144,1,100,2|2,3:1|0:0,0:0:0:0:
140,74,253095,2,0,L|186:183,1,100,10|2,3:1|0:0,0:0:0:0:
218,165,253376,1,0,0:0:0:0:
234,180,253470,6,0,L|204:293,1,100,2|2,3:2|0:0,0:0:0:0:
296,371,253845,1,8,3:1:0:0:
372,269,254032,1,2,0:1:0:0:
372,269,254126,1,0,0:0:0:0:
372,269,254220,2,0,B|422:292|422:292|477:263,1,100,2|2,3:1|0:0,0:0:0:0:
325,204,254595,1,10,3:1:0:0:
493,172,254782,1,2,0:0:0:0:
493,172,254876,1,0,0:0:0:0:
493,172,254970,2,2,B|443:149|443:149|388:178,1,100,2|2,3:1|0:0,0:0:0:0:
319,102,255345,2,0,L|203:119,1,100,8|2,3:1|0:1,0:0:0:0:
191,87,255626,1,2,0:0:0:0:
173,97,255720,6,0,L|68:120,1,100,2|2,3:1|0:0,0:0:0:0:
103,23,256095,2,0,L|200:1,1,100,10|2,3:1|0:0,0:0:0:0:
51,125,256470,6,2,L|28:20,1,100,2|2,3:1|0:0,1:1:0:0:
220,0,256845,2,0,L|241:97,1,100,10|2,3:1|0:0,0:0:0:0:
171,233,257220,5,2,3:1:0:0:
140,125,257407,1,2,0:0:0:0:
140,125,257501,1,0,0:0:0:0:
140,125,257595,1,10,3:1:0:0:
9,200,257782,5,2,0:0:0:0:
21,207,257876,1,8,0:0:0:0:
33,214,257970,2,0,B|50:248|50:248|20:324,1,100,2|2,3:1|0:0,0:0:0:0:
143,379,258345,2,0,L|112:263,1,100,8|2,3:1|0:1,0:0:0:0:
155,289,258626,1,2,0:0:0:0:
176,293,258720,2,2,L|198:184,1,100,2|2,3:1|0:0,0:0:0:0:
282,105,259095,2,0,L|301:203,1,100,10|2,3:1|0:0,0:0:0:0:
274,242,259376,1,2,0:0:0:0:
271,265,259470,6,2,B|296:228|296:228|485:205,1,200,2|8,3:1|3:1,1:1:0:0:
496,354,260032,1,2,0:1:0:0:
496,354,260126,1,2,0:0:0:0:
496,354,260220,1,2,3:1:0:0:
352,317,260407,1,2,0:0:0:0:
450,209,260595,1,10,3:1:0:0:
496,354,260782,1,2,0:1:0:0:
438,289,260970,5,0,3:1:0:0:
505,162,261157,1,2,0:1:0:0:
352,169,261345,1,10,3:1:0:0:
425,211,261532,5,2,0:0:0:0:
285,192,261720,1,2,3:1:0:0:
351,74,261907,1,2,0:1:0:0:
493,103,262095,5,8,3:1:0:0:
409,134,262282,1,2,0:1:0:0:
415,120,262376,1,2,0:0:0:0:
421,106,262470,2,2,L|446:233,1,100,2|2,3:1|0:0,0:0:0:0:
272,185,262845,1,10,3:1:0:0:
291,92,263032,1,2,0:1:0:0:
145,102,263220,2,0,L|164:200,1,100,2|2,3:1|0:0,0:0:0:0:
0,225,263595,2,0,L|19:126,1,100,10|2,3:1|0:0,0:0:0:0:
58,115,263876,1,2,0:0:0:0:
54,100,263970,5,6,3:2:0:0:
149,64,264157,1,6,0:2:0:0:
41,34,264345,1,8,3:1:0:0:
196,5,264532,5,2,0:1:0:0:
261,85,264720,2,0,L|373:63,1,100,2|2,3:1|0:0,0:0:0:0:
438,5,265095,2,0,B|479:29|479:29|467:102,1,100,10|4,3:1|0:2,0:0:0:0:
428,102,265376,1,0,0:0:0:0:
419,114,265470,6,0,L|443:217,1,100,2|2,3:2|0:0,0:0:0:0:
501,287,265845,1,12,3:2:0:0:
412,294,266032,1,2,0:1:0:0:
441,211,266220,1,2,3:1:0:0:
501,287,266407,1,2,0:0:0:0:
464,362,266595,1,10,3:1:0:0:
335,295,266782,5,6,0:2:0:0:
335,295,266876,1,0,0:0:0:0:
335,295,266970,2,2,L|312:197,1,100,2|0,3:1|0:0,0:0:0:0:
331,110,267345,1,8,3:2:0:0:
262,52,267532,1,0,0:2:0:0:
262,52,267626,1,0,0:0:0:0:
262,52,267720,1,2,3:1:0:0:
238,140,267907,1,0,0:0:0:0:
331,110,268095,2,0,L|453:146,1,100,10|2,3:1|0:0,0:0:0:0:
185,78,268470,6,0,L|63:114,1,100,2|0,3:1|0:0,0:0:0:0:
56,89,268751,1,4,0:0:0:0:
42,96,268845,1,10,3:1:0:0:
87,18,269032,1,4,0:0:0:0:
195,69,269220,6,0,B|234:104|234:104|203:214,1,150,2|0,3:1|0:0,0:0:0:0:
195,206,269595,2,0,L|176:263,1,50,10|0,3:1|0:0,0:0:0:0:
156,317,269782,2,0,L|137:374,1,50,4|8,0:0|0:0,0:0:0:0:
231,309,269970,5,2,3:1:0:0:
109,260,270157,2,0,B|70:225|70:225|101:115,1,150,4|0,0:0|0:0,0:0:0:0:
107,121,270532,1,2,0:1:0:0:
197,182,270720,1,2,3:1:0:0:
263,157,270907,1,6,0:0:0:0:
271,88,271095,1,10,3:1:0:0:
201,110,271282,1,4,0:0:0:0:
310,213,271470,6,0,L|531:189,1,200,2|8,3:1|3:1,0:0:0:0:
471,127,272032,1,2,0:1:0:0:
471,127,272126,1,4,0:0:0:0:
471,127,272220,2,0,B|425:104|425:104|374:135,1,100,2|4,3:1|0:0,0:0:0:0:
327,287,272595,2,0,B|373:310|373:310|424:279,1,100,10|2,3:1|0:1,0:0:0:0:
463,114,272970,6,0,B|417:91|417:91|366:122,1,100,4|2,3:2|0:1,0:0:0:0:
319,274,273345,2,0,B|365:297|365:297|416:266,1,100,10|2,3:1|0:0,0:0:0:0:
278,108,273720,5,2,3:1:0:0:
200,128,273907,1,6,0:2:0:0:
174,204,274095,1,8,3:1:0:0:
223,266,274282,1,6,0:0:0:0:
93,213,274470,6,0,L|80:109,1,100,2|0,3:1|0:0,0:0:0:0:
278,108,274845,2,0,L|290:207,1,100,8|4,3:1|0:0,0:0:0:0:
129,29,275220,5,2,3:1:0:0:
196,126,275407,1,4,0:0:0:0:
196,126,275501,1,0,0:0:0:0:
196,126,275595,1,10,3:1:0:0:
101,202,275782,2,0,L|111:272,1,50,6|8,0:0|0:0,0:0:0:0:
91,325,275970,5,6,3:2:0:0:
198,375,276157,2,0,B|248:382|248:382|285:326,1,100,6|8,0:2|3:1,0:0:0:0:
377,322,276532,1,2,0:1:0:0:
315,249,276720,2,0,L|199:265,1,100,2|2,3:1|0:0,0:0:0:0:
271,165,277095,1,10,3:1:0:0:
365,177,277282,1,4,0:0:0:0:
365,177,277376,1,0,0:0:0:0:
365,177,277470,1,2,3:2:0:0:
406,263,277657,1,2,0:0:0:0:
320,244,277845,1,12,3:2:0:0:
446,192,278032,5,2,0:1:0:0:
459,197,278126,1,0,0:0:0:0:
472,203,278220,2,0,L|460:100,1,100,2|2,3:1|0:0,0:0:0:0:
297,68,278595,2,0,L|285:167,1,100,10|6,3:1|0:2,0:0:0:0:
245,180,278876,1,0,0:0:0:0:
232,188,278970,6,2,B|211:232|211:232|249:296,1,100,2|0,3:1|0:0,0:0:0:0:
257,363,279345,1,8,3:2:0:0:
319,301,279532,1,0,0:2:0:0:
176,331,279720,2,0,L|63:318,1,100,2|0,3:1|0:0,0:0:0:0:
7,192,280095,2,0,L|106:203,1,100,10|2,3:1|0:0,0:0:0:0:
250,176,280470,5,2,3:1:0:0:
324,73,280657,1,0,0:0:0:0:
217,0,280845,1,10,3:1:0:0:
143,103,281032,1,4,0:0:0:0:
307,138,281220,5,2,3:1:0:0:
286,13,281407,1,0,0:0:0:0:
159,37,281595,1,10,3:1:0:0:
180,162,281782,1,4,0:0:0:0:
190,151,281876,1,8,0:0:0:0:
201,140,281970,6,0,L|219:253,1,100,2|4,3:1|0:0,0:0:0:0:
298,321,282345,1,8,3:1:0:0:
313,228,282532,1,2,0:1:0:0:
200,343,282720,6,2,L|96:318,1,100,2|6,3:1|0:0,0:0:0:0:
32,250,283095,2,0,L|105:172,1,100,10|4,3:1|0:0,0:0:0:0:
221,52,283470,6,0,L|301:247,1,200,2|8,3:1|3:1,0:0:0:0:
422,308,284032,1,2,0:1:0:0:
422,308,284126,1,4,0:0:0:0:
422,308,284220,2,0,B|453:262|453:262|422:197,1,100,2|4,3:1|0:0,0:0:0:0:
248,187,284595,2,0,B|217:233|217:233|248:298,1,100,10|2,3:1|0:1,0:0:0:0:
363,182,284970,6,0,L|315:86,1,100,4|2,3:2|0:1,0:0:0:0:
106,155,285345,2,0,L|150:244,1,100,10|2,3:1|0:0,0:0:0:0:
205,35,285720,5,2,3:1:0:0:
127,18,285907,1,6,0:2:0:0:
55,54,286095,1,8,3:1:0:0:
35,131,286282,1,6,0:0:0:0:
63,243,286470,6,2,L|49:334,3,80,4|2|2|2,0:0|0:0|0:0|0:1,0:1:0:0:
256,193,287970,5,4,3:1:0:0:
269,201,288063,1,2,0:2:0:0:
283,208,288157,1,6,0:2:0:0:
297,215,288251,1,2,0:2:0:0:
311,220,288345,1,2,3:2:0:0:
326,225,288438,1,2,0:2:0:0:
341,227,288532,1,6,0:2:0:0:
356,229,288626,1,2,0:2:0:0:
371,230,288720,1,2,3:2:0:0:
386,230,288813,1,2,0:2:0:0:
402,229,288907,1,6,0:2:0:0:
418,228,289001,1,2,0:2:0:0:
433,225,289095,1,2,3:2:0:0:
448,221,289188,1,2,0:2:0:0:
462,215,289282,1,6,0:2:0:0:
476,207,289376,1,2,0:2:0:0:
489,199,289470,5,2,3:1:0:0:
488,206,289563,1,2,0:2:0:0:
487,214,289657,1,6,0:2:0:0:
486,222,289751,1,2,0:2:0:0:
485,229,289845,1,2,3:1:0:0:
484,237,289938,1,2,0:2:0:0:
483,245,290032,1,6,0:2:0:0:
482,252,290126,1,2,0:2:0:0:
481,260,290220,1,2,3:1:0:0:
480,268,290313,1,2,0:2:0:0:
479,275,290407,1,4,0:2:0:0:
478,283,290501,1,2,0:2:0:0:
477,291,290595,1,2,3:1:0:0:
476,298,290688,1,2,0:2:0:0:
475,306,290782,1,6,0:2:0:0:
474,314,290876,1,2,0:2:0:0:
473,322,290970,5,6,3:2:0:0:
445,311,291063,1,2,0:2:0:0:
414,311,291157,1,2,0:2:0:0:
384,318,291251,1,2,0:2:0:0:
358,334,291345,1,6,3:2:0:0:
332,350,291438,1,2,0:2:0:0:
305,364,291532,1,2,0:2:0:0:
275,370,291626,1,2,0:2:0:0:
244,370,291720,1,6,3:2:0:0:
215,363,291813,1,2,0:2:0:0:
190,345,291907,1,2,0:2:0:0:
175,318,292001,1,2,0:2:0:0:
172,288,292095,1,6,3:2:0:0:
179,259,292188,1,2,0:2:0:0:
194,233,292282,1,2,0:2:0:0:
210,208,292376,1,2,0:2:0:0:
223,181,292470,1,6,3:2:0:0:
231,152,292563,1,2,0:2:0:0:
230,121,292657,1,2,0:2:0:0:
222,91,292751,1,2,0:2:0:0:
207,64,292845,1,6,3:2:0:0:
183,45,292938,1,2,0:2:0:0:
153,39,293032,1,6,0:2:0:0:
123,44,293126,1,2,0:2:0:0:
97,59,293220,1,2,3:2:0:0:
83,85,293313,1,2,0:2:0:0:
76,114,293407,1,6,0:2:0:0:
81,143,293501,1,2,0:2:0:0:
98,167,293595,1,2,3:2:0:0:
122,183,293688,1,2,0:2:0:0:
151,187,293782,1,6,0:2:0:0:
180,183,293876,1,2,0:2:0:0:
207,170,293970,5,4,3:1:0:0:
221,177,294063,1,2,0:2:0:0:
235,184,294157,1,6,0:2:0:0:
249,191,294251,1,2,0:2:0:0:
263,198,294345,1,2,3:2:0:0:
276,205,294438,1,2,0:2:0:0:
289,213,294532,1,6,0:2:0:0:
303,220,294626,1,2,0:2:0:0:
317,227,294720,1,2,3:2:0:0:
331,234,294813,1,2,0:2:0:0:
345,241,294907,1,6,0:2:0:0:
358,248,295001,1,2,0:2:0:0:
371,256,295095,1,2,3:2:0:0:
386,259,295188,1,2,0:2:0:0:
390,274,295282,1,6,0:2:0:0:
405,276,295376,1,2,0:2:0:0:
414,289,295470,5,2,3:1:0:0:
436,269,295563,1,2,0:2:0:0:
448,241,295657,1,6,0:2:0:0:
451,211,295751,1,2,0:2:0:0:
441,197,295845,5,2,3:1:0:0:
450,168,295938,1,2,0:2:0:0:
446,138,296032,1,6,0:2:0:0:
434,110,296126,1,2,0:2:0:0:
418,103,296220,5,2,3:1:0:0:
412,74,296313,1,2,0:2:0:0:
394,50,296407,1,4,0:2:0:0:
369,32,296501,1,2,0:2:0:0:
351,33,296595,5,2,3:1:0:0:
332,11,296688,1,2,0:2:0:0:
304,0,296782,1,6,0:2:0:0:
273,0,296876,1,2,0:2:0:0:
259,11,296970,5,6,3:2:0:0:
259,18,297063,1,2,0:2:0:0:
259,25,297157,1,2,0:2:0:0:
259,32,297251,1,2,0:2:0:0:
259,39,297345,1,6,3:2:0:0:
259,46,297438,1,2,0:2:0:0:
259,53,297532,1,2,0:2:0:0:
259,60,297626,1,2,0:2:0:0:
259,67,297720,1,6,3:2:0:0:
259,74,297813,1,2,0:2:0:0:
259,81,297907,1,2,0:2:0:0:
259,88,298001,1,2,0:2:0:0:
259,95,298095,1,6,3:2:0:0:
259,102,298188,1,2,0:2:0:0:
259,109,298282,1,2,0:2:0:0:
259,116,298376,1,2,0:2:0:0:
259,123,298470,1,6,3:2:0:0:
259,130,298563,1,2,0:2:0:0:
259,137,298657,1,2,0:2:0:0:
259,144,298751,1,2,0:2:0:0:
259,151,298845,1,6,3:2:0:0:
259,158,298938,1,2,0:2:0:0:
259,165,299032,1,6,0:2:0:0:
259,172,299126,1,2,0:2:0:0:
259,179,299220,1,2,3:2:0:0:
259,186,299313,1,2,0:2:0:0:
259,193,299407,1,6,0:2:0:0:
259,200,299501,1,2,0:2:0:0:
259,207,299595,1,2,3:2:0:0:
259,214,299688,1,2,0:2:0:0:
259,221,299782,1,6,0:2:0:0:
259,228,299876,1,2,0:2:0:0:
259,235,299970,5,4,3:1:0:0:
232,227,300063,1,2,0:2:0:0:
201,225,300157,1,6,0:2:0:0:
171,228,300251,1,2,0:2:0:0:
143,240,300345,1,2,3:2:0:0:
119,257,300438,1,2,0:2:0:0:
90,267,300532,1,6,0:2:0:0:
59,265,300626,1,2,0:2:0:0:
32,250,300720,1,2,3:2:0:0:
20,222,300813,1,2,0:2:0:0:
26,192,300907,1,6,0:2:0:0:
46,169,301001,1,2,0:2:0:0:
63,144,301095,1,2,3:2:0:0:
72,115,301188,1,2,0:2:0:0:
77,85,301282,1,6,0:2:0:0:
70,55,301376,1,2,0:2:0:0:
47,35,301470,5,2,3:1:0:0:
45,50,301563,1,2,0:2:0:0:
47,65,301657,1,6,0:2:0:0:
48,80,301751,1,2,0:2:0:0:
65,104,301845,5,2,3:1:0:0:
67,119,301938,1,2,0:2:0:0:
65,134,302032,1,6,0:2:0:0:
64,149,302126,1,2,0:2:0:0:
51,176,302220,5,2,3:1:0:0:
49,191,302313,1,2,0:2:0:0:
51,206,302407,1,6,0:2:0:0:
52,221,302501,1,2,0:2:0:0:
69,245,302595,5,2,3:1:0:0:
71,260,302688,1,2,0:2:0:0:
69,275,302782,1,6,0:2:0:0:
68,290,302876,1,2,0:2:0:0:
58,318,302970,5,6,3:2:0:0:
65,316,303063,1,2,0:2:0:0:
72,314,303157,1,2,0:2:0:0:
79,312,303251,1,2,0:2:0:0:
86,310,303345,1,6,3:2:0:0:
93,308,303438,1,2,0:2:0:0:
100,306,303532,1,2,0:2:0:0:
107,304,303626,1,2,0:2:0:0:
114,302,303720,1,6,3:2:0:0:
121,300,303813,1,2,0:2:0:0:
128,298,303907,1,2,0:2:0:0:
135,296,304001,1,2,0:2:0:0:
142,294,304095,1,6,3:2:0:0:
149,292,304188,1,2,0:2:0:0:
156,290,304282,1,2,0:2:0:0:
163,288,304376,1,2,0:2:0:0:
171,287,304470,1,6,3:2:0:0:
178,289,304563,1,2,0:2:0:0:
185,291,304657,1,2,0:2:0:0:
192,293,304751,1,2,0:2:0:0:
199,295,304845,1,6,3:2:0:0:
206,297,304938,1,2,0:2:0:0:
213,299,305032,1,6,0:2:0:0:
220,301,305126,1,2,0:2:0:0:
227,303,305220,1,2,3:2:0:0:
234,305,305313,1,2,0:2:0:0:
241,307,305407,1,6,0:2:0:0:
248,309,305501,1,2,0:2:0:0:
255,311,305595,1,2,3:2:0:0:
262,313,305688,1,2,0:2:0:0:
269,315,305782,1,6,0:2:0:0:
276,317,305876,1,2,0:2:0:0:
283,319,305970,5,4,3:1:0:0:
303,297,306063,1,2,0:2:0:0:
316,270,306157,1,6,0:2:0:0:
322,240,306251,1,2,0:2:0:0:
317,210,306345,1,2,3:2:0:0:
303,183,306438,1,2,0:2:0:0:
286,157,306532,1,6,0:2:0:0:
277,128,306626,1,2,0:2:0:0:
274,97,306720,1,2,3:2:0:0:
284,69,306813,1,2,0:2:0:0:
306,48,306907,1,6,0:2:0:0:
335,43,307001,1,2,0:2:0:0:
364,49,307095,1,2,3:2:0:0:
391,61,307188,1,2,0:2:0:0:
411,83,307282,1,6,0:2:0:0:
420,111,307376,1,2,0:2:0:0:
405,137,307470,5,2,3:1:0:0:
403,166,307563,1,2,0:2:0:0:
409,195,307657,1,6,0:2:0:0:
419,223,307751,1,2,0:2:0:0:
409,251,307845,5,2,3:1:0:0:
392,276,307938,1,2,0:2:0:0:
372,299,308032,1,6,0:2:0:0:
348,317,308126,1,2,0:2:0:0:
336,344,308220,5,2,3:1:0:0:
310,328,308313,1,2,0:2:0:0:
283,313,308407,1,4,0:2:0:0:
255,300,308501,1,2,0:2:0:0:
225,304,308595,5,2,3:1:0:0:
220,274,308688,1,2,0:2:0:0:
212,244,308782,1,6,0:2:0:0:
202,215,308876,1,2,0:2:0:0:
174,203,308970,5,6,3:2:0:0:
176,195,309063,1,2,0:2:0:0:
178,187,309157,1,2,0:2:0:0:
180,179,309251,1,2,0:2:0:0:
182,171,309345,1,6,3:2:0:0:
184,163,309438,1,2,0:2:0:0:
186,155,309532,1,2,0:2:0:0:
189,147,309626,1,2,0:2:0:0:
191,139,309720,1,6,3:2:0:0:
193,131,309813,1,2,0:2:0:0:
195,123,309907,1,2,0:2:0:0:
197,115,310001,1,2,0:2:0:0:
199,107,310095,1,6,3:2:0:0:
201,99,310188,1,2,0:2:0:0:
204,91,310282,1,2,0:2:0:0:
207,83,310376,1,2,0:2:0:0:
224,58,310470,5,6,3:2:0:0:
209,62,310563,1,2,0:2:0:0:
194,66,310657,1,2,0:2:0:0:
180,69,310751,1,2,0:2:0:0:
165,75,310845,1,6,3:2:0:0:
150,79,310938,1,2,0:2:0:0:
135,82,311032,1,6,0:2:0:0:
121,86,311126,1,2,0:2:0:0:
106,90,311220,1,2,3:2:0:0:
91,93,311313,1,2,0:2:0:0:
76,97,311407,1,6,0:2:0:0:
62,102,311501,1,2,0:2:0:0:
47,106,311595,1,2,3:2:0:0:
32,110,311688,1,2,0:2:0:0:
18,114,311782,1,6,0:2:0:0:
3,118,311876,1,2,0:2:0:0:
16,85,311970,5,4,3:1:0:0:
33,60,312063,1,2,0:2:0:0:
12,37,312157,2,0,L|18:86,1,40,2|2,0:3|0:2,0:0:0:0:
74,163,312345,1,2,3:2:0:0:
78,194,312438,1,2,0:2:0:0:
64,222,312532,2,0,L|70:271,1,40,2|2,0:3|0:2,0:0:0:0:
166,320,312720,1,2,3:2:0:0:
190,299,312813,1,2,0:2:0:0:
201,268,312907,1,2,0:3:0:0:
196,236,313001,1,2,0:2:0:0:
181,207,313095,1,2,3:2:0:0:
177,175,313188,1,2,0:2:0:0:
184,143,313282,1,2,0:3:0:0:
211,126,313376,1,2,0:2:0:0:
240,139,313470,6,0,L|283:157,1,40,2|2,3:1|0:2,0:0:0:0:
322,206,313657,2,0,L|379:194,1,40,2|2,0:3|0:2,0:0:0:0:
240,131,313845,2,0,L|283:149,1,40,2|2,3:1|0:2,0:0:0:0:
322,198,314032,2,0,L|379:186,1,40,2|2,0:3|0:2,0:0:0:0:
240,123,314220,2,0,L|283:141,1,40,2|2,3:1|0:2,0:0:0:0:
322,190,314407,2,0,L|379:178,1,40,2|2,0:3|0:2,0:0:0:0:
240,115,314595,2,0,L|283:133,1,40,2|2,3:1|0:2,0:0:0:0:
322,182,314782,2,0,L|379:170,1,40,2|2,0:3|0:2,0:0:0:0:
408,98,314970,5,2,3:3:0:0:
438,106,315063,1,2,0:2:0:0:
462,126,315157,1,2,0:0:0:0:
478,153,315251,1,2,0:2:0:0:
488,183,315345,1,2,3:0:0:0:
483,214,315438,1,2,0:2:0:0:
465,241,315532,1,2,0:0:0:0:
443,264,315626,1,2,0:2:0:0:
430,293,315720,1,2,3:0:0:0:
426,324,315813,1,2,0:2:0:0:
439,353,315907,1,2,0:0:0:0:
467,368,316001,1,2,0:2:0:0:
496,354,316095,1,2,3:0:0:0:
510,325,316188,1,2,0:2:0:0:
505,293,316282,1,2,0:0:0:0:
480,271,316376,1,2,0:2:0:0:
447,272,316470,1,2,3:0:0:0:
419,287,316563,1,2,0:2:0:0:
387,295,316657,1,2,0:0:0:0:
355,298,316751,1,2,0:2:0:0:
322,295,316845,1,2,3:0:0:0:
292,283,316938,1,2,0:2:0:0:
269,260,317032,1,2,0:3:0:0:
246,237,317126,1,2,0:2:0:0:
220,217,317220,1,2,3:2:0:0:
191,203,317313,1,2,0:2:0:0:
159,194,317407,1,2,0:3:0:0:
126,193,317501,1,2,0:2:0:0:
94,198,317595,1,2,3:2:0:0:
64,210,317688,1,2,0:2:0:0:
42,234,317782,1,2,0:3:0:0:
31,264,317876,1,2,0:2:0:0:
41,294,317970,6,0,L|96:286,1,40,4|2,3:1|0:2,0:0:0:0:
170,269,318157,1,2,0:3:0:0:
190,293,318251,1,2,0:2:0:0:
217,276,318345,2,0,L|272:268,1,40,2|2,3:2|0:2,0:0:0:0:
321,227,318532,1,2,0:3:0:0:
349,242,318626,1,2,0:2:0:0:
377,227,318720,1,2,3:2:0:0:
404,243,318813,1,2,0:2:0:0:
430,225,318907,2,0,L|485:217,1,40,2|2,0:3|0:2,0:0:0:0:
395,123,319095,2,0,L|403:178,1,40,2|2,3:2|0:2,0:0:0:0:
295,168,319282,2,0,L|350:160,1,40,2|2,0:3|0:2,0:0:0:0:
468,108,319470,5,2,3:1:0:0:
479,78,319563,1,2,0:2:0:0:
478,45,319657,1,2,0:3:0:0:
454,22,319751,1,2,0:2:0:0:
422,18,319845,2,0,L|382:23,1,40,2|2,3:1|0:2,0:0:0:0:
333,69,320032,2,0,L|293:74,1,40,2|2,0:3|0:2,0:0:0:0:
229,50,320220,2,0,L|189:55,1,40,2|2,3:1|0:2,0:0:0:0:
140,101,320407,2,0,L|100:106,1,40,2|2,0:3|0:2,0:0:0:0:
13,64,320595,2,0,L|53:59,1,40,2|2,3:1|0:2,0:0:0:0:
101,12,320782,2,0,L|141:7,1,40,2|2,0:3|0:2,0:0:0:0:
266,122,320970,5,2,3:0:0:0:
278,151,321063,1,2,0:2:0:0:
278,183,321157,1,2,0:2:0:0:
274,214,321251,1,2,0:2:0:0:
262,243,321345,1,2,3:3:0:0:
251,272,321438,1,2,0:2:0:0:
245,303,321532,1,2,0:2:0:0:
250,334,321626,1,2,0:2:0:0:
267,360,321720,1,2,3:3:0:0:
297,369,321813,1,2,0:2:0:0:
327,358,321907,1,2,0:2:0:0:
344,331,322001,1,2,0:2:0:0:
350,299,322095,1,2,3:3:0:0:
337,269,322188,1,2,0:2:0:0:
313,246,322282,1,2,0:2:0:0:
281,238,322376,1,2,0:2:0:0:
270,207,322470,6,0,L|280:149,1,40,2|2,3:3|0:2,0:0:0:0:
341,184,322657,2,0,L|347:144,1,40,2|2,0:2|0:2,0:0:0:0:
399,229,322845,2,0,L|405:189,1,40,2|2,3:3|0:2,0:0:0:0:
344,289,323032,6,0,L|334:231,1,40,2|2,0:3|0:2,0:0:0:0:
273,266,323220,2,0,L|266:226,1,40,2|2,3:2|0:2,0:0:0:0:
215,311,323407,2,0,L|208:271,1,40,2|2,0:3|0:2,0:0:0:0:
286,374,323595,6,0,L|296:316,1,40,2|2,3:2|0:2,0:0:0:0:
357,351,323782,2,0,L|363:311,1,40,2|2,0:3|0:2,0:0:0:0:
473,254,323970,5,4,3:1:0:0:
484,224,324063,1,2,0:2:0:0:
489,192,324157,1,2,0:3:0:0:
490,159,324251,1,2,0:2:0:0:
488,126,324345,1,2,3:2:0:0:
480,95,324438,1,2,0:2:0:0:
465,66,324532,1,2,0:3:0:0:
463,33,324626,1,2,0:2:0:0:
470,1,324720,2,0,L|447:48,1,40,2|2,3:2|0:2,0:0:0:0:
381,43,324907,2,0,L|397:92,1,40,2|2,0:3|0:2,0:0:0:0:
353,140,325095,2,0,L|400:163,1,40,2|2,3:2|0:2,0:0:0:0:
377,235,325282,2,0,L|426:218,1,40,2|2,0:3|0:2,0:0:0:0:
299,199,325470,5,2,3:1:0:0:
270,186,325563,1,2,0:2:0:0:
237,185,325657,1,2,0:3:0:0:
207,198,325751,1,2,0:2:0:0:
183,220,325845,2,0,L|129:211,1,40,2|2,3:1|0:2,0:0:0:0:
72,151,326032,2,0,L|111:157,1,40,2|2,0:3|0:2,0:0:0:0:
189,229,326220,2,0,L|135:220,1,40,2|2,3:1|0:2,0:0:0:0:
65,142,326407,2,0,L|104:148,1,40,2|2,0:3|0:2,0:0:0:0:
195,238,326595,2,0,L|141:229,1,40,2|2,3:1|0:2,0:0:0:0:
58,133,326782,2,0,L|97:139,1,40,2|2,0:3|0:2,0:0:0:0:
278,82,326970,5,2,3:0:0:0:
295,108,327063,1,2,0:2:0:0:
306,138,327157,1,2,0:0:0:0:
310,169,327251,1,2,0:2:0:0:
306,200,327345,1,2,3:0:0:0:
294,229,327438,1,2,0:2:0:0:
275,255,327532,1,2,0:0:0:0:
249,274,327626,1,2,0:2:0:0:
217,282,327720,1,2,3:0:0:0:
186,273,327813,1,2,0:2:0:0:
160,253,327907,1,2,0:0:0:0:
130,239,328001,1,2,0:2:0:0:
98,234,328095,1,2,3:0:0:0:
67,241,328188,1,2,0:2:0:0:
44,263,328282,1,2,0:0:0:0:
35,293,328376,1,2,0:2:0:0:
47,322,328470,5,2,3:0:0:0:
58,323,328563,1,2,0:2:0:0:
69,324,328657,1,2,0:0:0:0:
80,325,328751,1,2,0:2:0:0:
91,326,328845,1,2,3:0:0:0:
102,327,328938,1,2,0:2:0:0:
113,328,329032,1,2,0:3:0:0:
124,329,329126,1,2,0:2:0:0:
135,330,329220,1,2,3:2:0:0:
146,331,329313,1,2,0:2:0:0:
157,332,329407,1,2,0:3:0:0:
168,333,329501,1,2,0:2:0:0:
179,334,329595,1,2,3:2:0:0:
190,335,329688,1,2,0:2:0:0:
201,336,329782,1,2,0:3:0:0:
212,337,329876,1,2,0:2:0:0:
223,338,329970,6,0,L|267:359,1,40,4|2,3:1|0:2,0:0:0:0:
313,249,330157,2,0,L|272:276,1,40,2|2,0:3|0:2,0:0:0:0:
345,371,330345,2,0,L|341:322,1,40,2|2,3:2|0:2,0:0:0:0:
421,264,330532,1,2,0:3:0:0:
417,232,330626,1,2,0:2:0:0:
413,200,330720,1,2,3:2:0:0:
409,168,330813,1,2,0:2:0:0:
405,136,330907,2,0,L|445:108,1,40,2|2,0:3|0:2,0:0:0:0:
372,13,331095,2,0,L|375:61,1,40,2|2,3:2|0:2,0:0:0:0:
494,46,331282,2,0,L|450:25,1,40,2|2,0:3|0:2,0:0:0:0:
306,122,331470,5,2,3:1:0:0:
267,112,331563,1,2,0:2:0:0:
228,102,331657,1,2,0:3:0:0:
189,92,331751,1,2,0:2:0:0:
150,80,331845,2,0,L|111:100,1,40,2|2,3:1|0:2,0:0:0:0:
46,98,332032,2,0,L|43:141,1,40,2|2,0:3|0:2,0:0:0:0:
187,261,332220,2,0,L|189:217,1,40,2|2,3:1|0:2,0:0:0:0:
223,161,332407,2,0,L|186:137,1,40,2|2,0:3|0:2,0:0:0:0:
11,206,332595,2,0,L|47:229,1,40,2|2,3:1|0:2,0:0:0:0:
79,287,332782,2,0,L|118:267,1,40,2|2,0:3|0:2,0:0:0:0:
295,228,332970,5,2,3:0:0:0:
310,231,333063,1,2,0:2:0:0:
325,235,333157,1,2,0:0:0:0:
340,239,333251,1,2,0:2:0:0:
355,243,333345,1,2,3:0:0:0:
370,246,333438,1,2,0:2:0:0:
385,250,333532,1,2,0:0:0:0:
400,254,333626,1,2,0:2:0:0:
415,258,333720,1,2,3:0:0:0:
435,287,333813,1,2,0:2:0:0:
435,323,333907,1,2,0:0:0:0:
415,353,334001,1,2,0:2:0:0:
379,358,334095,1,2,3:0:0:0:
346,344,334188,1,2,0:2:0:0:
310,347,334282,1,2,0:0:0:0:
283,371,334376,1,2,0:2:0:0:
256,192,334470,12,0,335970,0:0:0:0:
