osu file format v14

[General]
AudioFilename: audio.mp3
AudioLeadIn: 0
PreviewTime: 21175
Countdown: 0
SampleSet: Normal
StackLeniency: 0.2
Mode: 1
LetterboxInBreaks: 0
WidescreenStoryboard: 0

[Editor]
Bookmarks: 10852,21175,62465,103755,124400,165691,206981,227626
DistanceSpacing: 0.3
BeatDivisor: 4
GridSize: 32
TimelineZoom: 2.6696

[Metadata]
Title:Yandere Complex
TitleUnicode:Yandere Complex
Artist:Sewerslvt
ArtistUnicode:Sewerslvt
Creator:Genjuro
Version:Kantan
Source:
Tags:electronic instrumental atmospheric drum and bass jungle breakcore dnb & draining love story sewerslut
BeatmapID:2658121
BeatmapSetID:1276466

[Difficulty]
HPDrainRate:7
CircleSize:2
OverallDifficulty:3
ApproachRate:10
SliderMultiplier:1.4
SliderTickRate:1

[Events]
//Background and Video events
0,0,"bg.jpg",0,-35
//Break Periods
//Storyboard Layer 0 (Background)
//Storyboard Layer 1 (Fail)
//Storyboard Layer 2 (Pass)
//Storyboard Layer 3 (Foreground)
//Storyboard Layer 4 (Overlay)
//Storyboard Sound Samples

[TimingPoints]
530,322.58064516129,4,1,0,25,1,0
12102,-100,4,1,0,30,0,0
13392,-100,4,1,0,36,0,0
14683,-100,4,1,0,40,0,0
15328,-100,4,1,0,45,0,0
15973,-100,4,1,0,50,0,0
17263,-100,4,1,0,58,0,0
18554,-100,4,1,0,67,0,0
19844,-100,4,1,0,76,0,0
20489,-100,4,1,0,80,0,0
21134,-100,4,1,0,100,0,0
103716,-100,4,1,0,65,0,0
124360,-100,4,1,0,100,0,0
165691,-100,4,1,0,100,0,1
205691,-100,4,1,0,100,0,0
206941,-100,4,1,0,65,0,0

[HitObjects]
256,192,10852,5,0,0:0:0:0:
256,192,12142,1,0,0:0:0:0:
256,192,13433,1,0,0:0:0:0:
256,192,14723,1,0,0:0:0:0:
256,192,15368,1,0,0:0:0:0:
256,192,16013,1,0,0:0:0:0:
256,192,17304,1,0,0:0:0:0:
256,192,18594,1,0,0:0:0:0:
256,192,19884,1,0,0:0:0:0:
256,192,20529,1,0,0:0:0:0:
256,192,21175,1,4,0:0:0:0:
256,192,22465,1,8,0:0:0:0:
256,192,23110,1,8,0:0:0:0:
256,192,23755,1,0,0:0:0:0:
256,192,24400,1,8,0:0:0:0:
256,192,24723,1,0,0:0:0:0:
256,192,25046,1,8,0:0:0:0:
256,192,26336,1,0,0:0:0:0:
256,192,27626,1,8,0:0:0:0:
256,192,28271,1,0,0:0:0:0:
256,192,28917,1,8,0:0:0:0:
256,192,29562,1,0,0:0:0:0:
256,192,29884,1,0,0:0:0:0:
256,192,30207,1,8,0:0:0:0:
256,192,31497,1,0,0:0:0:0:
256,192,32788,1,8,0:0:0:0:
256,192,33433,1,8,0:0:0:0:
256,192,34078,1,0,0:0:0:0:
256,192,34723,1,8,0:0:0:0:
256,192,35046,1,0,0:0:0:0:
256,192,35368,1,8,0:0:0:0:
256,192,36659,1,0,0:0:0:0:
256,192,37949,1,8,0:0:0:0:
256,192,38594,1,0,0:0:0:0:
256,192,39239,1,8,0:0:0:0:
256,192,39884,1,0,0:0:0:0:
256,192,40207,1,0,0:0:0:0:
256,192,40529,1,8,0:0:0:0:
256,192,41820,1,0,0:0:0:0:
256,192,43110,1,8,0:0:0:0:
256,192,44400,1,8,0:0:0:0:
256,192,45046,1,0,0:0:0:0:
256,192,45691,1,8,0:0:0:0:
256,192,46981,1,0,0:0:0:0:
256,192,48271,1,8,0:0:0:0:
256,192,49562,1,0,0:0:0:0:
256,192,50207,1,0,0:0:0:0:
256,192,50852,1,8,0:0:0:0:
256,192,52142,1,0,0:0:0:0:
256,192,53433,1,8,0:0:0:0:
256,192,54723,1,8,0:0:0:0:
256,192,55368,1,0,0:0:0:0:
256,192,56013,1,8,0:0:0:0:
256,192,57304,1,0,0:0:0:0:
256,192,58594,1,8,0:0:0:0:
256,192,59884,1,0,0:0:0:0:
256,192,60529,1,0,0:0:0:0:
256,192,61175,1,8,0:0:0:0:
256,192,62465,1,4,0:0:0:0:
256,192,63110,1,8,0:0:0:0:
256,192,63755,1,0,0:0:0:0:
256,192,64078,1,0,0:0:0:0:
256,192,64400,1,0,0:0:0:0:
256,192,65046,1,8,0:0:0:0:
256,192,65691,1,8,0:0:0:0:
256,192,66336,1,0,0:0:0:0:
256,192,67626,1,0,0:0:0:0:
256,192,68271,1,8,0:0:0:0:
256,192,68917,1,8,0:0:0:0:
256,192,69239,1,8,0:0:0:0:
256,192,69562,1,0,0:0:0:0:
256,192,70207,1,8,0:0:0:0:
256,192,70852,1,8,0:0:0:0:
256,192,71497,1,0,0:0:0:0:
256,192,72788,1,0,0:0:0:0:
256,192,73433,1,8,0:0:0:0:
256,192,74078,1,0,0:0:0:0:
256,192,74400,1,8,0:0:0:0:
256,192,74723,1,0,0:0:0:0:
256,192,75368,1,8,0:0:0:0:
256,192,76013,1,8,0:0:0:0:
256,192,76659,1,0,0:0:0:0:
256,192,77949,1,0,0:0:0:0:
256,192,78594,1,0,0:0:0:0:
256,192,79239,1,8,0:0:0:0:
256,192,79562,1,8,0:0:0:0:
256,192,79884,1,8,0:0:0:0:
256,192,80207,1,8,0:0:0:0:
256,192,80529,1,0,0:0:0:0:
256,192,81175,1,0,0:0:0:0:
256,192,81820,1,8,0:0:0:0:
256,192,83110,1,0,0:0:0:0:
256,192,83755,1,0,0:0:0:0:
256,192,84400,1,8,0:0:0:0:
256,192,85691,1,0,0:0:0:0:
256,192,86336,1,8,0:0:0:0:
256,192,86981,1,0,0:0:0:0:
256,192,88271,1,0,0:0:0:0:
256,192,88917,1,0,0:0:0:0:
256,192,89562,1,8,0:0:0:0:
256,192,89884,1,0,0:0:0:0:
256,192,90207,1,8,0:0:0:0:
256,192,90852,1,8,0:0:0:0:
256,192,91497,1,8,0:0:0:0:
256,192,92142,1,0,0:0:0:0:
256,192,93433,1,0,0:0:0:0:
256,192,94078,1,8,0:0:0:0:
256,192,94723,1,0,0:0:0:0:
256,192,95368,1,8,0:0:0:0:
256,192,96013,1,0,0:0:0:0:
256,192,96336,1,8,0:0:0:0:
256,192,96659,1,0,0:0:0:0:
256,192,97304,1,8,0:0:0:0:
256,192,98594,1,0,0:0:0:0:
256,192,99239,1,0,0:0:0:0:
256,192,99884,1,8,0:0:0:0:
256,192,101175,1,8,0:0:0:0:
256,192,101820,1,8,0:0:0:0:
256,192,102465,1,0,0:0:0:0:
256,192,103755,1,0,0:0:0:0:
256,192,104723,1,8,0:0:0:0:
256,192,106336,1,0,0:0:0:0:
256,192,107304,1,8,0:0:0:0:
256,192,108271,1,8,0:0:0:0:
256,192,108917,1,0,0:0:0:0:
256,192,109884,1,8,0:0:0:0:
256,192,111497,1,0,0:0:0:0:
256,192,112465,1,8,0:0:0:0:
256,192,113433,1,8,0:0:0:0:
256,192,114078,1,0,0:0:0:0:
256,192,115046,1,8,0:0:0:0:
256,192,116659,1,0,0:0:0:0:
256,192,117626,1,8,0:0:0:0:
256,192,118594,1,8,0:0:0:0:
256,192,119239,1,0,0:0:0:0:
256,192,120207,1,8,0:0:0:0:
256,192,121820,1,0,0:0:0:0:
256,192,122788,1,8,0:0:0:0:
256,192,123755,1,0,0:0:0:0:
256,192,124400,1,4,0:0:0:0:
256,192,125691,1,8,0:0:0:0:
256,192,126336,1,8,0:0:0:0:
256,192,126981,1,0,0:0:0:0:
256,192,127626,1,8,0:0:0:0:
256,192,127949,1,0,0:0:0:0:
256,192,128271,1,8,0:0:0:0:
256,192,129562,1,0,0:0:0:0:
256,192,130852,1,8,0:0:0:0:
256,192,131497,1,0,0:0:0:0:
256,192,132142,1,8,0:0:0:0:
256,192,132788,1,0,0:0:0:0:
256,192,133110,1,0,0:0:0:0:
256,192,133433,1,8,0:0:0:0:
256,192,134723,1,0,0:0:0:0:
256,192,136013,1,8,0:0:0:0:
256,192,136659,1,8,0:0:0:0:
256,192,137304,1,0,0:0:0:0:
256,192,137949,1,8,0:0:0:0:
256,192,138271,1,0,0:0:0:0:
256,192,138594,1,8,0:0:0:0:
256,192,139884,1,0,0:0:0:0:
256,192,141175,1,8,0:0:0:0:
256,192,141820,1,0,0:0:0:0:
256,192,142465,1,8,0:0:0:0:
256,192,143110,1,0,0:0:0:0:
256,192,143433,1,0,0:0:0:0:
256,192,143755,1,8,0:0:0:0:
256,192,145046,1,0,0:0:0:0:
256,192,146336,1,8,0:0:0:0:
256,192,147626,1,8,0:0:0:0:
256,192,148271,1,0,0:0:0:0:
256,192,148917,1,8,0:0:0:0:
256,192,150207,1,0,0:0:0:0:
256,192,151497,1,8,0:0:0:0:
256,192,152788,1,0,0:0:0:0:
256,192,153433,1,0,0:0:0:0:
256,192,154078,1,8,0:0:0:0:
256,192,155368,1,0,0:0:0:0:
256,192,156659,1,8,0:0:0:0:
256,192,157949,1,8,0:0:0:0:
256,192,158594,1,0,0:0:0:0:
256,192,159239,1,8,0:0:0:0:
256,192,160529,1,0,0:0:0:0:
256,192,161820,1,8,0:0:0:0:
256,192,163110,1,0,0:0:0:0:
256,192,163755,1,0,0:0:0:0:
256,192,164400,1,8,0:0:0:0:
256,192,165691,1,4,0:0:0:0:
256,192,166336,1,8,0:0:0:0:
256,192,166659,1,8,0:0:0:0:
256,192,166981,1,0,0:0:0:0:
256,192,167626,1,8,0:0:0:0:
256,192,168271,1,0,0:0:0:0:
256,192,168917,1,0,0:0:0:0:
256,192,169562,1,8,0:0:0:0:
256,192,170852,1,8,0:0:0:0:
256,192,171497,1,0,0:0:0:0:
256,192,171820,1,0,0:0:0:0:
256,192,172142,1,8,0:0:0:0:
256,192,172788,1,0,0:0:0:0:
256,192,173433,1,8,0:0:0:0:
256,192,174078,1,8,0:0:0:0:
256,192,174723,1,0,0:0:0:0:
256,192,176013,1,0,0:0:0:0:
256,192,176659,1,8,0:0:0:0:
256,192,177304,1,0,0:0:0:0:
256,192,177626,1,8,0:0:0:0:
256,192,177949,1,0,0:0:0:0:
256,192,178594,1,8,0:0:0:0:
256,192,179239,1,8,0:0:0:0:
256,192,179884,1,0,0:0:0:0:
256,192,181175,1,8,0:0:0:0:
256,192,181820,1,0,0:0:0:0:
256,192,182465,1,8,0:0:0:0:
256,192,182788,1,0,0:0:0:0:
256,192,183110,1,8,0:0:0:0:
256,192,183755,1,0,0:0:0:0:
256,192,184400,1,0,0:0:0:0:
256,192,185046,1,8,0:0:0:0:
256,192,186336,1,0,0:0:0:0:
256,192,186981,1,8,0:0:0:0:
256,192,187304,1,8,0:0:0:0:
256,192,187626,1,0,0:0:0:0:
256,192,188271,1,8,0:0:0:0:
256,192,188917,1,0,0:0:0:0:
256,192,189239,1,0,0:0:0:0:
256,192,189562,1,0,0:0:0:0:
256,192,190207,1,8,0:0:0:0:
256,192,191497,1,8,0:0:0:0:
256,192,192142,1,0,0:0:0:0:
256,192,192465,1,0,0:0:0:0:
256,192,192788,1,8,0:0:0:0:
256,192,193433,1,0,0:0:0:0:
256,192,194078,1,8,0:0:0:0:
256,192,194400,1,8,0:0:0:0:
256,192,194723,1,8,0:0:0:0:
256,192,195368,1,0,0:0:0:0:
256,192,196659,1,0,0:0:0:0:
256,192,197304,1,8,0:0:0:0:
256,192,197949,1,0,0:0:0:0:
256,192,198271,1,8,0:0:0:0:
256,192,198594,1,0,0:0:0:0:
256,192,198917,1,0,0:0:0:0:
256,192,199239,1,8,0:0:0:0:
256,192,199884,1,8,0:0:0:0:
256,192,200529,1,0,0:0:0:0:
256,192,201820,1,8,0:0:0:0:
256,192,202465,1,0,0:0:0:0:
256,192,203110,1,8,0:0:0:0:
256,192,203433,1,0,0:0:0:0:
256,192,203755,1,8,0:0:0:0:
256,192,204078,1,8,0:0:0:0:
256,192,204400,1,0,0:0:0:0:
256,192,205046,1,0,0:0:0:0:
256,192,205691,1,8,0:0:0:0:
256,192,206981,1,0,0:0:0:0:
256,192,207949,1,8,0:0:0:0:
256,192,209562,1,0,0:0:0:0:
256,192,210529,1,8,0:0:0:0:
256,192,211497,1,8,0:0:0:0:
256,192,212142,1,0,0:0:0:0:
256,192,213110,1,8,0:0:0:0:
256,192,214723,1,0,0:0:0:0:
256,192,215691,1,8,0:0:0:0:
256,192,216659,1,8,0:0:0:0:
256,192,217304,1,0,0:0:0:0:
256,192,218271,1,8,0:0:0:0:
256,192,219884,1,0,0:0:0:0:
256,192,220852,1,8,0:0:0:0:
256,192,221820,1,8,0:0:0:0:
256,192,222465,1,0,0:0:0:0:
256,192,223433,1,8,0:0:0:0:
256,192,225046,1,0,0:0:0:0:
256,192,226013,1,8,0:0:0:0:
256,192,226981,1,8,0:0:0:0:
