osu file format v14

[General]
AudioFilename: audio.mp3
AudioLeadIn: 0
PreviewTime: 21175
Countdown: 0
SampleSet: Normal
StackLeniency: 0.2
Mode: 1
LetterboxInBreaks: 0
WidescreenStoryboard: 0

[Editor]
Bookmarks: 10852,21175,62465,103755,124400,165691,206981,227626
DistanceSpacing: 0.3
BeatDivisor: 4
GridSize: 32
TimelineZoom: 2.2696

[Metadata]
Title:Yandere Complex
TitleUnicode:Yandere Complex
Artist:Sewerslvt
ArtistUnicode:Sewerslvt
Creator:Genjuro
Version:Inner Oni
Source:
Tags:electronic instrumental atmospheric drum and bass jungle breakcore dnb & draining love story sewerslut
BeatmapID:2652022
BeatmapSetID:1276466

[Difficulty]
HPDrainRate:6
CircleSize:2
OverallDifficulty:6
ApproachRate:10
SliderMultiplier:1.4
SliderTickRate:1

[Events]
//Background and Video events
0,0,"bg.jpg",0,-35
//Break Periods
//Storyboard Layer 0 (Background)
//Storyboard Layer 1 (Fail)
//Storyboard Layer 2 (Pass)
//Storyboard Layer 3 (Foreground)
//Storyboard Layer 4 (Overlay)
//Storyboard Sound Samples

[TimingPoints]
530,322.58064516129,4,1,0,25,1,0
530,-200,4,1,0,25,0,0
11136,-194.782554495289,4,1,0,25,0,0
11297,-192.274783738937,4,1,0,26,0,0
11620,-187.447748939983,4,1,0,27,0,0
12103,-180.645301144749,4,1,0,29,0,0
12265,-178.486010266515,4,1,0,30,0,0
12426,-176.378041639328,4,1,0,31,0,0
12587,-174.318979327512,4,1,0,32,0,0
12910,-170.342080966998,4,1,0,33,0,0
13394,-164.705843598625,4,1,0,34,0,0
13716,-161.151004937667,4,1,0,36,0,0
13878,-159.430641293812,4,1,0,37,0,0
14200,-156.09756097561,4,1,0,38,0,0
14684,-151.351416800613,4,1,0,39,0,0
14845,-149.832711777301,4,1,0,40,0,0
15007,-148.344402298151,4,1,0,41,0,0
15168,-146.885153436231,4,1,0,43,0,0
15329,-145.454545454545,4,1,0,44,0,0
15490,-144.051535877476,4,1,0,45,0,0
15652,-142.675130155387,4,1,0,46,0,0
15813,-141.324978200622,4,1,0,47,0,0
15974,-139.999944000022,4,1,0,49,0,0
16297,-137.423231947054,4,1,0,50,0,0
16458,-136.170212765957,4,1,0,51,0,0
16781,-133.731317734912,4,1,0,52,0,0
16942,-132.544428892565,4,1,0,53,0,0
17023,-131.958849952231,4,1,0,54,0,0
17103,-131.378249805232,4,1,0,56,0,0
17265,-130.232582368853,4,1,0,57,0,0
17426,-129.106556805594,4,1,0,58,0,0
17587,-128,4,1,0,59,0,0
17749,-126.912250331876,4,1,0,60,0,0
18071,-124.791130844749,4,1,0,61,0,0
18232,-123.756862318016,4,1,0,63,0,0
18313,-123.246206481764,4,1,0,64,0,0
18394,-122.739747548887,4,1,0,65,0,0
18474,-122.237433991786,4,1,0,66,0,0
18555,-121.739066918748,4,1,0,67,0,0
18878,-119.786157751183,4,1,0,69,0,0
19039,-118.832871073465,4,1,0,70,0,0
19361,-116.971240281152,4,1,0,71,0,0
19523,-116.062195409276,4,1,0,72,0,0
19603,-115.612950962767,4,1,0,73,0,0
19684,-115.16703827231,4,1,0,74,0,0
19845,-114.285714285714,4,1,0,76,0,0
20007,-112.290914317541,4,1,0,77,0,0
20168,-110.364556202047,4,1,0,78,0,0
20329,-108.503176973022,4,1,0,79,0,0
20490,-106.70354341127,4,1,0,80,0,0
20652,-104.962633302544,4,1,0,81,0,0
20813,-103.277618500739,4,1,0,83,0,0
20974,-101.645849596669,4,1,0,84,0,0
21136,-100,4,1,0,100,0,0
103716,-100,4,1,0,65,0,0
104039,-103.217176163851,4,1,0,65,0,0
104361,-106.648237851166,4,1,0,65,0,0
104684,-110.315126189473,4,1,0,65,0,0
105007,-114.243281067032,4,1,0,65,0,0
105168,-116.314234536023,4,1,0,65,0,0
105652,-123.003196853086,4,1,0,65,0,0
106297,-133.218055309472,4,1,0,65,0,0
124360,-100,4,1,0,100,0,0
165691,-100,4,1,0,100,0,1
205691,-100,4,1,0,100,0,0
206941,-100,4,1,0,65,0,0
207264,-103.217176163851,4,1,0,65,0,0
207586,-106.648237851166,4,1,0,65,0,0
207909,-110.315126189473,4,1,0,65,0,0
208232,-114.243281067032,4,1,0,65,0,0
208393,-116.314234536023,4,1,0,65,0,0
208877,-123.003196853086,4,1,0,65,0,0
209522,-133.218055309472,4,1,0,65,0,0

[HitObjects]
256,192,10852,1,0,0:0:0:0:
256,192,11175,1,8,0:0:0:0:
256,192,11336,1,0,0:0:0:0:
256,192,11659,1,8,0:0:0:0:
256,192,12142,1,0,0:0:0:0:
256,192,12304,1,0,0:0:0:0:
256,192,12465,1,8,0:0:0:0:
256,192,12626,1,0,0:0:0:0:
256,192,12949,1,8,0:0:0:0:
256,192,13433,1,0,0:0:0:0:
256,192,13755,1,8,0:0:0:0:
256,192,13917,1,0,0:0:0:0:
256,192,14239,1,8,0:0:0:0:
256,192,14723,1,0,0:0:0:0:
256,192,14884,1,0,0:0:0:0:
256,192,15046,1,8,0:0:0:0:
256,192,15207,1,0,0:0:0:0:
256,192,15368,1,8,0:0:0:0:
256,192,15529,1,0,0:0:0:0:
256,192,15691,1,0,0:0:0:0:
256,192,15852,1,8,0:0:0:0:
256,192,16013,1,0,0:0:0:0:
256,192,16336,1,8,0:0:0:0:
256,192,16497,1,0,0:0:0:0:
256,192,16820,1,8,0:0:0:0:
256,192,16981,1,0,0:0:0:0:
256,192,17062,1,0,0:0:0:0:
256,192,17142,1,8,0:0:0:0:
256,192,17304,1,0,0:0:0:0:
256,192,17465,1,0,0:0:0:0:
256,192,17626,1,8,0:0:0:0:
256,192,17788,1,0,0:0:0:0:
256,192,18110,1,8,0:0:0:0:
256,192,18271,1,0,0:0:0:0:
256,192,18352,1,0,0:0:0:0:
256,192,18433,1,8,0:0:0:0:
256,192,18513,1,8,0:0:0:0:
256,192,18594,1,0,0:0:0:0:
256,192,18917,1,8,0:0:0:0:
256,192,19078,1,0,0:0:0:0:
256,192,19400,1,8,0:0:0:0:
256,192,19562,1,0,0:0:0:0:
256,192,19642,1,0,0:0:0:0:
256,192,19723,1,8,0:0:0:0:
256,192,19884,1,0,0:0:0:0:
256,192,20046,1,0,0:0:0:0:
256,192,20207,1,8,0:0:0:0:
256,192,20368,1,0,0:0:0:0:
256,192,20529,1,8,0:0:0:0:
256,192,20691,1,0,0:0:0:0:
256,192,20852,1,0,0:0:0:0:
256,192,21013,1,8,0:0:0:0:
256,192,21175,1,4,0:0:0:0:
256,192,21497,1,8,0:0:0:0:
256,192,21659,1,0,0:0:0:0:
256,192,21739,1,0,0:0:0:0:
256,192,21820,1,0,0:0:0:0:
256,192,21981,1,8,0:0:0:0:
256,192,22142,1,0,0:0:0:0:
256,192,22223,1,0,0:0:0:0:
256,192,22304,1,8,0:0:0:0:
256,192,22384,1,0,0:0:0:0:
256,192,22465,1,0,0:0:0:0:
256,192,22626,1,0,0:0:0:0:
256,192,22788,1,8,0:0:0:0:
256,192,22949,1,0,0:0:0:0:
256,192,23029,1,8,0:0:0:0:
256,192,23110,1,0,0:0:0:0:
256,192,23271,1,8,0:0:0:0:
256,192,23433,1,0,0:0:0:0:
256,192,23513,1,8,0:0:0:0:
256,192,23675,1,8,0:0:0:0:
256,192,23755,1,0,0:0:0:0:
256,192,23917,1,0,0:0:0:0:
256,192,24078,1,8,0:0:0:0:
256,192,24239,1,0,0:0:0:0:
256,192,24320,1,0,0:0:0:0:
256,192,24400,1,0,0:0:0:0:
256,192,24562,1,8,0:0:0:0:
256,192,24723,1,0,0:0:0:0:
256,192,24804,1,8,0:0:0:0:
256,192,24884,1,8,0:0:0:0:
256,192,24965,1,8,0:0:0:0:
256,192,25046,1,0,0:0:0:0:
256,192,25207,1,8,0:0:0:0:
256,192,25368,1,8,0:0:0:0:
256,192,25529,1,8,0:0:0:0:
256,192,25691,1,0,0:0:0:0:
256,192,25852,1,8,0:0:0:0:
256,192,25933,1,8,0:0:0:0:
256,192,26094,1,0,0:0:0:0:
256,192,26175,1,8,0:0:0:0:
256,192,26255,1,8,0:0:0:0:
256,192,26336,1,0,0:0:0:0:
256,192,26497,1,0,0:0:0:0:
256,192,26659,1,8,0:0:0:0:
256,192,26820,1,0,0:0:0:0:
256,192,26900,1,0,0:0:0:0:
256,192,26981,1,0,0:0:0:0:
256,192,27142,1,8,0:0:0:0:
256,192,27304,1,0,0:0:0:0:
256,192,27384,1,0,0:0:0:0:
256,192,27465,1,8,0:0:0:0:
256,192,27546,1,8,0:0:0:0:
256,192,27626,1,0,0:0:0:0:
256,192,27788,1,0,0:0:0:0:
256,192,27949,1,8,0:0:0:0:
256,192,28110,1,0,0:0:0:0:
256,192,28191,1,8,0:0:0:0:
256,192,28271,1,0,0:0:0:0:
256,192,28433,1,8,0:0:0:0:
256,192,28594,1,0,0:0:0:0:
256,192,28675,1,8,0:0:0:0:
256,192,28836,1,8,0:0:0:0:
256,192,28917,1,0,0:0:0:0:
256,192,29078,1,0,0:0:0:0:
256,192,29239,1,8,0:0:0:0:
256,192,29400,1,0,0:0:0:0:
256,192,29481,1,0,0:0:0:0:
256,192,29562,1,0,0:0:0:0:
256,192,29723,1,8,0:0:0:0:
256,192,29884,1,0,0:0:0:0:
256,192,29965,1,8,0:0:0:0:
256,192,30046,1,8,0:0:0:0:
256,192,30126,1,8,0:0:0:0:
256,192,30207,1,0,0:0:0:0:
256,192,30368,1,8,0:0:0:0:
256,192,30529,1,8,0:0:0:0:
256,192,30691,1,8,0:0:0:0:
256,192,30852,1,0,0:0:0:0:
256,192,31013,1,8,0:0:0:0:
256,192,31094,1,8,0:0:0:0:
256,192,31175,1,0,0:0:0:0:
256,192,31255,1,8,0:0:0:0:
256,192,31336,1,8,0:0:0:0:
256,192,31417,1,8,0:0:0:0:
256,192,31497,1,0,0:0:0:0:
256,192,31820,1,8,0:0:0:0:
256,192,31981,1,0,0:0:0:0:
256,192,32062,1,0,0:0:0:0:
256,192,32142,1,0,0:0:0:0:
256,192,32304,1,8,0:0:0:0:
256,192,32465,1,0,0:0:0:0:
256,192,32546,1,8,0:0:0:0:
256,192,32626,1,0,0:0:0:0:
256,192,32707,1,0,0:0:0:0:
256,192,32788,1,0,0:0:0:0:
256,192,32949,1,0,0:0:0:0:
256,192,33110,1,8,0:0:0:0:
256,192,33271,1,0,0:0:0:0:
256,192,33352,1,8,0:0:0:0:
256,192,33433,1,0,0:0:0:0:
256,192,33594,1,8,0:0:0:0:
256,192,33755,1,0,0:0:0:0:
256,192,33836,1,8,0:0:0:0:
256,192,33997,1,8,0:0:0:0:
256,192,34078,1,0,0:0:0:0:
256,192,34239,1,0,0:0:0:0:
256,192,34400,1,8,0:0:0:0:
256,192,34562,1,0,0:0:0:0:
256,192,34642,1,0,0:0:0:0:
256,192,34723,1,0,0:0:0:0:
256,192,34884,1,8,0:0:0:0:
256,192,35046,1,0,0:0:0:0:
256,192,35126,1,8,0:0:0:0:
256,192,35207,1,8,0:0:0:0:
256,192,35288,1,8,0:0:0:0:
256,192,35368,1,0,0:0:0:0:
256,192,35529,1,8,0:0:0:0:
256,192,35691,1,8,0:0:0:0:
256,192,35852,1,8,0:0:0:0:
256,192,36013,1,0,0:0:0:0:
256,192,36175,1,8,0:0:0:0:
256,192,36255,1,8,0:0:0:0:
256,192,36417,1,0,0:0:0:0:
256,192,36497,1,8,0:0:0:0:
256,192,36578,1,8,0:0:0:0:
256,192,36659,1,0,0:0:0:0:
256,192,36820,1,0,0:0:0:0:
256,192,36981,1,8,0:0:0:0:
256,192,37142,1,0,0:0:0:0:
256,192,37223,1,0,0:0:0:0:
256,192,37304,1,0,0:0:0:0:
256,192,37465,1,8,0:0:0:0:
256,192,37626,1,0,0:0:0:0:
256,192,37707,1,8,0:0:0:0:
256,192,37788,1,8,0:0:0:0:
256,192,37868,1,0,0:0:0:0:
256,192,37949,1,0,0:0:0:0:
256,192,38110,1,0,0:0:0:0:
256,192,38271,1,8,0:0:0:0:
256,192,38433,1,0,0:0:0:0:
256,192,38513,1,8,0:0:0:0:
256,192,38594,1,0,0:0:0:0:
256,192,38755,1,8,0:0:0:0:
256,192,38917,1,0,0:0:0:0:
256,192,38997,1,8,0:0:0:0:
256,192,39159,1,8,0:0:0:0:
256,192,39239,1,0,0:0:0:0:
256,192,39400,1,0,0:0:0:0:
256,192,39562,1,8,0:0:0:0:
256,192,39723,1,0,0:0:0:0:
256,192,39804,1,8,0:0:0:0:
256,192,39884,1,0,0:0:0:0:
256,192,40046,1,8,0:0:0:0:
256,192,40207,1,0,0:0:0:0:
256,192,40288,1,8,0:0:0:0:
256,192,40368,1,8,0:0:0:0:
256,192,40449,1,8,0:0:0:0:
256,192,40529,1,0,0:0:0:0:
256,192,40691,1,8,0:0:0:0:
256,192,40852,1,8,0:0:0:0:
256,192,41013,1,8,0:0:0:0:
256,192,41175,1,0,0:0:0:0:
256,192,41336,1,8,0:0:0:0:
256,192,41417,1,8,0:0:0:0:
256,192,41497,1,0,0:0:0:0:
256,192,41578,1,8,0:0:0:0:
256,192,41659,1,8,0:0:0:0:
256,192,41739,1,8,0:0:0:0:
256,192,41820,1,0,0:0:0:0:
256,192,42142,1,8,0:0:0:0:
256,192,42304,1,0,0:0:0:0:
256,192,42626,1,8,0:0:0:0:
256,192,42788,1,0,0:0:0:0:
256,192,42868,1,0,0:0:0:0:
256,192,42949,1,8,0:0:0:0:
256,192,43110,1,0,0:0:0:0:
256,192,43433,1,8,0:0:0:0:
256,192,43594,1,0,0:0:0:0:
256,192,43917,1,8,0:0:0:0:
256,192,44078,1,0,0:0:0:0:
256,192,44159,1,0,0:0:0:0:
256,192,44239,1,8,0:0:0:0:
256,192,44320,1,8,0:0:0:0:
256,192,44400,1,0,0:0:0:0:
256,192,44723,1,8,0:0:0:0:
256,192,44884,1,0,0:0:0:0:
256,192,45207,1,8,0:0:0:0:
256,192,45368,1,0,0:0:0:0:
256,192,45449,1,0,0:0:0:0:
256,192,45529,1,8,0:0:0:0:
256,192,45691,1,0,0:0:0:0:
256,192,45852,1,8,0:0:0:0:
256,192,46013,1,8,0:0:0:0:
256,192,46175,1,8,0:0:0:0:
256,192,46336,1,0,0:0:0:0:
256,192,46497,1,8,0:0:0:0:
256,192,46578,1,8,0:0:0:0:
256,192,46739,1,0,0:0:0:0:
256,192,46820,1,8,0:0:0:0:
256,192,46900,1,8,0:0:0:0:
256,192,46981,1,0,0:0:0:0:
256,192,47304,1,8,0:0:0:0:
256,192,47465,1,0,0:0:0:0:
256,192,47788,1,8,0:0:0:0:
256,192,47949,1,0,0:0:0:0:
256,192,48029,1,0,0:0:0:0:
256,192,48110,1,8,0:0:0:0:
256,192,48271,1,0,0:0:0:0:
256,192,48594,1,8,0:0:0:0:
256,192,48755,1,0,0:0:0:0:
256,192,49078,1,8,0:0:0:0:
256,192,49239,1,0,0:0:0:0:
256,192,49320,1,8,0:0:0:0:
256,192,49400,1,8,0:0:0:0:
256,192,49481,1,8,0:0:0:0:
256,192,49562,1,0,0:0:0:0:
256,192,49884,1,8,0:0:0:0:
256,192,50046,1,0,0:0:0:0:
256,192,50368,1,8,0:0:0:0:
256,192,50529,1,0,0:0:0:0:
256,192,50610,1,0,0:0:0:0:
256,192,50691,1,8,0:0:0:0:
256,192,50852,1,0,0:0:0:0:
256,192,51013,1,8,0:0:0:0:
256,192,51175,1,8,0:0:0:0:
256,192,51336,1,8,0:0:0:0:
256,192,51497,1,0,0:0:0:0:
256,192,51659,1,8,0:0:0:0:
256,192,51739,1,8,0:0:0:0:
256,192,51820,1,0,0:0:0:0:
256,192,51900,1,8,0:0:0:0:
256,192,51981,1,8,0:0:0:0:
256,192,52062,1,8,0:0:0:0:
256,192,52142,1,0,0:0:0:0:
256,192,52465,1,8,0:0:0:0:
256,192,52626,1,0,0:0:0:0:
256,192,52788,1,0,0:0:0:0:
256,192,52949,1,8,0:0:0:0:
256,192,53110,1,0,0:0:0:0:
256,192,53191,1,0,0:0:0:0:
256,192,53271,1,8,0:0:0:0:
256,192,53433,1,0,0:0:0:0:
256,192,53755,1,8,0:0:0:0:
256,192,53917,1,0,0:0:0:0:
256,192,53997,1,0,0:0:0:0:
256,192,54078,1,0,0:0:0:0:
256,192,54239,1,8,0:0:0:0:
256,192,54400,1,0,0:0:0:0:
256,192,54481,1,0,0:0:0:0:
256,192,54562,1,8,0:0:0:0:
256,192,54642,1,8,0:0:0:0:
256,192,54723,1,0,0:0:0:0:
256,192,55046,1,8,0:0:0:0:
256,192,55207,1,0,0:0:0:0:
256,192,55368,1,0,0:0:0:0:
256,192,55529,1,8,0:0:0:0:
256,192,55691,1,0,0:0:0:0:
256,192,55771,1,0,0:0:0:0:
256,192,55852,1,8,0:0:0:0:
256,192,56013,1,0,0:0:0:0:
256,192,56175,1,8,0:0:0:0:
256,192,56336,1,8,0:0:0:0:
256,192,56497,1,8,0:0:0:0:
256,192,56659,1,0,0:0:0:0:
256,192,56820,1,8,0:0:0:0:
256,192,56900,1,8,0:0:0:0:
256,192,57062,1,0,0:0:0:0:
256,192,57142,1,8,0:0:0:0:
256,192,57223,1,8,0:0:0:0:
256,192,57304,1,0,0:0:0:0:
256,192,57626,1,8,0:0:0:0:
256,192,57788,1,0,0:0:0:0:
256,192,57949,1,0,0:0:0:0:
256,192,58110,1,8,0:0:0:0:
256,192,58271,1,0,0:0:0:0:
256,192,58352,1,0,0:0:0:0:
256,192,58433,1,8,0:0:0:0:
256,192,58594,1,0,0:0:0:0:
256,192,58917,1,8,0:0:0:0:
256,192,59078,1,0,0:0:0:0:
256,192,59159,1,0,0:0:0:0:
256,192,59239,1,0,0:0:0:0:
256,192,59400,1,8,0:0:0:0:
256,192,59562,1,0,0:0:0:0:
256,192,59642,1,8,0:0:0:0:
256,192,59723,1,8,0:0:0:0:
256,192,59804,1,8,0:0:0:0:
256,192,59884,1,0,0:0:0:0:
256,192,60207,1,8,0:0:0:0:
256,192,60368,1,0,0:0:0:0:
256,192,60529,1,0,0:0:0:0:
256,192,60691,1,8,0:0:0:0:
256,192,60852,1,0,0:0:0:0:
256,192,60933,1,0,0:0:0:0:
256,192,61013,1,8,0:0:0:0:
256,192,61175,1,0,0:0:0:0:
256,192,62465,1,4,0:0:0:0:
256,192,62626,1,8,0:0:0:0:
256,192,62707,1,0,0:0:0:0:
256,192,62788,1,8,0:0:0:0:
256,192,62949,1,0,0:0:0:0:
256,192,63110,1,8,0:0:0:0:
256,192,63271,1,0,0:0:0:0:
256,192,63352,1,0,0:0:0:0:
256,192,63433,1,8,0:0:0:0:
256,192,63513,1,8,0:0:0:0:
256,192,63594,1,0,0:0:0:0:
256,192,63755,1,8,0:0:0:0:
256,192,63917,1,0,0:0:0:0:
256,192,63997,1,0,0:0:0:0:
256,192,64078,1,8,0:0:0:0:
256,192,64239,1,0,0:0:0:0:
256,192,64400,1,8,0:0:0:0:
256,192,64562,1,0,0:0:0:0:
256,192,64642,1,8,0:0:0:0:
256,192,64723,1,0,0:0:0:0:
256,192,64804,1,0,0:0:0:0:
256,192,64884,1,8,0:0:0:0:
256,192,65046,1,0,0:0:0:0:
256,192,65207,1,8,0:0:0:0:
256,192,65288,1,8,0:0:0:0:
256,192,65368,1,0,0:0:0:0:
256,192,65449,1,8,0:0:0:0:
256,192,65610,1,8,0:0:0:0:
256,192,65691,1,0,0:0:0:0:
256,192,65852,1,8,0:0:0:0:
256,192,66013,1,0,0:0:0:0:
256,192,66094,1,0,0:0:0:0:
256,192,66175,1,8,0:0:0:0:
256,192,66336,1,0,0:0:0:0:
256,192,66497,1,8,0:0:0:0:
256,192,66578,1,8,0:0:0:0:
256,192,66659,1,0,0:0:0:0:
256,192,66739,1,8,0:0:0:0:
256,192,66820,1,0,0:0:0:0:
256,192,66900,1,0,0:0:0:0:
256,192,66981,1,8,0:0:0:0:
256,192,67142,1,0,0:0:0:0:
256,192,67304,1,8,0:0:0:0:
256,192,67384,1,0,0:0:0:0:
256,192,67465,1,8,0:0:0:0:
256,192,67626,1,0,0:0:0:0:
256,192,67707,1,8,0:0:0:0:
256,192,67788,1,8,0:0:0:0:
256,192,67868,1,0,0:0:0:0:
256,192,67949,1,8,0:0:0:0:
256,192,68110,1,0,0:0:0:0:
256,192,68271,1,8,0:0:0:0:
256,192,68352,1,0,0:0:0:0:
256,192,68433,1,8,0:0:0:0:
256,192,68513,1,8,0:0:0:0:
256,192,68594,1,0,0:0:0:0:
256,192,68755,1,8,0:0:0:0:
256,192,68917,1,0,0:0:0:0:
256,192,68997,1,0,0:0:0:0:
256,192,69078,1,8,0:0:0:0:
256,192,69239,1,8,0:0:0:0:
256,192,69320,1,0,0:0:0:0:
256,192,69400,1,8,0:0:0:0:
256,192,69481,1,8,0:0:0:0:
256,192,69562,1,0,0:0:0:0:
256,192,69642,1,0,0:0:0:0:
256,192,69723,1,8,0:0:0:0:
256,192,69884,1,8,0:0:0:0:
256,192,69965,1,0,0:0:0:0:
256,192,70046,1,8,0:0:0:0:
256,192,70126,1,8,0:0:0:0:
256,192,70207,1,0,0:0:0:0:
256,192,70288,1,8,0:0:0:0:
256,192,70368,1,0,0:0:0:0:
256,192,70529,1,8,0:0:0:0:
256,192,70691,1,0,0:0:0:0:
256,192,70771,1,8,0:0:0:0:
256,192,70852,1,0,0:0:0:0:
256,192,71013,1,8,0:0:0:0:
256,192,71175,1,0,0:0:0:0:
256,192,71255,1,8,0:0:0:0:
256,192,71336,1,0,0:0:0:0:
256,192,71497,1,8,0:0:0:0:
256,192,71578,1,0,0:0:0:0:
256,192,71659,1,8,0:0:0:0:
256,192,71820,1,0,0:0:0:0:
256,192,71900,1,8,0:0:0:0:
256,192,71981,1,0,0:0:0:0:
256,192,72062,1,0,0:0:0:0:
256,192,72142,1,8,0:0:0:0:
256,192,72223,1,0,0:0:0:0:
256,192,72304,1,8,0:0:0:0:
256,192,72384,1,8,0:0:0:0:
256,192,72465,1,0,0:0:0:0:
256,192,72626,1,8,0:0:0:0:
256,192,72788,1,0,0:0:0:0:
256,192,72868,1,0,0:0:0:0:
256,192,72949,1,8,0:0:0:0:
256,192,73029,1,0,0:0:0:0:
256,192,73110,1,8,0:0:0:0:
256,192,73271,1,0,0:0:0:0:
256,192,73433,1,8,0:0:0:0:
256,192,73513,1,0,0:0:0:0:
256,192,73594,1,0,0:0:0:0:
256,192,73675,1,8,0:0:0:0:
256,192,73836,1,8,0:0:0:0:
256,192,73917,1,0,0:0:0:0:
256,192,74078,1,8,0:0:0:0:
256,192,74159,1,0,0:0:0:0:
256,192,74239,1,8,0:0:0:0:
256,192,74320,1,8,0:0:0:0:
256,192,74400,1,0,0:0:0:0:
256,192,74562,1,0,0:0:0:0:
256,192,74642,1,8,0:0:0:0:
256,192,74723,1,0,0:0:0:0:
256,192,74804,1,0,0:0:0:0:
256,192,74884,1,8,0:0:0:0:
256,192,74965,1,8,0:0:0:0:
256,192,75046,1,0,0:0:0:0:
256,192,75207,1,8,0:0:0:0:
256,192,75368,1,0,0:0:0:0:
256,192,75449,1,8,0:0:0:0:
256,192,75529,1,8,0:0:0:0:
256,192,75610,1,8,0:0:0:0:
256,192,75691,1,0,0:0:0:0:
256,192,75852,1,8,0:0:0:0:
256,192,75933,1,0,0:0:0:0:
256,192,76013,1,8,0:0:0:0:
256,192,76175,1,0,0:0:0:0:
256,192,76255,1,8,0:0:0:0:
256,192,76336,1,0,0:0:0:0:
256,192,76417,1,0,0:0:0:0:
256,192,76497,1,8,0:0:0:0:
256,192,76659,1,0,0:0:0:0:
256,192,76739,1,0,0:0:0:0:
256,192,76820,1,0,0:0:0:0:
256,192,76981,1,8,0:0:0:0:
256,192,77142,1,0,0:0:0:0:
256,192,77223,1,0,0:0:0:0:
256,192,77304,1,0,0:0:0:0:
256,192,77465,1,8,0:0:0:0:
256,192,77626,1,0,0:0:0:0:
256,192,77707,1,0,0:0:0:0:
256,192,77788,1,8,0:0:0:0:
256,192,77868,1,8,0:0:0:0:
256,192,77949,1,0,0:0:0:0:
256,192,78110,1,8,0:0:0:0:
256,192,78271,1,0,0:0:0:0:
256,192,78352,1,0,0:0:0:0:
256,192,78433,1,8,0:0:0:0:
256,192,78594,1,0,0:0:0:0:
256,192,78675,1,8,0:0:0:0:
256,192,78755,1,8,0:0:0:0:
256,192,78836,1,0,0:0:0:0:
256,192,78917,1,8,0:0:0:0:
256,192,79078,1,0,0:0:0:0:
256,192,79239,1,8,0:0:0:0:
256,192,79320,1,0,0:0:0:0:
256,192,79400,1,8,0:0:0:0:
256,192,79481,1,8,0:0:0:0:
256,192,79562,1,0,0:0:0:0:
256,192,79642,1,8,0:0:0:0:
256,192,79723,1,0,0:0:0:0:
256,192,79804,1,0,0:0:0:0:
256,192,79884,1,8,0:0:0:0:
256,192,79965,1,8,0:0:0:0:
256,192,80046,1,0,0:0:0:0:
256,192,80126,1,8,0:0:0:0:
256,192,80207,1,0,0:0:0:0:
256,192,80288,1,0,0:0:0:0:
256,192,80368,1,8,0:0:0:0:
256,192,80449,1,0,0:0:0:0:
256,192,80529,1,8,0:0:0:0:
256,192,80691,1,0,0:0:0:0:
256,192,80771,1,8,0:0:0:0:
256,192,80852,1,0,0:0:0:0:
256,192,81013,1,8,0:0:0:0:
256,192,81175,1,0,0:0:0:0:
256,192,81255,1,8,0:0:0:0:
256,192,81336,1,0,0:0:0:0:
256,192,81417,1,0,0:0:0:0:
256,192,81497,1,8,0:0:0:0:
256,192,81659,1,0,0:0:0:0:
256,192,81820,1,8,0:0:0:0:
256,192,81900,1,8,0:0:0:0:
256,192,81981,1,0,0:0:0:0:
256,192,82062,1,8,0:0:0:0:
256,192,82142,1,0,0:0:0:0:
256,192,82223,1,0,0:0:0:0:
256,192,82304,1,8,0:0:0:0:
256,192,82465,1,0,0:0:0:0:
256,192,82546,1,0,0:0:0:0:
256,192,82626,1,8,0:0:0:0:
256,192,82707,1,0,0:0:0:0:
256,192,82788,1,8,0:0:0:0:
256,192,82868,1,8,0:0:0:0:
256,192,82949,1,0,0:0:0:0:
256,192,83110,1,0,0:0:0:0:
256,192,83191,1,0,0:0:0:0:
256,192,83271,1,8,0:0:0:0:
256,192,83352,1,0,0:0:0:0:
256,192,83433,1,8,0:0:0:0:
256,192,83594,1,0,0:0:0:0:
256,192,83755,1,8,0:0:0:0:
256,192,83836,1,0,0:0:0:0:
256,192,83917,1,8,0:0:0:0:
256,192,83997,1,8,0:0:0:0:
256,192,84078,1,0,0:0:0:0:
256,192,84239,1,8,0:0:0:0:
256,192,84400,1,0,0:0:0:0:
256,192,84562,1,8,0:0:0:0:
256,192,84642,1,8,0:0:0:0:
256,192,84723,1,0,0:0:0:0:
256,192,84884,1,8,0:0:0:0:
256,192,85046,1,0,0:0:0:0:
256,192,85207,1,8,0:0:0:0:
256,192,85288,1,8,0:0:0:0:
256,192,85368,1,0,0:0:0:0:
256,192,85449,1,0,0:0:0:0:
256,192,85529,1,8,0:0:0:0:
256,192,85691,1,0,0:0:0:0:
256,192,85771,1,0,0:0:0:0:
256,192,85852,1,8,0:0:0:0:
256,192,85933,1,0,0:0:0:0:
256,192,86013,1,8,0:0:0:0:
256,192,86175,1,0,0:0:0:0:
256,192,86336,1,8,0:0:0:0:
256,192,86417,1,8,0:0:0:0:
256,192,86497,1,0,0:0:0:0:
256,192,86578,1,0,0:0:0:0:
256,192,86659,1,8,0:0:0:0:
256,192,86739,1,0,0:0:0:0:
256,192,86820,1,8,0:0:0:0:
256,192,86981,1,0,0:0:0:0:
256,192,87142,1,8,0:0:0:0:
256,192,87223,1,8,0:0:0:0:
256,192,87304,1,0,0:0:0:0:
256,192,87465,1,8,0:0:0:0:
256,192,87626,1,0,0:0:0:0:
256,192,87707,1,0,0:0:0:0:
256,192,87788,1,8,0:0:0:0:
256,192,87868,1,8,0:0:0:0:
256,192,87949,1,0,0:0:0:0:
256,192,88110,1,0,0:0:0:0:
256,192,88271,1,8,0:0:0:0:
256,192,88352,1,0,0:0:0:0:
256,192,88433,1,8,0:0:0:0:
256,192,88513,1,8,0:0:0:0:
256,192,88594,1,0,0:0:0:0:
256,192,88755,1,8,0:0:0:0:
256,192,88836,1,0,0:0:0:0:
256,192,88917,1,8,0:0:0:0:
256,192,88997,1,8,0:0:0:0:
256,192,89078,1,0,0:0:0:0:
256,192,89239,1,8,0:0:0:0:
256,192,89320,1,8,0:0:0:0:
256,192,89400,1,0,0:0:0:0:
256,192,89562,1,8,0:0:0:0:
256,192,89642,1,0,0:0:0:0:
256,192,89723,1,0,0:0:0:0:
256,192,89804,1,0,0:0:0:0:
256,192,89884,1,8,0:0:0:0:
256,192,90046,1,0,0:0:0:0:
256,192,90207,1,8,0:0:0:0:
256,192,90288,1,0,0:0:0:0:
256,192,90368,1,8,0:0:0:0:
256,192,90529,1,0,0:0:0:0:
256,192,90610,1,0,0:0:0:0:
256,192,90691,1,8,0:0:0:0:
256,192,90852,1,0,0:0:0:0:
256,192,91013,1,8,0:0:0:0:
256,192,91094,1,8,0:0:0:0:
256,192,91175,1,0,0:0:0:0:
256,192,91336,1,8,0:0:0:0:
256,192,91417,1,0,0:0:0:0:
256,192,91497,1,0,0:0:0:0:
256,192,91578,1,8,0:0:0:0:
256,192,91659,1,8,0:0:0:0:
256,192,91820,1,0,0:0:0:0:
256,192,91981,1,8,0:0:0:0:
256,192,92142,1,0,0:0:0:0:
256,192,92223,1,0,0:0:0:0:
256,192,92304,1,8,0:0:0:0:
256,192,92384,1,0,0:0:0:0:
256,192,92465,1,8,0:0:0:0:
256,192,92626,1,0,0:0:0:0:
256,192,92707,1,0,0:0:0:0:
256,192,92788,1,8,0:0:0:0:
256,192,92868,1,0,0:0:0:0:
256,192,92949,1,8,0:0:0:0:
256,192,93110,1,0,0:0:0:0:
256,192,93191,1,8,0:0:0:0:
256,192,93271,1,8,0:0:0:0:
256,192,93352,1,8,0:0:0:0:
256,192,93433,1,0,0:0:0:0:
256,192,93513,1,0,0:0:0:0:
256,192,93594,1,8,0:0:0:0:
256,192,93675,1,0,0:0:0:0:
256,192,93755,1,8,0:0:0:0:
256,192,93917,1,0,0:0:0:0:
256,192,94078,1,8,0:0:0:0:
256,192,94159,1,8,0:0:0:0:
256,192,94239,1,0,0:0:0:0:
256,192,94400,1,0,0:0:0:0:
256,192,94562,1,8,0:0:0:0:
256,192,94723,1,0,0:0:0:0:
256,192,94804,1,0,0:0:0:0:
256,192,94884,1,8,0:0:0:0:
256,192,94965,1,0,0:0:0:0:
256,192,95046,1,8,0:0:0:0:
256,192,95207,1,0,0:0:0:0:
256,192,95368,1,8,0:0:0:0:
256,192,95449,1,8,0:0:0:0:
256,192,95529,1,0,0:0:0:0:
256,192,95691,1,0,0:0:0:0:
256,192,95771,1,0,0:0:0:0:
256,192,95852,1,8,0:0:0:0:
256,192,96013,1,0,0:0:0:0:
256,192,96175,1,8,0:0:0:0:
256,192,96255,1,0,0:0:0:0:
256,192,96336,1,8,0:0:0:0:
256,192,96417,1,8,0:0:0:0:
256,192,96497,1,0,0:0:0:0:
256,192,96659,1,0,0:0:0:0:
256,192,96739,1,0,0:0:0:0:
256,192,96820,1,8,0:0:0:0:
256,192,96900,1,0,0:0:0:0:
256,192,96981,1,8,0:0:0:0:
256,192,97142,1,0,0:0:0:0:
256,192,97223,1,8,0:0:0:0:
256,192,97304,1,0,0:0:0:0:
256,192,97465,1,8,0:0:0:0:
256,192,97546,1,8,0:0:0:0:
256,192,97626,1,0,0:0:0:0:
256,192,97707,1,0,0:0:0:0:
256,192,97788,1,8,0:0:0:0:
256,192,97949,1,0,0:0:0:0:
256,192,98029,1,0,0:0:0:0:
256,192,98110,1,8,0:0:0:0:
256,192,98191,1,0,0:0:0:0:
256,192,98271,1,8,0:0:0:0:
256,192,98352,1,8,0:0:0:0:
256,192,98433,1,8,0:0:0:0:
256,192,98513,1,8,0:0:0:0:
256,192,98594,1,0,0:0:0:0:
256,192,98755,1,0,0:0:0:0:
256,192,98917,1,8,0:0:0:0:
256,192,99078,1,0,0:0:0:0:
256,192,99159,1,0,0:0:0:0:
256,192,99239,1,0,0:0:0:0:
256,192,99400,1,8,0:0:0:0:
256,192,99562,1,0,0:0:0:0:
256,192,99642,1,0,0:0:0:0:
256,192,99723,1,8,0:0:0:0:
256,192,99804,1,8,0:0:0:0:
256,192,99884,1,0,0:0:0:0:
256,192,100046,1,0,0:0:0:0:
256,192,100207,1,8,0:0:0:0:
256,192,100368,1,0,0:0:0:0:
256,192,100449,1,8,0:0:0:0:
256,192,100529,1,0,0:0:0:0:
256,192,100691,1,8,0:0:0:0:
256,192,100852,1,0,0:0:0:0:
256,192,100933,1,8,0:0:0:0:
256,192,101094,1,8,0:0:0:0:
256,192,101175,1,0,0:0:0:0:
256,192,101336,1,0,0:0:0:0:
256,192,101497,1,8,0:0:0:0:
256,192,101659,1,0,0:0:0:0:
256,192,101739,1,0,0:0:0:0:
256,192,101820,1,0,0:0:0:0:
256,192,101981,1,8,0:0:0:0:
256,192,102142,1,0,0:0:0:0:
256,192,102223,1,8,0:0:0:0:
256,192,102304,1,8,0:0:0:0:
256,192,102384,1,8,0:0:0:0:
256,192,102465,1,0,0:0:0:0:
256,192,102788,1,8,0:0:0:0:
256,192,102949,1,0,0:0:0:0:
256,192,103029,1,8,0:0:0:0:
256,192,103110,1,0,0:0:0:0:
256,192,103271,1,8,0:0:0:0:
256,192,103433,1,0,0:0:0:0:
256,192,103513,1,0,0:0:0:0:
256,192,103594,1,8,0:0:0:0:
256,192,103755,1,0,0:0:0:0:
256,192,104078,1,0,0:0:0:0:
256,192,104400,1,0,0:0:0:0:
256,192,104723,1,8,0:0:0:0:
256,192,105207,1,8,0:0:0:0:
256,192,105691,1,8,0:0:0:0:
256,192,106336,1,0,0:0:0:0:
256,192,106659,1,0,0:0:0:0:
256,192,106820,1,0,0:0:0:0:
256,192,106981,1,0,0:0:0:0:
256,192,107304,1,8,0:0:0:0:
256,192,107788,1,8,0:0:0:0:
256,192,108271,1,8,0:0:0:0:
256,192,108917,1,0,0:0:0:0:
256,192,109239,1,0,0:0:0:0:
256,192,109562,1,0,0:0:0:0:
256,192,109884,1,8,0:0:0:0:
256,192,110368,1,8,0:0:0:0:
256,192,110852,1,8,0:0:0:0:
256,192,111497,1,0,0:0:0:0:
256,192,111820,1,0,0:0:0:0:
256,192,111981,1,0,0:0:0:0:
256,192,112142,1,0,0:0:0:0:
256,192,112465,1,8,0:0:0:0:
256,192,112788,1,0,0:0:0:0:
256,192,112949,1,8,0:0:0:0:
256,192,113271,1,0,0:0:0:0:
256,192,113433,1,8,0:0:0:0:
256,192,114078,1,0,0:0:0:0:
256,192,114400,1,0,0:0:0:0:
256,192,114723,1,0,0:0:0:0:
256,192,115046,1,8,0:0:0:0:
256,192,115529,1,8,0:0:0:0:
256,192,116013,1,8,0:0:0:0:
256,192,116659,1,0,0:0:0:0:
256,192,116981,1,0,0:0:0:0:
256,192,117142,1,0,0:0:0:0:
256,192,117304,1,0,0:0:0:0:
256,192,117626,1,8,0:0:0:0:
256,192,118110,1,8,0:0:0:0:
256,192,118594,1,8,0:0:0:0:
256,192,119239,1,0,0:0:0:0:
256,192,119562,1,0,0:0:0:0:
256,192,119884,1,0,0:0:0:0:
256,192,120207,1,8,0:0:0:0:
256,192,120691,1,8,0:0:0:0:
256,192,121175,1,8,0:0:0:0:
256,192,121820,1,0,0:0:0:0:
256,192,122142,1,0,0:0:0:0:
256,192,122304,1,0,0:0:0:0:
256,192,122465,1,0,0:0:0:0:
256,192,122788,1,8,0:0:0:0:
256,192,123110,1,0,0:0:0:0:
256,192,123271,1,8,0:0:0:0:
256,192,123594,1,0,0:0:0:0:
256,192,123755,1,0,0:0:0:0:
256,192,124400,1,4,0:0:0:0:
256,192,124723,1,8,0:0:0:0:
256,192,124884,1,0,0:0:0:0:
256,192,124965,1,0,0:0:0:0:
256,192,125046,1,0,0:0:0:0:
256,192,125207,1,8,0:0:0:0:
256,192,125368,1,0,0:0:0:0:
256,192,125449,1,0,0:0:0:0:
256,192,125529,1,8,0:0:0:0:
256,192,125610,1,0,0:0:0:0:
256,192,125691,1,0,0:0:0:0:
256,192,125852,1,0,0:0:0:0:
256,192,126013,1,8,0:0:0:0:
256,192,126175,1,0,0:0:0:0:
256,192,126255,1,8,0:0:0:0:
256,192,126336,1,0,0:0:0:0:
256,192,126497,1,8,0:0:0:0:
256,192,126659,1,0,0:0:0:0:
256,192,126739,1,8,0:0:0:0:
256,192,126900,1,8,0:0:0:0:
256,192,126981,1,0,0:0:0:0:
256,192,127142,1,0,0:0:0:0:
256,192,127304,1,8,0:0:0:0:
256,192,127465,1,0,0:0:0:0:
256,192,127546,1,0,0:0:0:0:
256,192,127626,1,0,0:0:0:0:
256,192,127788,1,8,0:0:0:0:
256,192,127949,1,0,0:0:0:0:
256,192,128029,1,8,0:0:0:0:
256,192,128110,1,8,0:0:0:0:
256,192,128191,1,8,0:0:0:0:
256,192,128271,1,0,0:0:0:0:
256,192,128433,1,8,0:0:0:0:
256,192,128594,1,8,0:0:0:0:
256,192,128755,1,8,0:0:0:0:
256,192,128917,1,0,0:0:0:0:
256,192,129078,1,8,0:0:0:0:
256,192,129159,1,8,0:0:0:0:
256,192,129320,1,0,0:0:0:0:
256,192,129400,1,8,0:0:0:0:
256,192,129481,1,8,0:0:0:0:
256,192,129562,1,0,0:0:0:0:
256,192,129723,1,0,0:0:0:0:
256,192,129884,1,8,0:0:0:0:
256,192,130046,1,0,0:0:0:0:
256,192,130126,1,0,0:0:0:0:
256,192,130207,1,0,0:0:0:0:
256,192,130368,1,8,0:0:0:0:
256,192,130529,1,0,0:0:0:0:
256,192,130610,1,0,0:0:0:0:
256,192,130691,1,8,0:0:0:0:
256,192,130771,1,8,0:0:0:0:
256,192,130852,1,0,0:0:0:0:
256,192,131013,1,0,0:0:0:0:
256,192,131175,1,8,0:0:0:0:
256,192,131336,1,0,0:0:0:0:
256,192,131417,1,8,0:0:0:0:
256,192,131497,1,0,0:0:0:0:
256,192,131659,1,8,0:0:0:0:
256,192,131820,1,0,0:0:0:0:
256,192,131900,1,8,0:0:0:0:
256,192,132062,1,8,0:0:0:0:
256,192,132142,1,0,0:0:0:0:
256,192,132304,1,0,0:0:0:0:
256,192,132465,1,8,0:0:0:0:
256,192,132626,1,0,0:0:0:0:
256,192,132707,1,0,0:0:0:0:
256,192,132788,1,0,0:0:0:0:
256,192,132949,1,8,0:0:0:0:
256,192,133110,1,0,0:0:0:0:
256,192,133191,1,8,0:0:0:0:
256,192,133271,1,8,0:0:0:0:
256,192,133352,1,8,0:0:0:0:
256,192,133433,1,0,0:0:0:0:
256,192,133594,1,8,0:0:0:0:
256,192,133755,1,8,0:0:0:0:
256,192,133917,1,8,0:0:0:0:
256,192,134078,1,0,0:0:0:0:
256,192,134239,1,8,0:0:0:0:
256,192,134320,1,8,0:0:0:0:
256,192,134400,1,0,0:0:0:0:
256,192,134481,1,8,0:0:0:0:
256,192,134562,1,8,0:0:0:0:
256,192,134642,1,8,0:0:0:0:
256,192,134723,1,0,0:0:0:0:
256,192,135046,1,8,0:0:0:0:
256,192,135207,1,0,0:0:0:0:
256,192,135288,1,0,0:0:0:0:
256,192,135368,1,0,0:0:0:0:
256,192,135529,1,8,0:0:0:0:
256,192,135691,1,0,0:0:0:0:
256,192,135771,1,8,0:0:0:0:
256,192,135852,1,0,0:0:0:0:
256,192,135933,1,0,0:0:0:0:
256,192,136013,1,0,0:0:0:0:
256,192,136175,1,0,0:0:0:0:
256,192,136336,1,8,0:0:0:0:
256,192,136497,1,0,0:0:0:0:
256,192,136578,1,8,0:0:0:0:
256,192,136659,1,0,0:0:0:0:
256,192,136820,1,8,0:0:0:0:
256,192,136981,1,0,0:0:0:0:
256,192,137062,1,8,0:0:0:0:
256,192,137223,1,8,0:0:0:0:
256,192,137304,1,0,0:0:0:0:
256,192,137465,1,0,0:0:0:0:
256,192,137626,1,8,0:0:0:0:
256,192,137788,1,0,0:0:0:0:
256,192,137868,1,0,0:0:0:0:
256,192,137949,1,0,0:0:0:0:
256,192,138110,1,8,0:0:0:0:
256,192,138271,1,0,0:0:0:0:
256,192,138352,1,8,0:0:0:0:
256,192,138433,1,8,0:0:0:0:
256,192,138513,1,8,0:0:0:0:
256,192,138594,1,0,0:0:0:0:
256,192,138755,1,8,0:0:0:0:
256,192,138917,1,8,0:0:0:0:
256,192,139078,1,8,0:0:0:0:
256,192,139239,1,0,0:0:0:0:
256,192,139400,1,8,0:0:0:0:
256,192,139481,1,8,0:0:0:0:
256,192,139642,1,0,0:0:0:0:
256,192,139723,1,8,0:0:0:0:
256,192,139804,1,8,0:0:0:0:
256,192,139884,1,0,0:0:0:0:
256,192,140046,1,0,0:0:0:0:
256,192,140207,1,8,0:0:0:0:
256,192,140368,1,0,0:0:0:0:
256,192,140449,1,0,0:0:0:0:
256,192,140529,1,0,0:0:0:0:
256,192,140691,1,8,0:0:0:0:
256,192,140852,1,0,0:0:0:0:
256,192,140933,1,8,0:0:0:0:
256,192,141013,1,8,0:0:0:0:
256,192,141094,1,0,0:0:0:0:
256,192,141175,1,0,0:0:0:0:
256,192,141336,1,0,0:0:0:0:
256,192,141497,1,8,0:0:0:0:
256,192,141659,1,0,0:0:0:0:
256,192,141739,1,8,0:0:0:0:
256,192,141820,1,0,0:0:0:0:
256,192,141981,1,8,0:0:0:0:
256,192,142142,1,0,0:0:0:0:
256,192,142223,1,8,0:0:0:0:
256,192,142384,1,8,0:0:0:0:
256,192,142465,1,0,0:0:0:0:
256,192,142626,1,0,0:0:0:0:
256,192,142788,1,8,0:0:0:0:
256,192,142949,1,0,0:0:0:0:
256,192,143029,1,8,0:0:0:0:
256,192,143110,1,0,0:0:0:0:
256,192,143271,1,8,0:0:0:0:
256,192,143433,1,0,0:0:0:0:
256,192,143513,1,8,0:0:0:0:
256,192,143594,1,8,0:0:0:0:
256,192,143675,1,8,0:0:0:0:
256,192,143755,1,0,0:0:0:0:
256,192,143917,1,8,0:0:0:0:
256,192,144078,1,8,0:0:0:0:
256,192,144239,1,8,0:0:0:0:
256,192,144400,1,0,0:0:0:0:
256,192,144562,1,8,0:0:0:0:
256,192,144642,1,8,0:0:0:0:
256,192,144723,1,0,0:0:0:0:
256,192,144804,1,8,0:0:0:0:
256,192,144884,1,8,0:0:0:0:
256,192,144965,1,8,0:0:0:0:
256,192,145046,1,0,0:0:0:0:
256,192,145368,1,8,0:0:0:0:
256,192,145529,1,0,0:0:0:0:
256,192,145852,1,8,0:0:0:0:
256,192,146013,1,0,0:0:0:0:
256,192,146094,1,0,0:0:0:0:
256,192,146175,1,8,0:0:0:0:
256,192,146336,1,0,0:0:0:0:
256,192,146659,1,8,0:0:0:0:
256,192,146820,1,0,0:0:0:0:
256,192,147142,1,8,0:0:0:0:
256,192,147304,1,0,0:0:0:0:
256,192,147384,1,0,0:0:0:0:
256,192,147465,1,8,0:0:0:0:
256,192,147546,1,8,0:0:0:0:
256,192,147626,1,0,0:0:0:0:
256,192,147949,1,8,0:0:0:0:
256,192,148110,1,0,0:0:0:0:
256,192,148433,1,8,0:0:0:0:
256,192,148594,1,0,0:0:0:0:
256,192,148675,1,0,0:0:0:0:
256,192,148755,1,8,0:0:0:0:
256,192,148917,1,0,0:0:0:0:
256,192,149078,1,8,0:0:0:0:
256,192,149239,1,8,0:0:0:0:
256,192,149400,1,8,0:0:0:0:
256,192,149562,1,0,0:0:0:0:
256,192,149723,1,8,0:0:0:0:
256,192,149804,1,8,0:0:0:0:
256,192,149965,1,0,0:0:0:0:
256,192,150046,1,8,0:0:0:0:
256,192,150126,1,8,0:0:0:0:
256,192,150207,1,0,0:0:0:0:
256,192,150529,1,8,0:0:0:0:
256,192,150691,1,0,0:0:0:0:
256,192,151013,1,8,0:0:0:0:
256,192,151175,1,0,0:0:0:0:
256,192,151255,1,0,0:0:0:0:
256,192,151336,1,8,0:0:0:0:
256,192,151497,1,0,0:0:0:0:
256,192,151820,1,8,0:0:0:0:
256,192,151981,1,0,0:0:0:0:
256,192,152304,1,8,0:0:0:0:
256,192,152465,1,0,0:0:0:0:
256,192,152546,1,8,0:0:0:0:
256,192,152626,1,8,0:0:0:0:
256,192,152707,1,8,0:0:0:0:
256,192,152788,1,0,0:0:0:0:
256,192,153110,1,8,0:0:0:0:
256,192,153271,1,0,0:0:0:0:
256,192,153594,1,8,0:0:0:0:
256,192,153755,1,0,0:0:0:0:
256,192,153836,1,0,0:0:0:0:
256,192,153917,1,8,0:0:0:0:
256,192,154078,1,0,0:0:0:0:
256,192,154239,1,8,0:0:0:0:
256,192,154400,1,8,0:0:0:0:
256,192,154562,1,8,0:0:0:0:
256,192,154723,1,0,0:0:0:0:
256,192,154884,1,8,0:0:0:0:
256,192,154965,1,8,0:0:0:0:
256,192,155046,1,0,0:0:0:0:
256,192,155126,1,8,0:0:0:0:
256,192,155207,1,8,0:0:0:0:
256,192,155288,1,8,0:0:0:0:
256,192,155368,1,0,0:0:0:0:
256,192,155691,1,8,0:0:0:0:
256,192,155852,1,0,0:0:0:0:
256,192,156013,1,0,0:0:0:0:
256,192,156175,1,8,0:0:0:0:
256,192,156336,1,0,0:0:0:0:
256,192,156417,1,0,0:0:0:0:
256,192,156497,1,8,0:0:0:0:
256,192,156659,1,0,0:0:0:0:
256,192,156981,1,8,0:0:0:0:
256,192,157142,1,0,0:0:0:0:
256,192,157223,1,0,0:0:0:0:
256,192,157304,1,0,0:0:0:0:
256,192,157465,1,8,0:0:0:0:
256,192,157626,1,0,0:0:0:0:
256,192,157707,1,0,0:0:0:0:
256,192,157788,1,8,0:0:0:0:
256,192,157868,1,8,0:0:0:0:
256,192,157949,1,0,0:0:0:0:
256,192,158271,1,8,0:0:0:0:
256,192,158433,1,0,0:0:0:0:
256,192,158594,1,0,0:0:0:0:
256,192,158755,1,8,0:0:0:0:
256,192,158917,1,0,0:0:0:0:
256,192,158997,1,0,0:0:0:0:
256,192,159078,1,8,0:0:0:0:
256,192,159239,1,0,0:0:0:0:
256,192,159400,1,8,0:0:0:0:
256,192,159562,1,8,0:0:0:0:
256,192,159723,1,8,0:0:0:0:
256,192,159884,1,0,0:0:0:0:
256,192,160046,1,8,0:0:0:0:
256,192,160126,1,8,0:0:0:0:
256,192,160288,1,0,0:0:0:0:
256,192,160368,1,8,0:0:0:0:
256,192,160449,1,8,0:0:0:0:
256,192,160529,1,0,0:0:0:0:
256,192,160852,1,8,0:0:0:0:
256,192,161013,1,0,0:0:0:0:
256,192,161175,1,0,0:0:0:0:
256,192,161336,1,8,0:0:0:0:
256,192,161497,1,0,0:0:0:0:
256,192,161578,1,0,0:0:0:0:
256,192,161659,1,8,0:0:0:0:
256,192,161820,1,0,0:0:0:0:
256,192,162142,1,8,0:0:0:0:
256,192,162304,1,0,0:0:0:0:
256,192,162384,1,0,0:0:0:0:
256,192,162465,1,0,0:0:0:0:
256,192,162626,1,8,0:0:0:0:
256,192,162788,1,0,0:0:0:0:
256,192,162868,1,8,0:0:0:0:
256,192,162949,1,8,0:0:0:0:
256,192,163029,1,8,0:0:0:0:
256,192,163110,1,0,0:0:0:0:
256,192,163433,1,8,0:0:0:0:
256,192,163594,1,0,0:0:0:0:
256,192,163755,1,0,0:0:0:0:
256,192,163917,1,8,0:0:0:0:
256,192,164078,1,0,0:0:0:0:
256,192,164159,1,0,0:0:0:0:
256,192,164239,1,8,0:0:0:0:
256,192,164400,1,0,0:0:0:0:
256,192,165691,1,4,0:0:0:0:
256,192,165852,1,8,0:0:0:0:
256,192,165933,1,8,0:0:0:0:
256,192,166094,1,0,0:0:0:0:
256,192,166175,1,8,0:0:0:0:
256,192,166336,1,0,0:0:0:0:
256,192,166497,1,8,0:0:0:0:
256,192,166578,1,8,0:0:0:0:
256,192,166659,1,0,0:0:0:0:
256,192,166739,1,8,0:0:0:0:
256,192,166820,1,0,0:0:0:0:
256,192,166981,1,8,0:0:0:0:
256,192,167142,1,0,0:0:0:0:
256,192,167223,1,8,0:0:0:0:
256,192,167384,1,8,0:0:0:0:
256,192,167465,1,0,0:0:0:0:
256,192,167626,1,8,0:0:0:0:
256,192,167788,1,0,0:0:0:0:
256,192,167868,1,0,0:0:0:0:
256,192,167949,1,8,0:0:0:0:
256,192,168029,1,0,0:0:0:0:
256,192,168110,1,8,0:0:0:0:
256,192,168191,1,8,0:0:0:0:
256,192,168271,1,0,0:0:0:0:
256,192,168433,1,8,0:0:0:0:
256,192,168513,1,8,0:0:0:0:
256,192,168675,1,0,0:0:0:0:
256,192,168755,1,8,0:0:0:0:
256,192,168917,1,0,0:0:0:0:
256,192,169078,1,8,0:0:0:0:
256,192,169159,1,0,0:0:0:0:
256,192,169239,1,8,0:0:0:0:
256,192,169320,1,8,0:0:0:0:
256,192,169400,1,0,0:0:0:0:
256,192,169562,1,8,0:0:0:0:
256,192,169723,1,0,0:0:0:0:
256,192,169804,1,8,0:0:0:0:
256,192,169965,1,8,0:0:0:0:
256,192,170046,1,0,0:0:0:0:
256,192,170207,1,8,0:0:0:0:
256,192,170368,1,0,0:0:0:0:
256,192,170449,1,8,0:0:0:0:
256,192,170529,1,0,0:0:0:0:
256,192,170610,1,0,0:0:0:0:
256,192,170691,1,8,0:0:0:0:
256,192,170771,1,8,0:0:0:0:
256,192,170852,1,0,0:0:0:0:
256,192,171013,1,8,0:0:0:0:
256,192,171094,1,8,0:0:0:0:
256,192,171255,1,0,0:0:0:0:
256,192,171336,1,8,0:0:0:0:
256,192,171417,1,8,0:0:0:0:
256,192,171497,1,0,0:0:0:0:
256,192,171659,1,8,0:0:0:0:
256,192,171739,1,8,0:0:0:0:
256,192,171820,1,0,0:0:0:0:
256,192,171900,1,8,0:0:0:0:
256,192,171981,1,0,0:0:0:0:
256,192,172142,1,8,0:0:0:0:
256,192,172304,1,0,0:0:0:0:
256,192,172384,1,8,0:0:0:0:
256,192,172546,1,8,0:0:0:0:
256,192,172626,1,0,0:0:0:0:
256,192,172707,1,0,0:0:0:0:
256,192,172788,1,8,0:0:0:0:
256,192,172949,1,0,0:0:0:0:
256,192,173029,1,0,0:0:0:0:
256,192,173110,1,8,0:0:0:0:
256,192,173191,1,0,0:0:0:0:
256,192,173271,1,8,0:0:0:0:
256,192,173352,1,8,0:0:0:0:
256,192,173433,1,0,0:0:0:0:
256,192,173594,1,8,0:0:0:0:
256,192,173675,1,8,0:0:0:0:
256,192,173836,1,0,0:0:0:0:
256,192,173917,1,8,0:0:0:0:
256,192,173997,1,8,0:0:0:0:
256,192,174078,1,0,0:0:0:0:
256,192,174239,1,8,0:0:0:0:
256,192,174320,1,0,0:0:0:0:
256,192,174400,1,8,0:0:0:0:
256,192,174481,1,8,0:0:0:0:
256,192,174562,1,0,0:0:0:0:
256,192,174723,1,8,0:0:0:0:
256,192,174884,1,0,0:0:0:0:
256,192,174965,1,8,0:0:0:0:
256,192,175126,1,8,0:0:0:0:
256,192,175207,1,0,0:0:0:0:
256,192,175368,1,8,0:0:0:0:
256,192,175449,1,0,0:0:0:0:
256,192,175529,1,8,0:0:0:0:
256,192,175610,1,8,0:0:0:0:
256,192,175691,1,0,0:0:0:0:
256,192,175771,1,8,0:0:0:0:
256,192,175852,1,8,0:0:0:0:
256,192,175933,1,8,0:0:0:0:
256,192,176013,1,0,0:0:0:0:
256,192,176175,1,8,0:0:0:0:
256,192,176255,1,0,0:0:0:0:
256,192,176336,1,0,0:0:0:0:
256,192,176417,1,0,0:0:0:0:
256,192,176497,1,8,0:0:0:0:
256,192,176659,1,0,0:0:0:0:
256,192,176820,1,8,0:0:0:0:
256,192,176900,1,8,0:0:0:0:
256,192,176981,1,0,0:0:0:0:
256,192,177142,1,0,0:0:0:0:
256,192,177223,1,0,0:0:0:0:
256,192,177304,1,8,0:0:0:0:
256,192,177465,1,0,0:0:0:0:
256,192,177546,1,8,0:0:0:0:
256,192,177626,1,0,0:0:0:0:
256,192,177707,1,0,0:0:0:0:
256,192,177788,1,8,0:0:0:0:
256,192,177949,1,0,0:0:0:0:
256,192,178110,1,8,0:0:0:0:
256,192,178191,1,8,0:0:0:0:
256,192,178271,1,0,0:0:0:0:
256,192,178352,1,8,0:0:0:0:
256,192,178433,1,8,0:0:0:0:
256,192,178513,1,8,0:0:0:0:
256,192,178594,1,0,0:0:0:0:
256,192,178755,1,8,0:0:0:0:
256,192,178836,1,8,0:0:0:0:
256,192,178917,1,0,0:0:0:0:
256,192,178997,1,0,0:0:0:0:
256,192,179078,1,8,0:0:0:0:
256,192,179239,1,0,0:0:0:0:
256,192,179400,1,8,0:0:0:0:
256,192,179481,1,8,0:0:0:0:
256,192,179562,1,0,0:0:0:0:
256,192,179723,1,0,0:0:0:0:
256,192,179804,1,0,0:0:0:0:
256,192,179884,1,8,0:0:0:0:
256,192,180046,1,0,0:0:0:0:
256,192,180126,1,8,0:0:0:0:
256,192,180207,1,8,0:0:0:0:
256,192,180288,1,0,0:0:0:0:
256,192,180368,1,8,0:0:0:0:
256,192,180529,1,0,0:0:0:0:
256,192,180610,1,8,0:0:0:0:
256,192,180691,1,0,0:0:0:0:
256,192,180771,1,0,0:0:0:0:
256,192,180852,1,8,0:0:0:0:
256,192,180933,1,0,0:0:0:0:
256,192,181013,1,8,0:0:0:0:
256,192,181094,1,8,0:0:0:0:
256,192,181175,1,0,0:0:0:0:
256,192,181336,1,8,0:0:0:0:
256,192,181417,1,8,0:0:0:0:
256,192,181578,1,0,0:0:0:0:
256,192,181659,1,8,0:0:0:0:
256,192,181739,1,8,0:0:0:0:
256,192,181820,1,0,0:0:0:0:
256,192,181981,1,8,0:0:0:0:
256,192,182062,1,0,0:0:0:0:
256,192,182142,1,8,0:0:0:0:
256,192,182223,1,8,0:0:0:0:
256,192,182304,1,0,0:0:0:0:
256,192,182465,1,8,0:0:0:0:
256,192,182626,1,0,0:0:0:0:
256,192,182707,1,8,0:0:0:0:
256,192,182788,1,0,0:0:0:0:
256,192,182868,1,0,0:0:0:0:
256,192,182949,1,8,0:0:0:0:
256,192,183110,1,0,0:0:0:0:
256,192,183271,1,8,0:0:0:0:
256,192,183352,1,0,0:0:0:0:
256,192,183433,1,8,0:0:0:0:
256,192,183513,1,8,0:0:0:0:
256,192,183594,1,0,0:0:0:0:
256,192,183675,1,8,0:0:0:0:
256,192,183755,1,0,0:0:0:0:
256,192,183917,1,8,0:0:0:0:
256,192,183997,1,8,0:0:0:0:
256,192,184159,1,0,0:0:0:0:
256,192,184239,1,8,0:0:0:0:
256,192,184320,1,8,0:0:0:0:
256,192,184400,1,0,0:0:0:0:
256,192,184562,1,8,0:0:0:0:
256,192,184642,1,8,0:0:0:0:
256,192,184723,1,0,0:0:0:0:
256,192,184804,1,8,0:0:0:0:
256,192,184884,1,0,0:0:0:0:
256,192,185046,1,8,0:0:0:0:
256,192,185207,1,0,0:0:0:0:
256,192,185288,1,8,0:0:0:0:
256,192,185368,1,8,0:0:0:0:
256,192,185449,1,0,0:0:0:0:
256,192,185529,1,8,0:0:0:0:
256,192,185610,1,0,0:0:0:0:
256,192,185691,1,8,0:0:0:0:
256,192,185771,1,8,0:0:0:0:
256,192,185852,1,0,0:0:0:0:
256,192,185933,1,8,0:0:0:0:
256,192,186013,1,0,0:0:0:0:
256,192,186094,1,8,0:0:0:0:
256,192,186175,1,8,0:0:0:0:
256,192,186255,1,8,0:0:0:0:
256,192,186336,1,0,0:0:0:0:
256,192,186497,1,8,0:0:0:0:
256,192,186578,1,8,0:0:0:0:
256,192,186659,1,0,0:0:0:0:
256,192,186739,1,0,0:0:0:0:
256,192,186820,1,8,0:0:0:0:
256,192,186981,1,0,0:0:0:0:
256,192,187062,1,8,0:0:0:0:
256,192,187142,1,0,0:0:0:0:
256,192,187223,1,0,0:0:0:0:
256,192,187304,1,8,0:0:0:0:
256,192,187384,1,8,0:0:0:0:
256,192,187465,1,0,0:0:0:0:
256,192,187626,1,8,0:0:0:0:
256,192,187707,1,0,0:0:0:0:
256,192,187788,1,8,0:0:0:0:
256,192,187949,1,0,0:0:0:0:
256,192,188029,1,8,0:0:0:0:
256,192,188110,1,0,0:0:0:0:
256,192,188191,1,0,0:0:0:0:
256,192,188271,1,8,0:0:0:0:
256,192,188433,1,0,0:0:0:0:
256,192,188513,1,8,0:0:0:0:
256,192,188594,1,8,0:0:0:0:
256,192,188675,1,0,0:0:0:0:
256,192,188755,1,8,0:0:0:0:
256,192,188836,1,8,0:0:0:0:
256,192,188917,1,0,0:0:0:0:
256,192,189078,1,8,0:0:0:0:
256,192,189159,1,0,0:0:0:0:
256,192,189239,1,0,0:0:0:0:
256,192,189320,1,0,0:0:0:0:
256,192,189400,1,8,0:0:0:0:
256,192,189562,1,0,0:0:0:0:
256,192,189642,1,0,0:0:0:0:
256,192,189723,1,8,0:0:0:0:
256,192,189804,1,0,0:0:0:0:
256,192,189884,1,8,0:0:0:0:
256,192,189965,1,8,0:0:0:0:
256,192,190046,1,0,0:0:0:0:
256,192,190207,1,8,0:0:0:0:
256,192,190288,1,8,0:0:0:0:
256,192,190368,1,8,0:0:0:0:
256,192,190529,1,0,0:0:0:0:
256,192,190610,1,8,0:0:0:0:
256,192,190691,1,0,0:0:0:0:
256,192,190771,1,0,0:0:0:0:
256,192,190852,1,8,0:0:0:0:
256,192,190933,1,0,0:0:0:0:
256,192,191013,1,8,0:0:0:0:
256,192,191094,1,8,0:0:0:0:
256,192,191175,1,0,0:0:0:0:
256,192,191255,1,8,0:0:0:0:
256,192,191336,1,8,0:0:0:0:
256,192,191417,1,8,0:0:0:0:
256,192,191497,1,0,0:0:0:0:
256,192,191659,1,8,0:0:0:0:
256,192,191739,1,8,0:0:0:0:
256,192,191820,1,0,0:0:0:0:
256,192,191900,1,0,0:0:0:0:
256,192,191981,1,8,0:0:0:0:
256,192,192142,1,0,0:0:0:0:
256,192,192223,1,8,0:0:0:0:
256,192,192304,1,0,0:0:0:0:
256,192,192384,1,0,0:0:0:0:
256,192,192465,1,8,0:0:0:0:
256,192,192546,1,8,0:0:0:0:
256,192,192626,1,0,0:0:0:0:
256,192,192788,1,8,0:0:0:0:
256,192,192868,1,0,0:0:0:0:
256,192,192949,1,8,0:0:0:0:
256,192,193110,1,0,0:0:0:0:
256,192,193191,1,8,0:0:0:0:
256,192,193271,1,8,0:0:0:0:
256,192,193352,1,0,0:0:0:0:
256,192,193433,1,8,0:0:0:0:
256,192,193594,1,0,0:0:0:0:
256,192,193675,1,0,0:0:0:0:
256,192,193755,1,8,0:0:0:0:
256,192,193836,1,0,0:0:0:0:
256,192,193917,1,8,0:0:0:0:
256,192,193997,1,8,0:0:0:0:
256,192,194078,1,0,0:0:0:0:
256,192,194239,1,8,0:0:0:0:
256,192,194320,1,0,0:0:0:0:
256,192,194400,1,0,0:0:0:0:
256,192,194481,1,0,0:0:0:0:
256,192,194562,1,8,0:0:0:0:
256,192,194723,1,0,0:0:0:0:
256,192,194804,1,8,0:0:0:0:
256,192,194884,1,0,0:0:0:0:
256,192,195046,1,8,0:0:0:0:
256,192,195126,1,0,0:0:0:0:
256,192,195207,1,8,0:0:0:0:
256,192,195368,1,0,0:0:0:0:
256,192,195449,1,8,0:0:0:0:
256,192,195529,1,0,0:0:0:0:
256,192,195610,1,0,0:0:0:0:
256,192,195691,1,8,0:0:0:0:
256,192,195771,1,0,0:0:0:0:
256,192,195852,1,8,0:0:0:0:
256,192,195933,1,8,0:0:0:0:
256,192,196013,1,0,0:0:0:0:
256,192,196094,1,8,0:0:0:0:
256,192,196175,1,8,0:0:0:0:
256,192,196255,1,8,0:0:0:0:
256,192,196336,1,0,0:0:0:0:
256,192,196417,1,8,0:0:0:0:
256,192,196497,1,8,0:0:0:0:
256,192,196578,1,8,0:0:0:0:
256,192,196659,1,0,0:0:0:0:
256,192,196820,1,8,0:0:0:0:
256,192,196900,1,8,0:0:0:0:
256,192,196981,1,0,0:0:0:0:
256,192,197062,1,8,0:0:0:0:
256,192,197142,1,0,0:0:0:0:
256,192,197223,1,0,0:0:0:0:
256,192,197304,1,8,0:0:0:0:
256,192,197465,1,0,0:0:0:0:
256,192,197546,1,0,0:0:0:0:
256,192,197626,1,8,0:0:0:0:
256,192,197707,1,0,0:0:0:0:
256,192,197788,1,8,0:0:0:0:
256,192,197868,1,8,0:0:0:0:
256,192,197949,1,0,0:0:0:0:
256,192,198110,1,8,0:0:0:0:
256,192,198191,1,0,0:0:0:0:
256,192,198271,1,8,0:0:0:0:
256,192,198352,1,8,0:0:0:0:
256,192,198433,1,0,0:0:0:0:
256,192,198513,1,8,0:0:0:0:
256,192,198594,1,0,0:0:0:0:
256,192,198675,1,0,0:0:0:0:
256,192,198755,1,8,0:0:0:0:
256,192,198836,1,8,0:0:0:0:
256,192,198917,1,0,0:0:0:0:
256,192,198997,1,8,0:0:0:0:
256,192,199078,1,8,0:0:0:0:
256,192,199159,1,8,0:0:0:0:
256,192,199239,1,0,0:0:0:0:
256,192,199400,1,8,0:0:0:0:
256,192,199481,1,0,0:0:0:0:
256,192,199562,1,8,0:0:0:0:
256,192,199642,1,8,0:0:0:0:
256,192,199723,1,0,0:0:0:0:
256,192,199804,1,0,0:0:0:0:
256,192,199884,1,8,0:0:0:0:
256,192,200046,1,0,0:0:0:0:
256,192,200126,1,8,0:0:0:0:
256,192,200207,1,0,0:0:0:0:
256,192,200288,1,0,0:0:0:0:
256,192,200368,1,8,0:0:0:0:
256,192,200449,1,8,0:0:0:0:
256,192,200529,1,0,0:0:0:0:
256,192,200691,1,8,0:0:0:0:
256,192,200771,1,8,0:0:0:0:
256,192,200852,1,0,0:0:0:0:
256,192,200933,1,8,0:0:0:0:
256,192,201013,1,0,0:0:0:0:
256,192,201094,1,0,0:0:0:0:
256,192,201175,1,8,0:0:0:0:
256,192,201255,1,0,0:0:0:0:
256,192,201336,1,8,0:0:0:0:
256,192,201417,1,8,0:0:0:0:
256,192,201497,1,0,0:0:0:0:
256,192,201578,1,8,0:0:0:0:
256,192,201659,1,8,0:0:0:0:
256,192,201739,1,8,0:0:0:0:
256,192,201820,1,0,0:0:0:0:
256,192,201981,1,8,0:0:0:0:
256,192,202062,1,8,0:0:0:0:
256,192,202142,1,0,0:0:0:0:
256,192,202223,1,8,0:0:0:0:
256,192,202304,1,0,0:0:0:0:
256,192,202384,1,0,0:0:0:0:
256,192,202465,1,8,0:0:0:0:
256,192,202546,1,0,0:0:0:0:
256,192,202626,1,8,0:0:0:0:
256,192,202707,1,8,0:0:0:0:
256,192,202788,1,0,0:0:0:0:
256,192,202868,1,0,0:0:0:0:
256,192,202949,1,8,0:0:0:0:
256,192,203110,1,0,0:0:0:0:
256,192,203191,1,0,0:0:0:0:
256,192,203271,1,8,0:0:0:0:
256,192,203352,1,0,0:0:0:0:
256,192,203433,1,8,0:0:0:0:
256,192,203513,1,8,0:0:0:0:
256,192,203594,1,0,0:0:0:0:
256,192,203675,1,8,0:0:0:0:
256,192,203755,1,0,0:0:0:0:
256,192,203836,1,0,0:0:0:0:
256,192,203917,1,8,0:0:0:0:
256,192,203997,1,8,0:0:0:0:
256,192,204078,1,0,0:0:0:0:
256,192,204159,1,8,0:0:0:0:
256,192,204239,1,0,0:0:0:0:
256,192,204400,1,8,0:0:0:0:
256,192,204481,1,8,0:0:0:0:
256,192,204562,1,8,0:0:0:0:
256,192,204642,1,0,0:0:0:0:
256,192,204723,1,8,0:0:0:0:
256,192,204804,1,8,0:0:0:0:
256,192,204884,1,0,0:0:0:0:
256,192,204965,1,0,0:0:0:0:
256,192,205046,1,8,0:0:0:0:
256,192,205126,1,0,0:0:0:0:
256,192,205207,1,8,0:0:0:0:
256,192,205288,1,8,0:0:0:0:
256,192,205368,1,0,0:0:0:0:
256,192,205449,1,8,0:0:0:0:
256,192,205529,1,8,0:0:0:0:
256,192,205610,1,8,0:0:0:0:
256,192,205691,1,0,0:0:0:0:
256,192,206013,1,8,0:0:0:0:
256,192,206175,1,0,0:0:0:0:
256,192,206255,1,8,0:0:0:0:
256,192,206336,1,0,0:0:0:0:
256,192,206497,1,8,0:0:0:0:
256,192,206659,1,0,0:0:0:0:
256,192,206739,1,0,0:0:0:0:
256,192,206820,1,8,0:0:0:0:
256,192,206981,1,0,0:0:0:0:
256,192,207304,1,0,0:0:0:0:
256,192,207626,1,0,0:0:0:0:
256,192,207949,1,8,0:0:0:0:
256,192,208433,1,8,0:0:0:0:
256,192,208917,1,8,0:0:0:0:
256,192,209562,1,0,0:0:0:0:
256,192,209884,1,0,0:0:0:0:
256,192,210046,1,0,0:0:0:0:
256,192,210207,1,0,0:0:0:0:
256,192,210529,1,8,0:0:0:0:
256,192,211013,1,8,0:0:0:0:
256,192,211497,1,8,0:0:0:0:
256,192,212142,1,0,0:0:0:0:
256,192,212465,1,0,0:0:0:0:
256,192,212788,1,0,0:0:0:0:
256,192,213110,1,8,0:0:0:0:
256,192,213594,1,8,0:0:0:0:
256,192,214078,1,8,0:0:0:0:
256,192,214723,1,0,0:0:0:0:
256,192,215046,1,0,0:0:0:0:
256,192,215207,1,0,0:0:0:0:
256,192,215368,1,0,0:0:0:0:
256,192,215691,1,8,0:0:0:0:
256,192,216013,1,0,0:0:0:0:
256,192,216175,1,8,0:0:0:0:
256,192,216497,1,0,0:0:0:0:
256,192,216659,1,8,0:0:0:0:
256,192,217304,1,0,0:0:0:0:
256,192,217626,1,0,0:0:0:0:
256,192,217949,1,0,0:0:0:0:
256,192,218271,1,8,0:0:0:0:
256,192,218755,1,8,0:0:0:0:
256,192,219239,1,8,0:0:0:0:
256,192,219884,1,0,0:0:0:0:
256,192,220207,1,0,0:0:0:0:
256,192,220368,1,0,0:0:0:0:
256,192,220529,1,0,0:0:0:0:
256,192,220852,1,8,0:0:0:0:
256,192,221336,1,8,0:0:0:0:
256,192,221820,1,8,0:0:0:0:
256,192,222465,1,0,0:0:0:0:
256,192,222788,1,0,0:0:0:0:
256,192,223110,1,0,0:0:0:0:
256,192,223433,1,8,0:0:0:0:
256,192,223917,1,8,0:0:0:0:
256,192,224400,1,8,0:0:0:0:
256,192,225046,1,0,0:0:0:0:
256,192,225368,1,0,0:0:0:0:
256,192,225529,1,0,0:0:0:0:
256,192,225691,1,0,0:0:0:0:
256,192,226013,1,8,0:0:0:0:
256,192,226336,1,0,0:0:0:0:
256,192,226497,1,8,0:0:0:0:
256,192,226820,1,0,0:0:0:0:
256,192,226981,1,8,0:0:0:0:
