osu file format v14

[General]
AudioFilename: audio.mp3
AudioLeadIn: 0
PreviewTime: 21175
Countdown: 0
SampleSet: Normal
StackLeniency: 0.2
Mode: 1
LetterboxInBreaks: 0
WidescreenStoryboard: 1

[Editor]
Bookmarks: 10852,21175,62465,103755,124400,165691,206981,227626
DistanceSpacing: 0.3
BeatDivisor: 8
GridSize: 32
TimelineZoom: 2.6696

[Metadata]
Title:Yandere Complex
TitleUnicode:Yandere Complex
Artist:Sewerslvt
ArtistUnicode:Sewerslvt
Creator:Genjuro
Version:Futsuu
Source:
Tags:electronic instrumental atmospheric drum and bass jungle breakcore dnb & draining love story sewerslut
BeatmapID:2656738
BeatmapSetID:1276466

[Difficulty]
HPDrainRate:6
CircleSize:2
OverallDifficulty:4
ApproachRate:10
SliderMultiplier:1.4
SliderTickRate:1

[Events]
//Background and Video events
0,0,"bg.jpg",0,-35
//Break Periods
//Storyboard Layer 0 (Background)
//Storyboard Layer 1 (Fail)
//Storyboard Layer 2 (Pass)
//Storyboard Layer 3 (Foreground)
//Storyboard Layer 4 (Overlay)
//Storyboard Sound Samples

[TimingPoints]
530,322.58064516129,4,1,0,25,1,0
12102,-100,4,1,0,30,0,0
12586,-100,4,1,0,33,0,0
13392,-100,4,1,0,36,0,0
14683,-100,4,1,0,40,0,0
15167,-100,4,1,0,44,0,0
15650,-100,4,1,0,47,0,0
15973,-100,4,1,0,50,0,0
17263,-100,4,1,0,58,0,0
17747,-100,4,1,0,61,0,0
18554,-100,4,1,0,67,0,0
19844,-100,4,1,0,76,0,0
20328,-100,4,1,0,79,0,0
20812,-100,4,1,0,83,0,0
21134,-100,4,1,0,100,0,0
103716,-100,4,1,0,65,0,0
124360,-100,4,1,0,100,0,0
165691,-100,4,1,0,100,0,1
205691,-100,4,1,0,100,0,0
206941,-100,4,1,0,65,0,0

[HitObjects]
256,192,10852,5,0,0:0:0:0:
256,192,12142,1,0,0:0:0:0:
256,192,12626,1,0,0:0:0:0:
256,192,13433,1,0,0:0:0:0:
256,192,14723,1,0,0:0:0:0:
256,192,15207,1,0,0:0:0:0:
256,192,15691,1,0,0:0:0:0:
256,192,16013,1,0,0:0:0:0:
256,192,17304,1,0,0:0:0:0:
256,192,17788,1,0,0:0:0:0:
256,192,18594,1,0,0:0:0:0:
256,192,19884,1,0,0:0:0:0:
256,192,20368,1,0,0:0:0:0:
256,192,20852,1,0,0:0:0:0:
256,192,21175,1,4,0:0:0:0:
256,192,21659,1,8,0:0:0:0:
256,192,22142,1,8,0:0:0:0:
256,192,22465,1,0,0:0:0:0:
256,192,22626,1,8,0:0:0:0:
256,192,22949,1,0,0:0:0:0:
256,192,23755,1,0,0:0:0:0:
256,192,24239,1,8,0:0:0:0:
256,192,24723,1,8,0:0:0:0:
256,192,25046,1,0,0:0:0:0:
256,192,25368,1,8,0:0:0:0:
256,192,25529,1,8,0:0:0:0:
256,192,25691,1,0,0:0:0:0:
256,192,26336,1,0,0:0:0:0:
256,192,26820,1,8,0:0:0:0:
256,192,26981,1,0,0:0:0:0:
256,192,27304,1,8,0:0:0:0:
256,192,27626,1,0,0:0:0:0:
256,192,27788,1,8,0:0:0:0:
256,192,28110,1,0,0:0:0:0:
256,192,28917,1,0,0:0:0:0:
256,192,29400,1,8,0:0:0:0:
256,192,29562,1,0,0:0:0:0:
256,192,29884,1,8,0:0:0:0:
256,192,30207,1,0,0:0:0:0:
256,192,30529,1,8,0:0:0:0:
256,192,30691,1,8,0:0:0:0:
256,192,30852,1,0,0:0:0:0:
256,192,31497,1,0,0:0:0:0:
256,192,31981,1,8,0:0:0:0:
256,192,32465,1,8,0:0:0:0:
256,192,32788,1,0,0:0:0:0:
256,192,32949,1,8,0:0:0:0:
256,192,33271,1,0,0:0:0:0:
256,192,34078,1,0,0:0:0:0:
256,192,34562,1,8,0:0:0:0:
256,192,35046,1,8,0:0:0:0:
256,192,35368,1,0,0:0:0:0:
256,192,35691,1,8,0:0:0:0:
256,192,35852,1,8,0:0:0:0:
256,192,36013,1,0,0:0:0:0:
256,192,36659,1,0,0:0:0:0:
256,192,37142,1,8,0:0:0:0:
256,192,37304,1,0,0:0:0:0:
256,192,37626,1,8,0:0:0:0:
256,192,37949,1,0,0:0:0:0:
256,192,38110,1,8,0:0:0:0:
256,192,38433,1,0,0:0:0:0:
256,192,39239,1,0,0:0:0:0:
256,192,39723,1,8,0:0:0:0:
256,192,39884,1,0,0:0:0:0:
256,192,40207,1,8,0:0:0:0:
256,192,40529,1,0,0:0:0:0:
256,192,40852,1,8,0:0:0:0:
256,192,41013,1,8,0:0:0:0:
256,192,41175,1,0,0:0:0:0:
256,192,41820,1,0,0:0:0:0:
256,192,42304,1,8,0:0:0:0:
256,192,42788,1,8,0:0:0:0:
256,192,43110,1,0,0:0:0:0:
256,192,43594,1,0,0:0:0:0:
256,192,44400,1,0,0:0:0:0:
256,192,44884,1,8,0:0:0:0:
256,192,45368,1,8,0:0:0:0:
256,192,45691,1,0,0:0:0:0:
256,192,46013,1,8,0:0:0:0:
256,192,46175,1,8,0:0:0:0:
256,192,46336,1,0,0:0:0:0:
256,192,46981,1,0,0:0:0:0:
256,192,47465,1,8,0:0:0:0:
256,192,47949,1,8,0:0:0:0:
256,192,48271,1,0,0:0:0:0:
256,192,48433,1,8,0:0:0:0:
256,192,48755,1,0,0:0:0:0:
256,192,49562,1,0,0:0:0:0:
256,192,50046,1,8,0:0:0:0:
256,192,50529,1,8,0:0:0:0:
256,192,50852,1,0,0:0:0:0:
256,192,51175,1,8,0:0:0:0:
256,192,51336,1,8,0:0:0:0:
256,192,51497,1,0,0:0:0:0:
256,192,52142,1,0,0:0:0:0:
256,192,52626,1,8,0:0:0:0:
256,192,53110,1,8,0:0:0:0:
256,192,53433,1,0,0:0:0:0:
256,192,53917,1,0,0:0:0:0:
256,192,54723,1,0,0:0:0:0:
256,192,55207,1,8,0:0:0:0:
256,192,55691,1,8,0:0:0:0:
256,192,56013,1,0,0:0:0:0:
256,192,56336,1,8,0:0:0:0:
256,192,56497,1,8,0:0:0:0:
256,192,56659,1,0,0:0:0:0:
256,192,57304,1,0,0:0:0:0:
256,192,57788,1,8,0:0:0:0:
256,192,58271,1,8,0:0:0:0:
256,192,58594,1,0,0:0:0:0:
256,192,58755,1,8,0:0:0:0:
256,192,59078,1,0,0:0:0:0:
256,192,59884,1,0,0:0:0:0:
256,192,60368,1,8,0:0:0:0:
256,192,60852,1,8,0:0:0:0:
256,192,61175,1,0,0:0:0:0:
256,192,62465,1,4,0:0:0:0:
256,192,62788,1,8,0:0:0:0:
256,192,62949,1,0,0:0:0:0:
256,192,63110,1,8,0:0:0:0:
256,192,63433,1,0,0:0:0:0:
256,192,63755,1,8,0:0:0:0:
256,192,64078,1,8,0:0:0:0:
256,192,64400,1,0,0:0:0:0:
256,192,64562,1,0,0:0:0:0:
256,192,64723,1,8,0:0:0:0:
256,192,65046,1,0,0:0:0:0:
256,192,65691,1,8,0:0:0:0:
256,192,66013,1,8,0:0:0:0:
256,192,66336,1,0,0:0:0:0:
256,192,66659,1,8,0:0:0:0:
256,192,66820,1,8,0:0:0:0:
256,192,66981,1,0,0:0:0:0:
256,192,67626,1,0,0:0:0:0:
256,192,67949,1,8,0:0:0:0:
256,192,68110,1,8,0:0:0:0:
256,192,68271,1,8,0:0:0:0:
256,192,68594,1,0,0:0:0:0:
256,192,68917,1,8,0:0:0:0:
256,192,69239,1,0,0:0:0:0:
256,192,69400,1,8,0:0:0:0:
256,192,69562,1,0,0:0:0:0:
256,192,69884,1,8,0:0:0:0:
256,192,70207,1,0,0:0:0:0:
256,192,70852,1,8,0:0:0:0:
256,192,71175,1,8,0:0:0:0:
256,192,71497,1,0,0:0:0:0:
256,192,71820,1,8,0:0:0:0:
256,192,71981,1,8,0:0:0:0:
256,192,72142,1,0,0:0:0:0:
256,192,72788,1,0,0:0:0:0:
256,192,73110,1,8,0:0:0:0:
256,192,73433,1,0,0:0:0:0:
256,192,73594,1,8,0:0:0:0:
256,192,74078,1,8,0:0:0:0:
256,192,74400,1,8,0:0:0:0:
256,192,74723,1,0,0:0:0:0:
256,192,74884,1,0,0:0:0:0:
256,192,75046,1,8,0:0:0:0:
256,192,75368,1,0,0:0:0:0:
256,192,76013,1,8,0:0:0:0:
256,192,76336,1,8,0:0:0:0:
256,192,76659,1,0,0:0:0:0:
256,192,76981,1,8,0:0:0:0:
256,192,77142,1,8,0:0:0:0:
256,192,77304,1,0,0:0:0:0:
256,192,77949,1,0,0:0:0:0:
256,192,78433,1,0,0:0:0:0:
256,192,78917,1,0,0:0:0:0:
256,192,79239,1,8,0:0:0:0:
256,192,79400,1,0,0:0:0:0:
256,192,79562,1,8,0:0:0:0:
256,192,79884,1,8,0:0:0:0:
256,192,80046,1,0,0:0:0:0:
256,192,80207,1,8,0:0:0:0:
256,192,80529,1,0,0:0:0:0:
256,192,81175,1,8,0:0:0:0:
256,192,81497,1,8,0:0:0:0:
256,192,81820,1,0,0:0:0:0:
256,192,82142,1,8,0:0:0:0:
256,192,82304,1,8,0:0:0:0:
256,192,82465,1,0,0:0:0:0:
256,192,83110,1,0,0:0:0:0:
256,192,83594,1,8,0:0:0:0:
256,192,84078,1,8,0:0:0:0:
256,192,84400,1,0,0:0:0:0:
256,192,84562,1,8,0:0:0:0:
256,192,84884,1,0,0:0:0:0:
256,192,85691,1,0,0:0:0:0:
256,192,86175,1,8,0:0:0:0:
256,192,86659,1,8,0:0:0:0:
256,192,86981,1,0,0:0:0:0:
256,192,87304,1,8,0:0:0:0:
256,192,87465,1,8,0:0:0:0:
256,192,87626,1,0,0:0:0:0:
256,192,88271,1,0,0:0:0:0:
256,192,88755,1,0,0:0:0:0:
256,192,89239,1,8,0:0:0:0:
256,192,89562,1,0,0:0:0:0:
256,192,89884,1,8,0:0:0:0:
256,192,90207,1,0,0:0:0:0:
256,192,90368,1,0,0:0:0:0:
256,192,90529,1,8,0:0:0:0:
256,192,90852,1,0,0:0:0:0:
256,192,91497,1,8,0:0:0:0:
256,192,91820,1,8,0:0:0:0:
256,192,92142,1,0,0:0:0:0:
256,192,92465,1,8,0:0:0:0:
256,192,92626,1,8,0:0:0:0:
256,192,92788,1,0,0:0:0:0:
256,192,93433,1,0,0:0:0:0:
256,192,93755,1,8,0:0:0:0:
256,192,94078,1,0,0:0:0:0:
256,192,94239,1,8,0:0:0:0:
256,192,94400,1,8,0:0:0:0:
256,192,94723,1,0,0:0:0:0:
256,192,95046,1,8,0:0:0:0:
256,192,95368,1,0,0:0:0:0:
256,192,95529,1,0,0:0:0:0:
256,192,95691,1,8,0:0:0:0:
256,192,96013,1,0,0:0:0:0:
256,192,96659,1,8,0:0:0:0:
256,192,96981,1,8,0:0:0:0:
256,192,97304,1,0,0:0:0:0:
256,192,97626,1,8,0:0:0:0:
256,192,97788,1,8,0:0:0:0:
256,192,97949,1,0,0:0:0:0:
256,192,98594,1,0,0:0:0:0:
256,192,99078,1,8,0:0:0:0:
256,192,99562,1,8,0:0:0:0:
256,192,99884,1,0,0:0:0:0:
256,192,100046,1,8,0:0:0:0:
256,192,100368,1,0,0:0:0:0:
256,192,101175,1,0,0:0:0:0:
256,192,101659,1,8,0:0:0:0:
256,192,102142,1,8,0:0:0:0:
256,192,102465,1,0,0:0:0:0:
256,192,102788,1,8,0:0:0:0:
256,192,103271,1,8,0:0:0:0:
256,192,103755,1,0,0:0:0:0:
256,192,104723,1,8,0:0:0:0:
256,192,105691,1,8,0:0:0:0:
256,192,106336,1,0,0:0:0:0:
256,192,107304,1,8,0:0:0:0:
256,192,107788,1,8,0:0:0:0:
256,192,108271,1,8,0:0:0:0:
256,192,108917,1,0,0:0:0:0:
256,192,109884,1,8,0:0:0:0:
256,192,110852,1,8,0:0:0:0:
256,192,111497,1,0,0:0:0:0:
256,192,112465,1,8,0:0:0:0:
256,192,112949,1,8,0:0:0:0:
256,192,113433,1,8,0:0:0:0:
256,192,114078,1,0,0:0:0:0:
256,192,115046,1,8,0:0:0:0:
256,192,116013,1,8,0:0:0:0:
256,192,116659,1,0,0:0:0:0:
256,192,117626,1,8,0:0:0:0:
256,192,118110,1,8,0:0:0:0:
256,192,118594,1,8,0:0:0:0:
256,192,119239,1,0,0:0:0:0:
256,192,120207,1,8,0:0:0:0:
256,192,121175,1,8,0:0:0:0:
256,192,121820,1,0,0:0:0:0:
256,192,122788,1,8,0:0:0:0:
256,192,123271,1,8,0:0:0:0:
256,192,123755,1,0,0:0:0:0:
256,192,124400,1,4,0:0:0:0:
256,192,124884,1,8,0:0:0:0:
256,192,125368,1,8,0:0:0:0:
256,192,125691,1,0,0:0:0:0:
256,192,125852,1,8,0:0:0:0:
256,192,126175,1,0,0:0:0:0:
256,192,126981,1,0,0:0:0:0:
256,192,127465,1,8,0:0:0:0:
256,192,127949,1,8,0:0:0:0:
256,192,128271,1,0,0:0:0:0:
256,192,128594,1,8,0:0:0:0:
256,192,128755,1,8,0:0:0:0:
256,192,128917,1,0,0:0:0:0:
256,192,129562,1,0,0:0:0:0:
256,192,130046,1,8,0:0:0:0:
256,192,130207,1,0,0:0:0:0:
256,192,130529,1,8,0:0:0:0:
256,192,130852,1,0,0:0:0:0:
256,192,131013,1,8,0:0:0:0:
256,192,131336,1,0,0:0:0:0:
256,192,132142,1,0,0:0:0:0:
256,192,132626,1,8,0:0:0:0:
256,192,132788,1,0,0:0:0:0:
256,192,133110,1,8,0:0:0:0:
256,192,133433,1,0,0:0:0:0:
256,192,133755,1,8,0:0:0:0:
256,192,133917,1,8,0:0:0:0:
256,192,134078,1,0,0:0:0:0:
256,192,134723,1,0,0:0:0:0:
256,192,135207,1,8,0:0:0:0:
256,192,135691,1,8,0:0:0:0:
256,192,136013,1,0,0:0:0:0:
256,192,136175,1,8,0:0:0:0:
256,192,136497,1,0,0:0:0:0:
256,192,137304,1,0,0:0:0:0:
256,192,137788,1,8,0:0:0:0:
256,192,138271,1,8,0:0:0:0:
256,192,138594,1,0,0:0:0:0:
256,192,138917,1,8,0:0:0:0:
256,192,139078,1,8,0:0:0:0:
256,192,139239,1,0,0:0:0:0:
256,192,139884,1,0,0:0:0:0:
256,192,140368,1,8,0:0:0:0:
256,192,140529,1,0,0:0:0:0:
256,192,140852,1,8,0:0:0:0:
256,192,141175,1,0,0:0:0:0:
256,192,141336,1,8,0:0:0:0:
256,192,141659,1,0,0:0:0:0:
256,192,142465,1,0,0:0:0:0:
256,192,142949,1,8,0:0:0:0:
256,192,143110,1,0,0:0:0:0:
256,192,143433,1,8,0:0:0:0:
256,192,143755,1,0,0:0:0:0:
256,192,144078,1,8,0:0:0:0:
256,192,144239,1,8,0:0:0:0:
256,192,144400,1,0,0:0:0:0:
256,192,145046,1,0,0:0:0:0:
256,192,145529,1,8,0:0:0:0:
256,192,146013,1,8,0:0:0:0:
256,192,146336,1,0,0:0:0:0:
256,192,146820,1,0,0:0:0:0:
256,192,147626,1,0,0:0:0:0:
256,192,148110,1,8,0:0:0:0:
256,192,148594,1,8,0:0:0:0:
256,192,148917,1,0,0:0:0:0:
256,192,149239,1,8,0:0:0:0:
256,192,149400,1,8,0:0:0:0:
256,192,149562,1,0,0:0:0:0:
256,192,150207,1,0,0:0:0:0:
256,192,150691,1,8,0:0:0:0:
256,192,151175,1,8,0:0:0:0:
256,192,151497,1,0,0:0:0:0:
256,192,151659,1,8,0:0:0:0:
256,192,151981,1,0,0:0:0:0:
256,192,152788,1,0,0:0:0:0:
256,192,153271,1,8,0:0:0:0:
256,192,153755,1,8,0:0:0:0:
256,192,154078,1,0,0:0:0:0:
256,192,154400,1,8,0:0:0:0:
256,192,154562,1,8,0:0:0:0:
256,192,154723,1,0,0:0:0:0:
256,192,155368,1,0,0:0:0:0:
256,192,155852,1,8,0:0:0:0:
256,192,156336,1,8,0:0:0:0:
256,192,156659,1,0,0:0:0:0:
256,192,157142,1,0,0:0:0:0:
256,192,157949,1,0,0:0:0:0:
256,192,158433,1,8,0:0:0:0:
256,192,158917,1,8,0:0:0:0:
256,192,159239,1,0,0:0:0:0:
256,192,159562,1,8,0:0:0:0:
256,192,159723,1,8,0:0:0:0:
256,192,159884,1,0,0:0:0:0:
256,192,160529,1,0,0:0:0:0:
256,192,161013,1,8,0:0:0:0:
256,192,161497,1,8,0:0:0:0:
256,192,161820,1,0,0:0:0:0:
256,192,161981,1,8,0:0:0:0:
256,192,162304,1,0,0:0:0:0:
256,192,163110,1,0,0:0:0:0:
256,192,163594,1,8,0:0:0:0:
256,192,164078,1,8,0:0:0:0:
256,192,164400,1,0,0:0:0:0:
256,192,165691,1,4,0:0:0:0:
256,192,166013,1,8,0:0:0:0:
256,192,166336,1,0,0:0:0:0:
256,192,166497,1,0,0:0:0:0:
256,192,166659,1,8,0:0:0:0:
256,192,166981,1,0,0:0:0:0:
256,192,167304,1,8,0:0:0:0:
256,192,167465,1,0,0:0:0:0:
256,192,167626,1,8,0:0:0:0:
256,192,167949,1,0,0:0:0:0:
256,192,168271,1,0,0:0:0:0:
256,192,168917,1,8,0:0:0:0:
256,192,169239,1,8,0:0:0:0:
256,192,169562,1,0,0:0:0:0:
256,192,169884,1,8,0:0:0:0:
256,192,170046,1,8,0:0:0:0:
256,192,170207,1,0,0:0:0:0:
256,192,170852,1,8,0:0:0:0:
256,192,171175,1,0,0:0:0:0:
256,192,171497,1,8,0:0:0:0:
256,192,171659,1,8,0:0:0:0:
256,192,171820,1,8,0:0:0:0:
256,192,172142,1,0,0:0:0:0:
256,192,172465,1,8,0:0:0:0:
256,192,172626,1,0,0:0:0:0:
256,192,172788,1,8,0:0:0:0:
256,192,173110,1,0,0:0:0:0:
256,192,173433,1,0,0:0:0:0:
256,192,174078,1,8,0:0:0:0:
256,192,174400,1,8,0:0:0:0:
256,192,174723,1,0,0:0:0:0:
256,192,175046,1,8,0:0:0:0:
256,192,175207,1,8,0:0:0:0:
256,192,175368,1,0,0:0:0:0:
256,192,176013,1,0,0:0:0:0:
256,192,176336,1,8,0:0:0:0:
256,192,176497,1,0,0:0:0:0:
256,192,176659,1,0,0:0:0:0:
256,192,176981,1,8,0:0:0:0:
256,192,177304,1,0,0:0:0:0:
256,192,177626,1,8,0:0:0:0:
256,192,177788,1,0,0:0:0:0:
256,192,177949,1,8,0:0:0:0:
256,192,178271,1,0,0:0:0:0:
256,192,178594,1,0,0:0:0:0:
256,192,179239,1,8,0:0:0:0:
256,192,179562,1,8,0:0:0:0:
256,192,179884,1,0,0:0:0:0:
256,192,180207,1,8,0:0:0:0:
256,192,180368,1,8,0:0:0:0:
256,192,180529,1,0,0:0:0:0:
256,192,181175,1,8,0:0:0:0:
256,192,181497,1,0,0:0:0:0:
256,192,181659,1,8,0:0:0:0:
256,192,181820,1,8,0:0:0:0:
256,192,182142,1,8,0:0:0:0:
256,192,182465,1,0,0:0:0:0:
256,192,182788,1,8,0:0:0:0:
256,192,182949,1,0,0:0:0:0:
256,192,183110,1,8,0:0:0:0:
256,192,183433,1,0,0:0:0:0:
256,192,183755,1,0,0:0:0:0:
256,192,184400,1,8,0:0:0:0:
256,192,184723,1,8,0:0:0:0:
256,192,185046,1,0,0:0:0:0:
256,192,185368,1,8,0:0:0:0:
256,192,185529,1,8,0:0:0:0:
256,192,185691,1,0,0:0:0:0:
256,192,186336,1,0,0:0:0:0:
256,192,186659,1,8,0:0:0:0:
256,192,186981,1,0,0:0:0:0:
256,192,187142,1,0,0:0:0:0:
256,192,187304,1,8,0:0:0:0:
256,192,187626,1,0,0:0:0:0:
256,192,187949,1,8,0:0:0:0:
256,192,188110,1,0,0:0:0:0:
256,192,188271,1,8,0:0:0:0:
256,192,188594,1,0,0:0:0:0:
256,192,188917,1,8,0:0:0:0:
256,192,189239,1,0,0:0:0:0:
256,192,189562,1,8,0:0:0:0:
256,192,189884,1,8,0:0:0:0:
256,192,190207,1,0,0:0:0:0:
256,192,190529,1,8,0:0:0:0:
256,192,190691,1,8,0:0:0:0:
256,192,190852,1,0,0:0:0:0:
256,192,191497,1,8,0:0:0:0:
256,192,191820,1,0,0:0:0:0:
256,192,192142,1,8,0:0:0:0:
256,192,192304,1,8,0:0:0:0:
256,192,192465,1,8,0:0:0:0:
256,192,192788,1,0,0:0:0:0:
256,192,193110,1,8,0:0:0:0:
256,192,193271,1,0,0:0:0:0:
256,192,193433,1,8,0:0:0:0:
256,192,193755,1,0,0:0:0:0:
256,192,194078,1,8,0:0:0:0:
256,192,194400,1,0,0:0:0:0:
256,192,194723,1,8,0:0:0:0:
256,192,195046,1,8,0:0:0:0:
256,192,195368,1,0,0:0:0:0:
256,192,195691,1,8,0:0:0:0:
256,192,195852,1,8,0:0:0:0:
256,192,196013,1,0,0:0:0:0:
256,192,196659,1,0,0:0:0:0:
256,192,196981,1,8,0:0:0:0:
256,192,197142,1,0,0:0:0:0:
256,192,197304,1,0,0:0:0:0:
256,192,197626,1,8,0:0:0:0:
256,192,197949,1,0,0:0:0:0:
256,192,198271,1,8,0:0:0:0:
256,192,198433,1,0,0:0:0:0:
256,192,198594,1,8,0:0:0:0:
256,192,198917,1,0,0:0:0:0:
256,192,199239,1,8,0:0:0:0:
256,192,199562,1,0,0:0:0:0:
256,192,199884,1,8,0:0:0:0:
256,192,200207,1,8,0:0:0:0:
256,192,200529,1,0,0:0:0:0:
256,192,200852,1,8,0:0:0:0:
256,192,201013,1,8,0:0:0:0:
256,192,201175,1,0,0:0:0:0:
256,192,201820,1,8,0:0:0:0:
256,192,202142,1,0,0:0:0:0:
256,192,202304,1,8,0:0:0:0:
256,192,202465,1,8,0:0:0:0:
256,192,202788,1,8,0:0:0:0:
256,192,203110,1,0,0:0:0:0:
256,192,203433,1,8,0:0:0:0:
256,192,203594,1,0,0:0:0:0:
256,192,203755,1,8,0:0:0:0:
256,192,204078,1,0,0:0:0:0:
256,192,204400,1,8,0:0:0:0:
256,192,204723,1,0,0:0:0:0:
256,192,205046,1,8,0:0:0:0:
256,192,205368,1,8,0:0:0:0:
256,192,205691,1,0,0:0:0:0:
256,192,206013,1,8,0:0:0:0:
256,192,206497,1,8,0:0:0:0:
256,192,206981,1,0,0:0:0:0:
256,192,207949,1,8,0:0:0:0:
256,192,208917,1,8,0:0:0:0:
256,192,209562,1,0,0:0:0:0:
256,192,210529,1,8,0:0:0:0:
256,192,211013,1,8,0:0:0:0:
256,192,211497,1,8,0:0:0:0:
256,192,212142,1,0,0:0:0:0:
256,192,213110,1,8,0:0:0:0:
256,192,214078,1,8,0:0:0:0:
256,192,214723,1,0,0:0:0:0:
256,192,215691,1,8,0:0:0:0:
256,192,216175,1,8,0:0:0:0:
256,192,216659,1,8,0:0:0:0:
256,192,217304,1,0,0:0:0:0:
256,192,218271,1,8,0:0:0:0:
256,192,219239,1,8,0:0:0:0:
256,192,219884,1,0,0:0:0:0:
256,192,220852,1,8,0:0:0:0:
256,192,221336,1,8,0:0:0:0:
256,192,221820,1,8,0:0:0:0:
256,192,222465,1,0,0:0:0:0:
256,192,223433,1,8,0:0:0:0:
256,192,224400,1,8,0:0:0:0:
256,192,225046,1,0,0:0:0:0:
256,192,226013,1,8,0:0:0:0:
256,192,226497,1,8,0:0:0:0:
256,192,226981,1,8,0:0:0:0:
