osu file format v14

[General]
AudioFilename: audio.mp3
AudioLeadIn: 0
PreviewTime: 21181
Countdown: 0
SampleSet: Soft
StackLeniency: 0.7
Mode: 0
LetterboxInBreaks: 0
WidescreenStoryboard: 0
SamplesMatchPlaybackRate: 1

[Editor]
DistanceSpacing: 1.1
BeatDivisor: 4
GridSize: 32
TimelineZoom: 1.6

[Metadata]
Title:Yandere Complex
TitleUnicode:Yandere Complex
Artist:Sewerslvt
ArtistUnicode:Sewerslvt
Creator:228
Version:Obsession
Source:
Tags:AYE1337 Caspar sewerslut dnb drum and bass breakcore electronic instrumental draining love story fingercontrol stamina
BeatmapID:2912487
BeatmapSetID:1412956

[Difficulty]
HPDrainRate:6
CircleSize:4.5
OverallDifficulty:9
ApproachRate:9.4
SliderMultiplier:1.4
SliderTickRate:1

[Events]
//Background and Video events
0,0,"totallynotstolenbg.jpg",0,0
//Break Periods
2,122994,123866
//Storyboard Layer 0 (Background)
//Storyboard Layer 1 (Fail)
//Storyboard Layer 2 (Pass)
//Storyboard Layer 3 (Foreground)
//Storyboard Layer 4 (Overlay)
//Storyboard Sound Samples

[TimingPoints]
536,322.58064516129,4,2,0,60,1,0
10858,-133.333333333333,4,2,1,45,0,0
15697,-66.6666666666667,4,2,1,50,0,0
16503,-100,4,2,1,55,0,0
20535,-76.9230769230769,4,2,1,60,0,0
20697,-66.6666666666667,4,2,1,65,0,0
20858,-50,4,2,1,80,0,0
21181,-66.6666666666667,4,2,1,75,0,0
25697,-50,4,2,1,75,0,0
26342,-66.6666666666667,4,2,1,75,0,0
36019,-58.8235294117647,4,2,1,75,0,0
36665,-66.6666666666667,4,2,1,75,0,0
46503,-50,4,2,1,75,0,0
46826,-66.6666666666667,4,2,1,75,0,0
56826,-50,4,2,1,75,0,0
57310,-66.6666666666667,4,2,1,75,0,0
62148,-133.333333333333,4,2,1,75,0,0
62471,-66.6666666666667,4,2,1,75,0,0
77471,-50,4,2,1,75,0,0
77955,-66.6666666666667,4,2,1,75,0,0
87632,-50,4,2,1,75,0,0
88277,-66.6666666666667,4,2,1,75,0,0
97955,-50,4,2,1,75,0,0
98600,-66.6666666666667,4,2,1,75,0,0
104729,-133.333333333333,4,2,1,55,0,0
124406,-57.1428571428571,4,2,1,75,0,0
165374,-50,4,2,1,75,0,0
165697,-100,4,3,1,85,0,1
170213,-50,4,3,1,85,0,1
170858,-100,4,3,1,85,0,1
180535,-50,4,3,1,85,0,1
181181,-100,4,3,1,85,0,1
190858,-50,4,3,1,85,0,1
191503,-100,4,3,1,85,0,1
201181,-50,4,3,1,85,0,1
201826,-100,4,3,1,85,0,1
206019,-66.6666666666667,4,3,1,85,0,1
206987,-133.333333333333,4,2,1,55,0,0
222471,-133.333333333333,4,2,1,50,0,0
226987,-133.333333333333,4,2,1,55,0,0

[Colours]
Combo1 : 85,163,196
Combo2 : 225,91,91
Combo3 : 109,101,216
Combo4 : 210,106,200

[HitObjects]
68,103,10858,6,0,P|52:181|43:221,1,105.000004005432,2|8,3:2|2:2,0:0:0:0:
98,366,11342,1,0,3:3:0:0:
105,375,11665,1,10,2:2:0:0:
142,298,11826,1,2,0:0:0:0:
154,294,11906,1,0,0:0:0:0:
167,291,11987,1,2,0:0:0:0:
180,289,12068,1,0,0:0:0:0:
193,287,12148,5,2,3:2:0:0:
261,335,12310,1,0,3:3:0:0:
338,288,12471,1,10,2:2:0:0:
314,201,12632,2,0,P|268:189|240:184,1,52.5000020027161,2|0,3:2|0:0,0:0:0:0:
452,56,12955,6,0,P|442:75|436:89,1,26.2500010013581,8|0,2:2|0:0,0:0:0:0:
459,152,13116,1,0,3:0:0:0:
462,161,13197,1,0,0:0:0:0:
466,170,13277,2,0,P|491:167|505:166,1,26.2500010013581,2|0,3:2|0:0,0:0:0:0:
298,110,13439,5,2,3:2:0:0:
303,124,13761,1,8,2:2:0:0:
243,18,13923,2,0,P|209:9|162:-2,1,78.7500030040742,2|0,3:2|0:0,0:0:0:0:
98,33,14245,2,0,L|105:70,1,26.2500010013581,10|0,2:2|0:0,0:0:0:0:
146,162,14406,1,2,0:0:0:0:
131,181,14487,1,0,0:0:0:0:
132,199,14568,1,2,0:0:0:0:
135,218,14648,1,0,0:0:0:0:
120,238,14729,6,0,P|126:262|130:280,1,26.2500010013581,2|0,3:2|0:0,0:0:0:0:
44,259,14890,2,0,P|50:283|54:301,1,26.2500010013581,0|0,3:3|0:0,0:0:0:0:
263,372,15052,6,0,L|276:333,1,26.2500010013581,10|0,2:2|0:0,0:0:0:0:
182,350,15213,1,0,3:3:0:0:
186,337,15294,1,0,0:0:0:0:
190,325,15374,1,10,2:2:0:0:
351,300,15535,1,0,3:3:0:0:
255,222,15697,2,0,B|240:207|240:207|231:108,1,105.000004005432,2|0,3:2|0:0,0:0:0:0:
319,6,16019,5,2,3:2:0:0:
328,13,16342,1,8,2:2:0:0:
418,131,16503,2,0,P|371:146|310:166,1,105,2|0,3:2|0:0,0:0:0:0:
318,163,16826,1,10,2:2:0:0:
423,292,16987,1,2,0:0:0:0:
445,275,17068,1,0,0:0:0:0:
444,244,17148,1,2,0:0:0:0:
468,228,17229,1,0,0:0:0:0:
471,198,17310,5,2,3:2:0:0:
467,5,17471,1,0,3:3:0:0:
353,72,17632,1,8,2:2:0:0:
353,72,17713,1,0,0:0:0:0:
353,72,17794,1,2,3:2:0:0:
33,125,18116,1,10,2:2:0:0:
96,25,18277,1,2,0:0:0:0:
128,53,18358,1,0,0:0:0:0:
124,88,18439,1,2,0:0:0:0:
154,118,18519,1,0,0:0:0:0:
147,154,18600,5,2,3:2:0:0:
32,376,18923,1,8,2:2:0:0:
110,338,19084,2,0,P|94:279|69:218,1,105,2|0,3:2|0:0,0:0:0:0:
26,183,19406,1,10,2:2:0:0:
249,336,19568,6,0,L|281:322,1,35,2|0,0:0|0:0,0:0:0:0:
238,259,19729,2,0,L|205:271,1,35,2|0,0:0|0:0,0:0:0:0:
0,278,19890,1,2,3:2:0:0:
80,238,20052,1,0,3:3:0:0:
52,370,20213,6,0,L|76:308,1,35,10|0,2:2|0:0,0:0:0:0:
85,219,20374,1,0,3:3:0:0:
150,361,20535,2,0,L|140:306,1,45.4999979171754,10|0,2:2|0:0,0:0:0:0:
92,201,20697,2,0,L|106:139,1,52.5000020027161,0|0,3:3|0:0,0:0:0:0:
11,15,20858,6,0,L|83:42,1,70,2|0,3:3|0:0,0:0:0:0:
190,128,21019,2,0,L|277:111,1,70
390,22,21181,6,0,P|443:47|459:116,1,105.000004005432,4|2,1:1|0:0,0:0:0:0:
371,288,21503,1,10,3:2:0:0:
490,166,21665,1,2,1:3:0:0:
512,280,21826,2,0,P|458:247|389:221,1,105.000004005432,0|8,3:0|3:2,0:0:0:0:
213,217,22148,2,0,P|163:232|110:275,1,105.000004005432,2|0,1:3|0:0,0:0:0:0:
63,311,22390,1,0,3:0:0:0:
56,326,22471,6,0,B|282:376,1,210.000008010865,2|8,1:3|3:2,0:0:0:0:
139,210,22955,2,0,B|109:57|109:57|47:-13,1,210.000008010865,2|8,1:3|3:2,0:0:0:0:
0,175,23439,1,2,3:2:0:0:
26,169,23519,1,0,3:0:0:0:
51,161,23600,1,2,3:2:0:0:
76,154,23681,1,0,3:0:0:0:
101,146,23761,5,4,1:1:0:0:
190,50,23923,1,0,3:0:0:0:
214,235,24084,2,0,L|278:221,1,52.5000020027161,10|0,3:2|0:0,0:0:0:0:
314,153,24245,2,0,P|387:148|436:232,1,157.500006008148,2|0,1:3|0:0,0:0:0:0:
435,209,24568,1,8,3:2:0:0:
332,341,24729,2,0,L|353:214,1,105.000004005432,2|0,1:3|0:0,0:0:0:0:
268,3,25052,5,2,1:3:0:0:
217,79,25213,1,10,3:2:0:0:
277,0,25374,1,8,3:2:0:0:
355,64,25535,2,0,L|291:81,1,52.5000020027161,10|0,3:2|0:0,0:0:0:0:
173,263,25697,6,2,P|165:159|-15:130,1,280,6|0,1:3|0:0,0:1:0:0:
15,110,26100,1,0,3:0:0:0:
15,110,26181,1,2,3:2:0:0:
13,376,26342,6,0,P|7:312|-4:259,1,105.000004005432,4|2,1:1|0:0,0:0:0:0:
126,158,26665,1,10,3:2:0:0:
106,280,26826,2,0,P|176:305|246:338,1,105.000004005432,2|0,1:3|0:0,0:0:0:0:
126,147,27148,1,8,3:2:0:0:
215,64,27310,1,2,1:3:0:0:
215,64,27390,1,0,0:0:0:0:
215,64,27471,1,0,3:0:0:0:
370,155,27632,6,0,B|316:193|316:193|258:176,1,105.000004005432,2|0,1:3|0:0,0:0:0:0:
374,346,27955,1,8,3:2:0:0:
491,288,28116,2,0,P|433:268|362:252,1,105.000004005432,2|0,1:3|0:0,0:0:0:0:
209,236,28439,1,8,3:2:0:0:
231,384,28600,1,2,3:2:0:0:
241,359,28681,1,0,3:0:0:0:
254,336,28761,1,2,3:2:0:0:
268,315,28842,1,0,3:0:0:0:
285,294,28923,5,4,1:1:0:0:
375,298,29084,1,0,3:0:0:0:
414,373,29245,1,10,3:2:0:0:
512,263,29406,2,0,P|465:238|416:220,1,105.000004005432,2|0,1:3|0:0,0:0:0:0:
486,151,29729,1,8,3:2:0:0:
447,33,29890,6,0,L|414:99,1,52.5000020027161,2|0,1:3|0:0,0:0:0:0:
311,229,30052,1,2,1:2:0:0:
311,229,30132,1,0,3:0:0:0:
311,229,30213,6,0,L|278:295,1,52.5000020027161,2|0,1:3|0:0,0:0:0:0:
338,80,30374,2,0,L|272:113,1,52.5000020027161,10|0,3:2|0:0,0:0:0:0:
237,162,30535,2,0,L|171:129,1,52.5000020027161,8|0,3:2|0:0,0:0:0:0:
153,69,30697,1,10,3:2:0:0:
13,257,30858,6,0,L|70:240,1,52.5000020027161,6|0,1:3|0:0,0:0:0:0:
173,300,31019,2,2,P|137:220|75:98,1,210.000008010865,8|0,3:2|0:0,0:0:0:0:
223,19,31503,6,0,B|256:83|256:83|152:131,1,157.500006008148,4|0,1:1|0:0,0:0:0:0:
178,118,31826,1,10,3:2:0:0:
361,22,31987,2,0,L|296:216,1,157.500006008148,2|0,1:3|0:0,0:0:0:0:
310,171,32310,1,8,3:2:0:0:
475,67,32471,2,0,L|398:113,1,52.5000020027161,2|0,1:3|0:0,0:0:0:0:
416,179,32632,1,2,3:2:0:0:
416,179,32713,1,0,3:0:0:0:
416,179,32794,6,0,L|452:215,1,52.5000020027161,2|0,1:3|0:0,0:0:0:0:
335,97,32955,1,2,0:0:0:0:
236,277,33116,1,10,3:2:0:0:
212,179,33277,2,0,B|310:221|310:221|333:286,1,157.500006008148,2|0,1:3|0:0,0:0:0:0:
326,268,33600,1,8,3:2:0:0:
377,363,33761,1,2,3:2:0:0:
377,363,33842,1,0,3:0:0:0:
377,363,33923,2,0,L|312:349,1,52.5000020027161,2|0,3:2|0:0,0:0:0:0:
149,319,34084,6,0,B|224:308|224:308|252:274,1,105.000004005432,4|0,1:1|0:0,0:0:0:0:
15,341,34406,1,8,3:2:0:0:
75,267,34568,2,0,P|60:199|29:106,1,157.500006008148,2|0,1:3|0:0,0:0:0:0:
32,115,34890,1,8,3:2:0:0:
156,175,35052,2,0,P|215:153|278:134,1,105.000004005432,2|0,1:3|0:0,0:0:0:0:
312,91,35294,1,0,3:0:0:0:
312,91,35374,6,0,L|282:14,1,52.5000020027161,2|0,1:3|0:0,0:0:0:0:
217,245,35535,2,0,L|247:322,1,52.5000020027161,10|0,3:2|0:0,0:0:0:0:
175,84,35697,2,0,L|98:54,1,52.5000020027161,8|0,3:2|0:0,0:0:0:0:
77,149,35858,2,0,L|0:179,1,52.5000020027161,10|0,3:2|0:0,0:0:0:0:
68,384,36019,6,2,P|115:266|170:166,1,238.00000453949,6|0,1:3|1:0,0:1:0:0:
360,171,36503,1,2,1:2:0:0:
372,191,36584,1,0,3:0:0:0:
384,214,36665,6,0,L|505:199,1,105.000004005432,4|2,1:1|0:0,0:0:0:0:
512,384,36987,2,0,L|481:319,1,52.5000020027161,10|0,3:2|0:0,0:0:0:0:
396,307,37148,2,0,L|260:250,1,105.000004005432,2|0,1:3|0:0,0:0:0:0:
202,353,37471,2,0,L|226:288,1,52.5000020027161,8|0,3:2|0:0,0:0:0:0:
304,181,37632,2,0,L|323:64,1,105.000004005432,2|0,1:3|0:0,0:0:0:0:
285,9,37874,1,0,0:0:0:0:
285,9,37955,5,2,1:3:0:0:
389,30,38116,1,2,0:0:0:0:
396,141,38277,2,0,L|345:115,1,52.5000020027161,8|0,3:2|0:0,0:0:0:0:
194,31,38439,2,0,P|97:43|64:119,1,157.500006008148,2|0,1:3|0:0,0:0:0:0:
67,87,38761,1,8,3:2:0:0:
207,147,38923,1,2,3:2:0:0:
215,171,39003,1,0,3:0:0:0:
222,197,39084,1,2,3:2:0:0:
228,222,39165,1,0,3:0:0:0:
232,250,39245,6,0,B|307:258|307:258|345:220,1,105.000004005432,4|0,1:1|0:0,0:0:0:0:
90,345,39568,1,10,3:2:0:0:
89,258,39729,2,0,P|172:305|266:384,1,210.000008010865,2|8,1:3|3:2,0:0:0:0:
83,243,40213,2,0,P|65:182|36:131,1,105.000004005432,2|0,1:3|0:0,0:0:0:0:
0,384,40535,6,0,L|20:315,1,52.5000020027161,2|0,1:3|0:0,0:0:0:0:
85,251,40697,1,10,3:2:0:0:
200,281,40858,6,0,L|269:261,1,52.5000020027161,8|0,3:2|0:0,0:0:0:0:
289,198,41019,2,0,L|358:218,1,52.5000020027161,10|0,3:2|0:0,0:0:0:0:
461,328,41181,2,0,L|392:348,1,52.5000020027161,6|0,1:3|0:0,0:0:0:0:
410,165,41342,2,2,P|437:79|467:-8,1,157.500006008148,8|0,3:2|0:0,0:0:0:0:
458,15,41665,1,0,3:0:0:0:
494,237,41826,5,4,1:1:0:0:
498,248,42148,2,0,L|426:221,1,52.5000020027161,10|0,3:2|0:0,0:0:0:0:
316,179,42310,2,0,B|224:145|224:145|194:208,1,157.500006008148,2|0,1:3|0:0,0:0:0:0:
198,200,42632,1,8,3:2:0:0:
128,288,42794,2,0,L|91:174,1,105.000004005432,2|0,1:3|0:0,0:0:0:0:
0,64,43116,6,0,B|30:23|30:23|145:-1,1,157.500006008148,6|0,1:3|0:0,0:0:0:0:
144,0,43439,2,0,L|161:62,1,52.5000020027161,10|0,3:2|0:0,0:0:0:0:
259,152,43600,2,0,L|136:126,1,105.000004005432,6|0,1:3|0:0,0:0:0:0:
31,259,43923,1,8,3:2:0:0:
76,124,44084,2,2,L|65:91,2,26.2500010013581,2|0|0,1:2|0:0|0:0,0:0:0:0:
12,177,44245,1,2,3:2:0:0:
83,360,44406,6,0,L|198:388,1,105.000004005432,4|0,1:1|0:0,0:0:0:0:
369,282,44729,1,10,3:2:0:0:
312,384,44890,2,0,L|269:215,1,157.500006008148,2|0,1:3|0:0,0:0:0:0:
273,231,45213,1,8,3:2:0:0:
491,291,45374,2,0,L|517:164,1,105.000004005432,2|0,1:3|0:0,0:0:0:0:
309,21,45697,6,0,P|390:44|406:89,1,105.000004005432,2|10,1:3|3:2,0:0:0:0:
412,194,46019,2,0,L|360:201,1,52.5000020027161,8|0,3:2|0:0,0:0:0:0:
292,292,46181,2,0,L|285:240,1,52.5000020027161,10|0,3:2|0:0,0:0:0:0:
243,57,46342,2,0,L|192:50,1,52.5000020027161,6|0,1:3|0:0,0:0:0:0:
110,71,46503,6,2,P|217:163|328:91,1,280,8|0,3:2|0:0,0:1:0:0:
354,31,46906,1,0,0:0:0:0:
354,31,46987,6,0,L|481:16,1,105.000004005432,4|2,1:1|0:0,0:0:0:0:
245,174,47310,1,10,3:2:0:0:
283,281,47471,2,0,L|260:174,1,105.000004005432,2|0,1:3|0:0,0:0:0:0:
100,50,47794,1,8,3:2:0:0:
62,157,47955,2,0,L|85:50,1,105.000004005432,2|0,1:3|0:0,0:0:0:0:
30,7,48197,1,0,0:0:0:0:
30,7,48277,5,6,1:3:0:0:
35,24,48600,2,0,L|103:40,1,52.5000020027161,10|0,3:2|0:0,0:0:0:0:
192,74,48761,2,0,P|247:119|249:213,1,157.500006008148,6|0,1:3|0:0,0:0:0:0:
254,200,49084,1,8,3:2:0:0:
103,136,49245,2,2,L|-25:101,1,105.000004005432
42,206,49487,1,0,0:0:0:0:
43,213,49568,6,0,B|51:233|51:233|146:259|146:259|187:146,1,210.000008010865,4|10,1:1|3:2,0:0:0:0:
366,263,50052,2,0,L|275:291,1,52.5000020027161,2|0,1:3|0:0,0:0:0:0:
262,352,50213,2,0,L|221:234,1,105.000004005432,0|8,1:0|3:2,0:0:0:0:
0,384,50535,2,0,P|36:335|99:323,1,105.000004005432,2|0,1:3|0:0,0:0:0:0:
129,375,50777,1,0,0:0:0:0:
137,384,50858,6,0,L|243:356,1,105.000004005432,2|10,1:3|3:2,0:0:0:0:
469,377,51181,2,0,L|455:320,1,52.5000020027161,8|0,3:2|0:0,0:0:0:0:
335,264,51342,1,10,3:2:0:0:
449,105,51503,6,0,L|428:186,1,52.5000020027161,6|0,1:3|0:0,0:0:0:0:
375,346,51665,1,8,3:2:0:0:
512,228,51826,2,2,B|466:235|466:235|464:239|464:239|393:247,1,105.000004005432,2|2,1:2|0:0,0:0:0:0:
248,110,52148,6,0,P|284:34|386:5,1,157.500006008148,4|0,1:1|0:0,0:0:0:0:
347,3,52471,1,10,3:2:0:0:
175,160,52632,2,0,P|117:178|64:204,1,105.000004005432,2|0,1:3|0:0,0:0:0:0:
344,281,52955,1,8,3:2:0:0:
264,241,53116,2,0,L|258:187,1,52.5000020027161,2|0,1:3|0:0,0:0:0:0:
175,79,53277,1,2,3:2:0:0:
175,79,53358,1,0,3:0:0:0:
175,79,53439,6,0,L|163:15,1,52.5000020027161,6|0,1:3|0:0,0:0:0:0:
303,70,53600,1,2,0:0:0:0:
372,222,53761,2,0,P|448:207|503:198,1,105.000004005432,10|6,3:2|1:3,0:0:0:0:
479,8,54084,1,0,0:0:0:0:
408,120,54245,1,8,3:2:0:0:
347,14,54406,2,2,L|373:20,2,26.2500010013581,2|0|0,1:2|0:0|0:0,0:0:0:0:
296,76,54568,1,2,3:2:0:0:
118,25,54729,6,0,P|131:110|142:232,1,157.500006008148,4|0,1:1|0:0,0:0:0:0:
138,181,55052,1,10,3:2:0:0:
292,295,55213,2,0,P|308:245|327:196,1,105.000004005432,2|0,1:3|0:0,0:0:0:0:
348,364,55535,1,8,3:2:0:0:
223,249,55697,2,0,P|172:264|123:283,1,105.000004005432,2|0,1:3|0:0,0:0:0:0:
0,384,56019,6,0,B|22:382|22:382|41:287,1,105.000004005432,2|10,1:3|3:2,0:0:0:0:
6,211,56342,2,0,L|64:223,1,52.5000020027161,8|0,3:2|0:0,0:0:0:0:
195,345,56503,1,10,3:2:0:0:
230,127,56665,2,0,L|210:199,1,52.5000020027161,6|0,1:3|0:0,0:0:0:0:
297,220,56826,6,2,P|207:260|143:111,1,280,8|0,3:2|0:0,0:1:0:0:
481,52,57310,6,0,L|512:159,1,105.000004005432,4|2,1:1|0:0,0:0:0:0:
441,348,57632,1,10,3:2:0:0:
385,280,57794,2,0,L|422:161,1,105.000004005432,2|0,1:3|0:0,0:0:0:0:
390,290,58116,1,8,3:2:0:0:
334,154,58277,2,0,L|300:-22,1,157.500006008148,2|0,1:3|0:0,0:0:0:0:
335,9,58600,6,0,L|283:0,1,52.5000020027161,6|0,1:3|0:0,0:0:0:0:
397,89,58761,1,0,3:0:0:0:
237,71,58923,2,0,L|185:61,1,52.5000020027161,10|0,3:2|0:0,0:0:0:0:
323,171,59084,2,0,L|139:209,1,157.500006008148,6|0,1:3|0:0,0:0:0:0:
168,202,59406,1,8,3:2:0:0:
13,129,59568,2,2,L|60:136,2,26.2500010013581,2|0|0,1:2|0:0|0:0,0:0:0:0:
109,96,59729,1,2,3:2:0:0:
22,384,59890,6,0,P|50:302|94:194,1,157.500006008148,4|0,1:1|0:0,0:0:0:0:
92,236,60213,2,0,L|94:172,1,52.5000020027161,10|0,3:2|0:0,0:0:0:0:
142,384,60374,2,0,P|171:311|196:254,1,105.000004005432,2|0,1:3|0:0,0:0:0:0:
177,200,60697,2,0,L|229:201,1,52.5000020027161,8|0,3:2|0:0,0:0:0:0:
261,356,60858,2,0,P|333:375|381:392,1,105.000004005432,6|0,1:3|0:0,0:0:0:0:
507,289,61181,5,2,0:0:0:0:
507,289,62068,1,2,0:0:0:0:
507,289,62148,2,2,P|469:305|427:329,1,78.7500030040742,2|0,0:0|0:0,0:0:0:0:
374,279,62471,6,0,B|354:212|354:212|369:187|369:187|352:124,1,157.500006008148,12|0,1:1|0:0,0:0:0:0:
414,81,62794,1,10,3:2:0:0:
414,81,62874,1,0,0:0:0:0:
414,81,62955,1,2,1:3:0:0:
498,173,63116,6,0,L|433:153,1,52.5000020027161,0|0,1:0|0:0,0:0:0:0:
382,204,63277,1,10,3:2:0:0:
356,199,63358,1,0,0:0:0:0:
335,183,63439,1,10,1:3:0:0:
304,190,63519,1,0,0:0:0:0:
278,186,63600,1,2,0:0:0:0:
244,331,63761,6,0,L|208:211,1,105.000004005432,10|0,1:3|0:0,0:0:0:0:
144,198,64003,1,0,0:0:0:0:
144,198,64084,2,0,L|128:256,1,52.5000020027161,10|0,3:2|0:0,0:0:0:0:
149,323,64245,2,0,L|163:374,1,52.5000020027161,2|0,1:3|0:0,0:0:0:0:
14,200,64406,6,0,L|64:186,1,52.5000020027161,8|0,3:3|0:0,0:0:0:0:
103,116,64568,1,10,3:2:0:0:
128,120,64648,1,0,0:0:0:0:
157,114,64729,1,2,0:0:0:0:
179,130,64810,1,0,0:0:0:0:
205,136,64890,1,2,0:0:0:0:
319,132,65052,6,0,L|382:116,1,52.5000020027161,2|0,1:3|0:0,0:0:0:0:
443,82,65213,1,2,0:0:0:0:
443,82,65294,1,0,0:0:0:0:
443,82,65374,2,0,B|425:24|425:24|355:41,1,105.000004005432,10|2,3:2|1:3,0:0:0:0:
309,53,65616,1,0,0:0:0:0:
309,53,65697,1,2,0:0:0:0:
319,132,65858,1,8,3:2:0:0:
422,185,66019,1,10,1:3:0:0:
422,185,66100,1,0,0:0:0:0:
422,185,66181,1,2,0:0:0:0:
367,250,66342,6,0,L|346:313,1,52.5000020027161,10|0,1:3|0:0,0:0:0:0:
409,374,66503,1,10,3:2:0:0:
319,132,66665,2,0,L|335:181,1,52.5000020027161,8|0,3:2|0:0,0:0:0:0:
441,302,66826,1,10,3:2:0:0:
364,73,66987,5,6,1:3:0:0:
277,237,67148,2,2,P|363:212|465:198,1,157.500006008148,14|0,3:2|0:0,0:1:0:0:
491,260,67471,1,2,0:0:0:0:
491,260,67552,1,0,0:0:0:0:
491,260,67632,6,0,P|495:276|493:258,1,52.5000020027161,4|0,1:1|0:0,0:0:0:0:
501,152,67794,2,0,P|515:160|501:149,1,52.5000020027161,2|0,0:0|0:0,0:0:0:0:
433,37,67955,2,0,L|451:108,1,52.5000020027161,10|0,3:2|0:0,0:0:0:0:
376,126,68116,1,10,1:3:0:0:
376,126,68197,1,0,0:0:0:0:
376,126,68277,2,0,L|298:109,1,52.5000020027161,2|0,0:0|0:0,0:0:0:0:
219,132,68439,1,10,3:2:0:0:
168,116,68519,1,0,0:0:0:0:
118,101,68600,1,2,1:3:0:0:
108,94,68923,6,0,L|109:147,1,52.5000020027161,2|0,1:3|0:0,0:0:0:0:
147,233,69084,2,0,L|148:286,1,52.5000020027161,2|0,0:0|0:0,0:0:0:0:
41,384,69245,1,10,3:2:0:0:
45,365,69326,1,0,0:0:0:0:
44,347,69406,1,2,1:3:0:0:
55,330,69487,1,0,0:0:0:0:
60,313,69568,1,10,3:3:0:0:
171,370,69729,1,10,3:2:0:0:
252,238,69890,1,2,0:0:0:0:
247,219,69971,1,0,0:0:0:0:
248,201,70052,1,2,0:0:0:0:
237,184,70132,1,0,0:0:0:0:
232,167,70213,5,2,1:3:0:0:
337,216,70374,2,0,L|354:153,1,52.5000020027161,2|0,0:0|0:0,0:0:0:0:
318,61,70535,1,10,3:2:0:0:
294,53,70697,6,0,L|308:121,1,52.5000020027161,2|0,1:3|0:0,0:0:0:0:
405,276,70858,1,2,0:0:0:0:
416,292,71019,6,0,L|433:230,1,52.5000020027161,10|0,3:2|0:0,0:0:0:0:
418,160,71181,1,10,1:3:0:0:
436,164,71261,1,0,0:0:0:0:
454,163,71342,1,2,0:0:0:0:
471,174,71423,1,0,0:0:0:0:
488,179,71503,2,0,L|540:173,2,52.5000020027161,10|0|8,1:3|0:0|3:2,0:0:0:0:
457,334,71826,1,10,3:2:0:0:
434,327,71906,1,0,0:0:0:0:
412,329,71987,1,10,3:2:0:0:
391,315,72068,1,0,0:0:0:0:
370,309,72148,1,6,1:3:0:0:
347,310,72229,1,0,0:0:0:0:
325,304,72310,1,10,3:2:0:0:
302,315,72390,1,0,0:0:0:0:
280,316,72471,1,2,1:2:0:0:
98,375,72632,1,2,3:2:0:0:
98,375,72713,1,0,0:0:0:0:
98,375,72794,6,0,L|64:247,1,105.000004005432,4|2,1:1|0:0,0:0:0:0:
138,97,73116,2,0,L|149:154,1,52.5000020027161,10|0,3:2|0:0,0:0:0:0:
203,251,73277,1,2,1:3:0:0:
203,251,73358,1,0,0:0:0:0:
203,251,73439,2,0,L|147:231,1,52.5000020027161,2|0,0:0|0:0,0:0:0:0:
49,174,73600,1,10,3:2:0:0:
49,174,73681,1,0,0:0:0:0:
49,174,73761,1,10,1:3:0:0:
39,175,74084,6,0,B|39:148|39:148|56:174,1,52.5000020027161,10|0,1:3|0:0,0:0:0:0:
56,54,74245,2,0,B|56:27|56:27|73:53,1,52.5000020027161,2|0,0:0|0:0,0:0:0:0:
176,123,74406,2,0,L|113:111,1,52.5000020027161,10|0,3:2|0:0,0:0:0:0:
267,185,74568,1,2,1:3:0:0:
267,185,74648,1,0,0:0:0:0:
267,185,74729,2,0,L|336:177,1,52.5000020027161,8|0,3:3|0:0,0:0:0:0:
264,100,74890,1,10,3:2:0:0:
264,100,74971,1,0,0:0:0:0:
264,100,75052,2,0,L|256:31,1,52.5000020027161,2|0,0:0|0:0,0:0:0:0:
183,207,75213,1,2,0:0:0:0:
177,224,75294,1,0,0:0:0:0:
171,242,75374,6,0,L|184:306,1,52.5000020027161,10|0,1:3|0:0,0:0:0:0:
273,353,75535,1,2,0:0:0:0:
298,349,75616,1,0,0:0:0:0:
324,345,75697,1,10,3:2:0:0:
423,252,75858,1,2,1:3:0:0:
423,252,75939,1,0,0:0:0:0:
423,252,76019,2,0,L|414:340,1,52.5000020027161,2|0,0:0|0:0,0:0:0:0:
353,194,76181,1,10,3:2:0:0:
353,194,76261,1,0,0:0:0:0:
353,194,76342,2,0,L|362:106,1,52.5000020027161,10|0,1:3|0:0,0:0:0:0:
415,78,76503,1,2,0:0:0:0:
305,28,76665,6,0,L|169:50,1,105.000004005432,10|10,1:3|3:2,0:0:0:0:
165,168,76906,1,0,0:0:0:0:
165,168,76987,2,0,L|152:94,1,52.5000020027161,10|0,3:2|0:0,0:0:0:0:
350,137,77148,2,0,L|229:117,1,105.000004005432,10|6,3:2|1:3,0:0:0:0:
19,174,77471,6,2,P|187:215|310:255,1,280,14|2,3:2|0:0,0:1:0:0:
487,384,77955,6,0,P|467:300|455:252,1,105.000004005432,4|2,1:1|0:0,0:0:0:0:
412,226,78197,1,0,0:0:0:0:
412,226,78277,1,10,3:2:0:0:
348,348,78439,2,0,L|368:278,1,52.5000020027161,2|0,1:3|0:0,0:0:0:0:
363,163,78600,1,2,0:0:0:0:
363,163,78681,1,0,0:0:0:0:
363,163,78761,1,10,3:2:0:0:
512,299,78923,2,0,L|445:289,1,52.5000020027161,10|0,1:3|0:0,0:0:0:0:
449,159,79084,1,2,0:0:0:0:
279,256,79245,5,10,1:3:0:0:
239,229,79326,1,0,3:0:0:0:
225,184,79406,1,2,3:2:0:0:
244,140,79487,1,2,3:0:0:0:
288,126,79568,1,10,1:2:0:0:
286,172,79648,1,0,3:0:0:0:
254,207,79729,1,2,3:3:0:0:
206,211,79810,1,0,3:0:0:0:
170,180,79890,5,10,1:3:0:0:
122,180,79971,1,0,3:0:0:0:
93,217,80052,1,10,3:2:0:0:
97,263,80132,1,2,3:2:0:0:
136,288,80213,1,2,1:3:0:0:
132,335,80294,1,0,3:0:0:0:
94,363,80374,1,10,3:1:0:0:
47,356,80455,1,2,3:0:0:0:
24,315,80535,6,0,L|5:195,1,105.000004005432,4|0,1:1|0:0,0:0:0:0:
206,378,80858,2,0,L|223:310,1,52.5000020027161,10|0,3:2|0:0,0:0:0:0:
280,266,81019,2,0,L|263:198,1,52.5000020027161,2|0,1:3|0:0,0:0:0:0:
82,156,81181,2,0,L|63:36,1,105.000004005432,0|8,1:0|3:2,0:0:0:0:
126,9,81423,2,0,L|160:2,1,26.2500010013581,2|0,0:0|0:0,0:0:0:0:
133,15,81503,2,0,L|167:8,1,26.2500010013581,10|0,1:3|0:0,0:0:0:0:
140,21,81584,2,0,L|174:14,1,26.2500010013581,2|0,0:0|0:0,0:0:0:0:
147,27,81665,2,0,L|181:20,1,26.2500010013581,2|0,0:0|0:0,0:0:0:0:
154,33,81745,2,0,L|188:26,1,26.2500010013581,2|0,0:0|0:0,0:0:0:0:
174,47,81826,6,0,B|160:93|160:93|181:114,1,52.5000020027161,10|0,1:3|0:0,0:0:0:0:
224,156,81987,1,10,3:2:0:0:
314,127,82148,2,0,B|328:173|328:173|307:194,1,52.5000020027161,8|0,3:2|0:0,0:0:0:0:
224,156,82310,1,10,3:2:0:0:
97,204,82471,2,0,L|180:185,1,52.5000020027161,6|0,1:3|0:0,0:0:0:0:
224,156,82632,1,10,3:2:0:0:
230,181,82713,1,0,0:0:0:0:
236,207,82794,2,0,L|219:273,1,52.5000020027161,2|0,0:0|0:0,0:0:0:0:
254,328,82955,2,0,L|237:394,1,52.5000020027161,2|0,0:0|0:0,0:0:0:0:
465,309,83116,5,4,1:1:0:0:
480,322,83277,1,2,0:0:0:0:
330,240,83439,1,10,3:2:0:0:
319,256,83600,6,0,L|400:233,1,52.5000020027161,2|0,1:3|0:0,0:0:0:0:
497,202,83761,1,2,3:2:0:0:
501,218,83923,6,0,L|451:200,1,52.5000020027161,10|0,3:2|0:0,0:0:0:0:
369,141,84084,1,10,1:3:0:0:
477,63,84245,5,2,0:0:0:0:
393,0,84406,1,10,1:3:0:0:
281,105,84568,1,2,0:0:0:0:
281,105,84648,1,0,0:0:0:0:
281,105,84729,1,10,3:2:0:0:
217,42,84890,1,2,1:3:0:0:
107,104,85052,1,8,3:3:0:0:
25,5,85213,2,0,L|41:73,1,52.5000020027161,10|0,3:2|0:0,0:0:0:0:
42,173,85374,2,0,L|23:255,3,52.5000020027161,2|0|2|0,1:2|0:0|0:0|0:0,0:0:0:0:
102,260,85697,6,0,L|221:228,1,105.000004005432,10|2,1:3|0:0,0:0:0:0:
43,309,86019,1,10,3:2:0:0:
195,321,86181,2,0,L|314:289,1,105.000004005432,2|0,1:3|0:0,0:0:0:0:
131,384,86503,2,0,L|113:305,1,52.5000020027161,10|0,3:2|0:0,0:0:0:0:
146,235,86665,1,10,1:3:0:0:
171,228,86745,1,0,0:0:0:0:
203,232,86826,1,2,0:0:0:0:
222,213,86906,1,0,0:0:0:0:
247,206,86987,5,10,1:3:0:0:
354,243,87148,1,10,3:2:0:0:
354,243,87229,1,0,0:0:0:0:
354,243,87310,1,10,3:2:0:0:
316,159,87471,2,0,L|324:90,1,52.5000020027161,10|0,3:2|0:0,0:0:0:0:
211,30,87632,6,2,P|348:77|526:154,1,280,4|0,1:3|0:0,0:1:0:0:
474,0,88116,1,0,3:0:0:0:
474,0,88197,1,0,0:0:0:0:
474,0,88277,6,0,P|414:45|396:85,1,105.000004005432,4|2,1:1|2:1,0:0:0:0:
470,255,88600,1,10,3:2:0:0:
472,128,88761,2,0,P|412:173|394:213,1,105.000004005432,2|2,1:3|2:1,0:0:0:0:
346,384,89084,2,0,L|396:375,1,26.2500010013581,10|0,3:2|0:0,0:0:0:0:
349,372,89165,2,0,L|399:363,1,26.2500010013581,2|0,0:0|0:0,0:0:0:0:
351,362,89245,2,0,L|334:248,1,105.000004005432,10|0,1:3|0:0,0:0:0:0:
512,350,89568,1,10,1:3:0:0:
497,345,89648,1,0,0:0:0:0:
477,348,89729,1,2,3:2:0:0:
466,336,89810,1,0,0:0:0:0:
451,332,89890,5,10,3:2:0:0:
398,198,90052,1,2,1:3:0:0:
259,228,90213,1,10,3:3:0:0:
244,223,90294,1,0,0:0:0:0:
224,226,90374,1,10,3:2:0:0:
213,214,90455,1,0,0:0:0:0:
198,210,90535,5,2,0:0:0:0:
35,279,90697,1,2,3:2:0:0:
46,289,90777,1,0,0:0:0:0:
58,299,90858,6,0,B|128:287|128:287|136:293|136:293|191:286,1,105.000004005432,10|2,1:3|0:0,0:0:0:0:
249,358,91181,2,0,L|234:290,1,52.5000020027161,10|0,3:2|0:0,0:0:0:0:
120,203,91342,1,2,1:3:0:0:
125,188,91423,1,0,0:0:0:0:
122,168,91503,1,2,0:0:0:0:
134,157,91584,1,0,0:0:0:0:
138,142,91665,5,10,3:2:0:0:
207,32,91826,2,0,L|267:20,2,52.5000020027161,10|0|2,1:3|0:0|0:0,0:0:0:0:
0,0,92148,6,0,L|72:15,1,52.5000020027161,10|0,1:3|0:0,0:0:0:0:
13,88,92310,1,10,3:2:0:0:
13,88,92390,1,0,0:0:0:0:
13,88,92471,2,0,L|85:103,1,52.5000020027161,10|0,3:2|0:0,0:0:0:0:
127,48,92632,1,10,3:2:0:0:
240,115,92794,5,6,1:3:0:0:
240,115,92874,1,0,0:0:0:0:
240,115,92955,2,0,L|312:130,1,52.5000020027161,10|0,3:2|0:0,0:0:0:0:
203,191,93116,2,0,L|275:206,1,52.5000020027161,2|0,0:0|0:0,0:0:0:0:
427,96,93277,1,2,1:2:0:0:
382,257,93439,5,4,1:1:0:0:
377,242,93519,1,0,0:0:0:0:
380,222,93600,1,2,0:0:0:0:
368,211,93681,1,0,0:0:0:0:
364,196,93761,1,10,3:2:0:0:
496,161,93923,2,0,L|469:239,1,52.5000020027161,2|0,1:3|0:0,0:0:0:0:
396,333,94084,1,2,0:0:0:0:
381,338,94165,1,0,0:0:0:0:
361,335,94245,1,10,3:2:0:0:
350,347,94326,1,0,0:0:0:0:
335,351,94406,1,10,1:3:0:0:
491,312,94568,2,0,L|464:390,1,52.5000020027161,2|0,1:2|0:0,0:0:0:0:
286,272,94729,6,0,L|209:257,1,52.5000020027161,10|0,1:3|0:0,0:0:0:0:
238,369,94890,1,2,0:0:0:0:
238,369,94971,1,0,0:0:0:0:
238,369,95052,1,10,3:2:0:0:
152,237,95213,2,0,L|137:118,1,105.000004005432,2|8,1:3|3:3,0:0:0:0:
58,98,95535,1,10,3:2:0:0:
61,205,95697,1,2,0:0:0:0:
49,201,95777,1,0,0:0:0:0:
33,203,95858,1,2,0:0:0:0:
25,194,95939,1,0,0:0:0:0:
13,191,96019,5,10,1:3:0:0:
25,305,96181,2,0,L|90:285,1,52.5000020027161,2|0,0:0|0:0,0:0:0:0:
152,237,96342,1,10,3:2:0:0:
218,364,96503,2,0,L|212:303,1,52.5000020027161,2|0,1:3|0:0,0:0:0:0:
152,237,96665,2,0,L|160:169,1,52.5000020027161,2|0,3:2|0:0,0:0:0:0:
241,43,96826,1,10,3:2:0:0:
261,146,96987,1,10,1:3:0:0:
261,146,97068,1,0,0:0:0:0:
261,146,97148,2,0,L|330:138,1,52.5000020027161,2|0,3:2|0:0,0:0:0:0:
410,20,97310,5,10,1:3:0:0:
488,89,97471,1,10,3:2:0:0:
405,116,97632,1,10,3:2:0:0:
405,116,97713,1,0,0:0:0:0:
405,116,97794,2,0,L|390:200,1,52.5000020027161,10|0,3:2|0:0,0:0:0:0:
512,219,97955,6,2,B|413:192|311:167|365:270|223:292,1,280,6|0,1:3|0:0,0:1:0:0:
349,376,98439,1,2,0:0:0:0:
431,384,98600,6,0,P|416:322|395:267,1,105.000004005432,14|2,1:1|0:0,0:0:0:0:
282,88,98923,2,0,P|267:150|246:205,1,105.000004005432,10|2,3:2|1:3,0:0:0:0:
100,280,99245,1,2,2:1:0:0:
100,280,99326,1,0,0:0:0:0:
100,280,99406,1,10,3:2:0:0:
161,337,99568,2,0,L|212:329,1,52.5000020027161,10|0,1:3|0:0,0:0:0:0:
114,198,99729,1,2,0:0:0:0:
114,198,99810,1,0,0:0:0:0:
114,198,99890,6,0,L|127:136,2,52.5000020027161,10|0|2,1:3|0:0|0:0,0:0:0:0:
0,360,100213,1,10,3:2:0:0:
84,384,100374,2,0,B|86:285|35:324|42:207,1,157.500006008148,2|0,1:3|0:0,0:0:0:0:
41,235,100697,1,10,3:2:0:0:
177,249,100858,1,2,0:0:0:0:
202,243,100938,1,0,0:0:0:0:
228,237,101019,1,2,0:0:0:0:
253,231,101099,1,0,0:0:0:0:
279,226,101181,6,0,B|284:265|284:265|326:283,1,52.5000020027161,6|2,1:1|0:0,0:0:0:0:
341,382,101342,2,0,B|375:365|375:365|377:341,1,52.5000020027161,2|0,0:0|3:2,0:0:0:0:
253,333,101503,1,8,3:2:0:0:
398,239,101665,5,10,1:1:0:0:
476,290,101826,1,2,0:0:0:0:
503,176,101987,2,0,L|437:184,1,52.5000020027161,8|0,3:2|0:0,0:0:0:0:
260,131,102148,2,0,B|346:150|346:150|364:183,1,105.000004005432,10|0,1:3|0:0,0:0:0:0:
319,369,102471,5,4,3:3:0:0:
110,1,102794,2,0,B|94:29|94:29|96:-9,1,52.5000020027161,10|0,1:2|0:0,0:0:0:0:
203,68,102956,1,0,1:0:0:0:
203,68,103036,1,0,3:3:0:0:
203,68,103117,2,0,B|179:90|179:90|217:78,1,52.5000020027161,0|0,3:3|0:0,0:0:0:0:
0,172,103278,6,0,B|19:144|19:144|-16:163,1,52.5000020027161,10|0,1:2|2:2,0:0:0:0:
109,247,103440,1,0,1:0:0:0:
109,247,103520,1,0,1:1:0:0:
109,247,103601,2,0,B|85:268|85:268|122:260,1,52.5000020027161,10|0,2:2|0:0,0:0:0:0:
108,129,103761,5,6,1:2:0:0:
0,384,104729,6,0,P|101:333|115:177,1,262.500010013581,2|0,0:0|0:0,0:0:0:0:
63,154,105696,1,0,0:0:0:0:
63,154,106019,1,0,0:0:0:0:
0,24,106342,6,0,P|98:56|253:124,1,262.500010013581,2|0,0:0|0:0,0:0:0:0:
288,185,107310,1,0,0:0:0:0:
512,0,108923,6,0,B|452:18|390:93|393:161|310:177,1,262.500010013581,2|0,0:0|0:0,0:0:0:0:
252,64,109890,2,0,P|285:136|347:315,1,262.500010013581,2|0,0:0|0:0,0:0:0:0:
302,377,110858,1,0,0:0:0:0:
302,377,111181,1,0,0:0:0:0:
512,384,111503,6,0,P|492:309|323:231,1,262.500010013581,2|0,0:0|0:0,0:0:0:0:
272,272,112471,1,0,0:0:0:0:
25,234,114084,6,2,P|90:260|260:356,1,262.500010013581,2|0,0:0|0:0,0:0:0:0:
67,384,115052,2,0,B|61:321|115:232|172:330|218:255|213:174,1,262.500010013581,2|0,0:0|0:0,0:0:0:0:
171,131,116020,1,0,0:0:0:0:
94,267,116342,1,0,0:0:0:0:
0,60,116665,6,0,P|51:70|117:84,1,105.000004005432,2|0,0:0|0:0,0:0:0:0:
164,29,117149,1,0,0:0:0:0:
164,29,117310,2,0,P|206:21|230:19,1,52.5000020027161,2|0,0:0|0:0,0:0:0:0:
286,46,117633,1,0,0:0:0:0:
488,4,119246,6,0,L|455:124,1,105.000004005432,2|0,0:0|0:0,0:0:0:0:
401,158,119729,1,0,0:0:0:0:
401,158,119891,2,0,L|405:221,1,52.5000020027161
492,256,120213,6,0,P|400:290|313:154,1,262.500010013581,2|0,0:0|0:0,0:0:0:0:
341,111,121181,1,0,0:0:0:0:
479,181,121504,1,0,0:0:0:0:
362,309,121826,6,0,P|301:323|245:339,1,105.000004005432,2|0,0:0|0:0,0:0:0:0:
193,297,122310,1,0,0:0:0:0:
193,297,122471,2,0,L|144:281,1,52.5000020027161,2|0,0:0|0:0,0:0:0:0:
79,318,122794,1,0,0:0:0:0:
353,384,124406,6,2,P|364:319|552:267,1,245.000002336502,4|10,1:1|3:2,0:0:0:0:
255,75,124890,2,0,P|320:116|312:245,1,183.750001752377,2|0,1:3|0:0,0:0:0:0:
334,219,125213,1,8,3:2:0:0:
175,362,125374,6,0,P|118:299|47:289,1,122.500001168251,2|0,1:3|0:0,0:0:0:0:
262,384,125697,2,0,P|252:299|144:154,1,245.000002336502,2|8,1:3|3:2,0:0:0:0:
349,346,126181,2,0,P|356:264|283:146,1,183.750001752377,2|0,1:3|0:0,0:0:0:0:
314,173,126503,1,8,3:2:0:0:
239,24,126665,1,2,0:0:0:0:
239,24,126745,1,0,0:0:0:0:
239,24,126826,1,2,0:0:0:0:
239,24,126906,1,0,0:0:0:0:
239,24,126987,6,0,P|207:141|183:293,1,245.000002336502,4|10,1:1|3:2,0:0:0:0:
100,48,127471,2,0,P|71:145|45:266,1,183.750001752377,2|0,1:3|0:0,0:0:0:0:
52,225,127794,1,8,3:2:0:0:
284,173,127955,6,0,P|219:150|157:135,1,122.500001168251,2|0,1:3|0:0,0:0:0:0:
128,349,128277,2,0,P|63:326|1:311,1,122.500001168251,2|10,1:3|3:2,0:0:0:0:
245,381,128600,2,0,L|275:304,1,61.2500005841255,8|0,3:2|0:0,0:0:0:0:
193,293,128761,2,0,L|223:216,1,61.2500005841255,10|0,3:2|0:0,0:0:0:0:
457,32,128923,6,2,B|283:54|465:223|286:248,1,306.250002920628,6|0,1:3|0:0,0:1:0:0:
284,172,129406,1,2,3:2:0:0:
288,168,129487,1,0,3:0:0:0:
293,166,129568,6,0,P|361:198|381:326,1,183.750001752377,4|0,1:1|0:0,0:0:0:0:
391,296,129890,1,10,3:2:0:0:
180,172,130052,2,0,P|213:91|399:107,1,245.000002336502,2|8,1:3|3:2,0:0:0:0:
114,251,130535,2,0,P|66:205|69:121,1,122.500001168251,2|0,1:3|0:0,0:0:0:0:
117,96,130777,1,0,0:0:0:0:
117,96,130858,6,0,P|56:75|-29:56,1,122.500001168251,2|0,1:3|0:0,0:0:0:0:
206,252,131181,1,8,3:2:0:0:
225,151,131342,2,0,P|109:190|0:244,1,245.000002336502,2|8,1:3|3:2,0:0:0:0:
310,371,131826,1,2,0:0:0:0:
310,371,131906,1,0,0:0:0:0:
310,371,131987,1,2,0:0:0:0:
310,371,132068,1,0,0:0:0:0:
310,371,132148,6,0,P|360:317|456:299,1,122.500001168251,4|0,1:1|0:0,0:0:0:0:
458,384,132471,1,10,3:2:0:0:
190,322,132632,2,0,P|183:235|265:117,1,183.750001752377,2|0,1:3|0:0,0:0:0:0:
224,150,132955,1,8,3:2:0:0:
283,251,133116,2,0,P|333:199|391:167,1,122.500001168251,2|0,1:3|0:0,0:0:0:0:
436,119,133358,1,0,0:0:0:0:
436,119,133439,6,0,P|422:43|406:-12,1,122.500001168251,2|10,1:3|3:2,0:0:0:0:
509,231,133761,2,0,L|442:211,1,61.2500005841255,8|0,3:2|0:0,0:0:0:0:
368,266,133923,2,0,L|426:283,1,61.2500005841255,10|0,3:2|0:0,0:0:0:0:
204,110,134084,6,0,L|217:191,1,61.2500005841255,6|0,1:3|0:0,0:0:0:0:
174,241,134245,1,8,3:2:0:0:
174,241,134326,2,2,B|109:254|109:254|108:262|108:262|44:274,1,122.500001168251,2|0,3:2|0:0,0:0:0:0:
60,270,134568,1,0,3:0:0:0:
0,0,134729,6,0,P|108:21|289:38,1,245.000002336502,4|10,1:1|3:2,0:0:0:0:
0,211,135213,2,0,P|27:120|115:106,1,183.750001752377,2|0,1:3|0:0,0:0:0:0:
105,102,135535,1,8,3:2:0:0:
123,308,135697,2,0,P|102:233|73:154,1,122.500001168251,2|0,1:3|0:0,0:0:0:0:
352,166,136019,5,2,1:3:0:0:
398,272,136181,2,0,P|340:255|280:244,1,122.500001168251,2|10,0:0|3:2,0:0:0:0:
237,384,136503,2,0,P|356:357|477:339,1,245.000002336502,2|8,1:3|3:2,0:0:0:0:
512,46,136987,1,2,0:0:0:0:
512,46,137068,1,0,0:0:0:0:
512,46,137148,1,2,0:0:0:0:
512,46,137229,1,0,0:0:0:0:
512,46,137310,6,0,P|439:64|456:168,1,183.750001752377,4|0,1:1|0:0,0:0:0:0:
442,157,137632,1,8,3:2:0:0:
348,25,137794,2,0,P|268:57|274:241,1,245.000002336502,2|8,1:3|3:2,0:0:0:0:
176,15,138277,2,0,P|98:17|51:73,1,122.500001168251,2|0,1:3|0:0,0:0:0:0:
6,279,138600,5,2,1:3:0:0:
45,134,138761,2,0,L|55:204,1,61.2500005841255,10|0,3:2|0:0,0:0:0:0:
118,228,138923,2,0,L|128:298,1,61.2500005841255,8|0,3:2|0:0,0:0:0:0:
195,324,139084,2,0,L|205:394,1,61.2500005841255,10|0,3:2|0:0,0:0:0:0:
29,364,139245,6,2,B|183:325|50:213|246:142,1,306.250002920628,6|0,1:3|0:0,0:1:0:0:
286,216,139729,1,2,3:2:0:0:
286,216,139810,1,0,3:0:0:0:
286,216,139890,6,0,P|364:226|428:101,1,183.750001752377,4|0,1:1|0:0,0:0:0:0:
430,154,140213,1,10,3:2:0:0:
379,384,140374,2,0,P|467:331|508:169,1,245.000002336502,2|8,1:3|3:2,0:0:0:0:
331,118,140858,2,0,P|310:48|319:-28,1,122.500001168251,2|0,1:3|0:0,0:0:0:0:
391,9,141100,1,0,0:0:0:0:
391,9,141181,6,0,P|452:22|516:45,1,122.500001168251,2|2,1:3|0:0,0:0:0:0:
367,205,141503,1,8,3:2:0:0:
241,146,141665,2,0,P|138:163|-19:206,1,245.000002336502,2|8,1:3|3:2,0:0:0:0:
0,0,142148,1,2,0:0:0:0:
0,0,142229,1,0,0:0:0:0:
0,0,142310,1,2,0:0:0:0:
0,0,142390,1,0,0:0:0:0:
0,0,142471,6,0,P|35:46|40:127,1,122.500001168251,4|0,1:1|0:0,0:0:0:0:
2,198,142794,1,10,3:2:0:0:
153,77,142955,2,0,P|120:167|88:297,1,183.750001752377,2|0,1:3|0:0,0:0:0:0:
97,251,143277,1,8,3:2:0:0:
313,79,143439,2,0,P|261:105|222:176,1,122.500001168251,2|0,1:3|0:0,0:0:0:0:
304,341,143761,6,0,P|403:378|462:405,1,122.500001168251,2|10,1:3|3:2,0:0:0:0:
371,185,144084,2,0,L|299:168,1,61.2500005841255,8|0,3:2|0:0,0:0:0:0:
248,263,144245,2,0,L|307:248,1,61.2500005841255,10|0,3:2|0:0,0:0:0:0:
512,114,144406,6,0,L|494:187,1,61.2500005841255,6|0,1:3|0:0,0:0:0:0:
512,255,144568,1,8,3:2:0:0:
512,255,144648,2,2,B|447:270|447:270|443:280|443:280|364:304,1,122.500001168251,2|0,3:2|0:0,0:0:0:0:
399,293,144890,1,0,3:0:0:0:
172,163,145052,6,0,L|149:27,1,122.500001168251,4|0,1:1|0:0,0:0:0:0:
321,126,145374,2,0,L|246:111,1,61.2500005841255,10|0,3:2|0:0,0:0:0:0:
44,148,145535,1,2,1:3:0:0:
36,159,145858,1,8,3:2:0:0:
106,225,146019,2,0,L|76:358,1,122.500001168251,2|0,1:3|0:0,0:0:0:0:
79,344,146261,1,0,0:0:0:0:
79,344,146342,6,0,L|217:377,1,122.500001168251,6|0,1:3|0:0,0:0:0:0:
0,285,146665,2,0,L|84:266,1,61.2500005841255,10|0,3:2|0:0,0:0:0:0:
173,210,146826,2,0,P|234:231|304:399,1,245.000002336502,6|8,1:3|3:2,0:0:0:0:
512,292,147310,2,2,B|534:204|534:204|500:166,1,122.500001168251
451,138,147552,1,0,0:0:0:0:
451,138,147632,6,0,L|306:113,1,122.500001168251,4|0,1:1|0:0,0:0:0:0:
437,0,147955,2,0,L|407:74,1,61.2500005841255,10|0,3:2|0:0,0:0:0:0:
438,223,148116,1,2,1:3:0:0:
443,239,148439,1,8,3:2:0:0:
273,190,148600,2,0,L|256:48,1,122.500001168251,2|0,1:3|0:0,0:0:0:0:
258,68,148842,1,0,0:0:0:0:
258,68,148923,6,0,L|118:82,1,122.500001168251,2|10,1:3|3:2,0:0:0:0:
22,211,149245,2,0,P|47:226|77:221,1,61.2500005841255,8|0,3:2|0:0,0:0:0:0:
24,96,149406,2,0,P|31:125|55:142,1,61.2500005841255,10|0,3:2|0:0,0:0:0:0:
111,353,149568,6,0,L|131:249,1,61.2500005841255,6|0,1:3|0:0,0:0:0:0:
170,200,149729,1,8,3:2:0:0:
170,200,149810,1,0,0:0:0:0:
170,200,149890,2,2,P|177:159|174:200,1,122.500001168251,2|0,1:2|0:0,0:0:0:0:
393,276,150213,6,0,L|535:246,1,122.500001168251,4|0,1:1|0:0,0:0:0:0:
450,127,150535,2,0,L|436:191,1,61.2500005841255,10|0,3:2|0:0,0:0:0:0:
481,368,150697,1,2,1:3:0:0:
488,381,151019,1,8,3:2:0:0:
350,344,151181,2,0,L|226:315,1,122.500001168251,2|0,1:3|0:0,0:0:0:0:
230,316,151423,1,0,0:0:0:0:
230,316,151503,6,0,P|150:342|110:406,1,122.500001168251,6|0,1:3|0:0,0:0:0:0:
104,190,151826,2,0,L|136:275,1,61.2500005841255,10|0,3:2|0:0,0:0:0:0:
319,362,151987,2,0,P|378:148|393:100,1,245.000002336502,6|8,1:3|3:2,0:0:0:0:
396,255,152471,2,2,B|343:278|343:278|304:214,1,122.500001168251,2|2,1:2|0:0,0:0:0:0:
168,8,152794,6,0,L|210:163,1,122.500001168251,4|0,1:1|0:0,0:0:0:0:
322,73,153116,2,0,L|251:52,1,61.2500005841255,10|0,3:2|0:0,0:0:0:0:
66,119,153277,1,2,1:3:0:0:
55,131,153600,1,8,3:2:0:0:
87,308,153761,2,0,L|122:182,1,122.500001168251,2|0,1:3|0:0,0:0:0:0:
119,189,154003,1,0,0:0:0:0:
119,189,154084,6,0,L|267:220,1,122.500001168251,2|10,1:3|3:2,0:0:0:0:
271,384,154406,2,0,L|257:315,1,61.2500005841255,8|0,3:2|0:0,0:0:0:0:
336,321,154568,2,0,L|323:260,1,61.2500005841255,10|0,3:2|0:0,0:0:0:0:
296,103,154729,6,0,L|195:127,1,61.2500005841255,6|0,1:3|0:0,0:0:0:0:
256,211,154890,1,8,3:2:0:0:
322,17,155052,2,2,P|370:62|370:143,1,122.500001168251
337,183,155294,1,0,0:0:0:0:
337,183,155374,6,0,P|235:166|69:140,1,245.000002336502,4|10,1:1|3:2,0:0:0:0:
0,14,155858,2,0,P|71:20|101:89,1,122.500001168251,2|0,1:3|0:0,0:0:0:0:
9,151,156181,2,0,L|25:59,1,61.2500005841255,8|0,3:2|0:0,0:0:0:0:
98,58,156342,1,2,1:3:0:0:
61,384,156665,6,0,L|39:244,1,122.500001168251,6|2,1:3|0:0,0:0:0:0:
86,191,156987,1,10,3:2:0:0:
151,384,157148,2,0,L|129:244,1,122.500001168251,6|0,1:3|0:0,0:0:0:0:
93,180,157471,1,8,3:2:0:0:
219,286,157632,1,2,3:2:0:0:
219,286,157713,1,0,3:0:0:0:
219,286,157794,1,2,0:0:0:0:
504,212,157955,6,0,P|412:250|394:415,1,245.000002336502,4|10,1:1|3:2,0:0:0:0:
261,220,158439,2,0,P|327:234|394:258,1,122.500001168251,2|0,1:3|0:0,0:0:0:0:
469,369,158761,2,0,L|481:287,1,61.2500005841255,8|0,3:2|0:0,0:0:0:0:
504,212,158923,1,2,1:3:0:0:
512,0,159245,5,2,1:3:0:0:
467,64,159406,2,0,L|383:32,1,61.2500005841255,10|0,3:2|0:0,0:0:0:0:
346,102,159568,2,0,L|308:20,1,61.2500005841255,8|0,3:2|0:0,0:0:0:0:
248,0,159729,2,0,L|226:57,1,61.2500005841255,10|0,3:2|0:0,0:0:0:0:
17,146,159890,6,0,P|98:162|108:243,1,122.500001168251,6|8,1:3|3:2,0:0:0:0:
164,279,160213,2,2,L|55:293,1,61.2500005841255,2|0,1:2|0:0,0:0:0:0:
20,264,160374,2,2,L|29:218,2,30.6250002920628,2|0|0,3:2|0:0|0:0,0:0:0:0:
254,384,160535,6,0,P|241:247|218:84,1,245.000002336502,4|10,1:1|3:2,0:0:0:0:
333,243,161019,2,0,P|299:312|247:287,1,122.500001168251,2|0,1:3|0:0,0:0:0:0:
113,359,161342,2,0,L|189:329,1,61.2500005841255,8|0,3:2|0:0,0:0:0:0:
199,257,161503,1,2,1:3:0:0:
24,0,161826,6,0,L|-5:147,1,122.500001168251,6|0,1:3|0:0,0:0:0:0:
33,205,162148,1,10,3:2:0:0:
117,13,162310,2,0,L|88:160,1,122.500001168251,6|0,1:3|0:0,0:0:0:0:
33,214,162632,1,8,3:2:0:0:
200,99,162794,1,2,3:2:0:0:
200,99,162874,1,0,3:0:0:0:
200,99,162955,1,2,0:0:0:0:
370,199,163116,6,0,P|294:241|247:406,1,245.000002336502,4|10,1:1|3:2,0:0:0:0:
388,384,163600,2,0,P|405:315|343:294,1,122.500001168251,2|0,1:3|0:0,0:0:0:0:
248,251,163923,2,0,L|233:156,1,61.2500005841255,8|0,3:2|0:0,0:0:0:0:
332,4,164084,2,0,L|305:124,1,122.500001168251,6|0,1:3|0:0,0:0:0:0:
356,308,164406,5,2,0:0:0:0:
356,308,165374,6,2,B|433:322|433:322|349:283,1,140,2|0,0:0|0:0,0:0:0:0:
115,384,165697,5,14,1:1:0:0:
66,315,165858,1,2,0:0:0:0:
72,290,165939,1,2,0:2:0:0:
138,229,166100,1,2,0:2:0:0:
132,204,166181,1,2,1:3:0:0:
126,179,166261,1,0,0:0:0:0:
120,154,166342,1,2,0:2:0:0:
201,298,166503,1,10,3:2:0:0:
261,238,166665,1,10,1:3:0:0:
286,232,166745,1,0,0:0:0:0:
311,226,166826,1,2,0:2:0:0:
450,383,166987,6,0,L|357:364,1,70,10|0,1:3|0:0,0:0:0:0:
259,365,167310,1,10,3:2:0:0:
396,256,167471,1,2,1:3:0:0:
421,250,167552,1,2,0:2:0:0:
356,153,167713,1,2,0:2:0:0:
350,128,167794,1,10,3:2:0:0:
259,200,167955,1,2,0:2:0:0:
234,206,168036,1,0,0:0:0:0:
209,212,168116,1,2,0:2:0:0:
104,142,168277,5,2,1:3:0:0:
99,116,168357,1,0,0:0:0:0:
94,90,168438,1,2,0:2:0:0:
90,64,168518,1,0,0:0:0:0:
85,38,168600,1,10,3:2:0:0:
193,92,168761,2,0,L|255:107,3,35,2|0|0|0,1:3|0:0|0:0|0:0,0:0:0:0:
106,146,169084,1,10,3:2:0:0:
305,29,169245,6,0,L|270:37,3,35,10|0|0|0,1:3|0:0|0:0|0:0,0:0:0:0:
392,78,169568,2,0,L|415:179,1,70,10|10,1:3|3:2,0:0:0:0:
487,2,169890,2,0,L|463:50,1,35,10|0,3:2|0:0,0:0:0:0:
364,221,170052,1,10,3:2:0:0:
282,384,170213,6,2,B|323:139|438:328|526:136,1,350,6|0,1:3|0:0,0:1:0:0:
512,161,170697,1,2,0:2:0:0:
512,161,170777,1,0,0:0:0:0:
512,161,170858,5,4,1:1:0:0:
501,296,171019,1,2,0:0:0:0:
507,321,171100,1,2,0:2:0:0:
391,261,171261,1,2,0:2:0:0:
366,255,171342,1,10,1:3:0:0:
341,249,171422,1,0,0:0:0:0:
316,243,171503,1,2,0:2:0:0:
413,359,171665,1,10,3:2:0:0:
443,200,171826,1,2,1:3:0:0:
437,175,171906,1,0,0:0:0:0:
431,150,171987,1,2,0:2:0:0:
350,50,172148,6,0,P|291:61|253:72,1,70,2|0,1:3|0:0,0:0:0:0:
139,92,172471,1,10,3:2:0:0:
133,67,172552,1,2,0:0:0:0:
127,42,172632,1,2,1:3:0:0:
121,17,172713,1,2,0:2:0:0:
67,167,172874,1,2,0:2:0:0:
92,173,172955,1,10,3:2:0:0:
117,179,173035,1,0,0:0:0:0:
142,185,173116,1,2,0:0:0:0:
167,179,173197,1,0,0:0:0:0:
192,173,173277,1,2,0:0:0:0:
217,167,173358,1,0,0:0:0:0:
245,172,173439,5,2,1:3:0:0:
206,270,173600,1,2,0:0:0:0:
200,295,173681,1,2,0:2:0:0:
101,300,173842,1,2,0:2:0:0:
95,325,173923,1,2,1:3:0:0:
89,350,174003,1,0,0:0:0:0:
83,375,174084,1,2,0:0:0:0:
200,295,174245,1,10,3:2:0:0:
50,237,174406,1,10,1:3:0:0:
25,243,174487,1,0,0:0:0:0:
0,249,174567,1,2,0:0:0:0:
200,295,174729,5,10,1:3:0:0:
263,384,174890,2,0,L|258:339,1,35,10|0,3:2|0:0,0:0:0:0:
307,287,175052,2,0,L|303:252,1,35,10|0,3:2|0:0,0:0:0:0:
350,188,175213,2,0,L|346:153,1,35,10|0,3:2|0:0,0:0:0:0:
390,334,175374,5,6,1:3:0:0:
434,228,175535,1,10,3:2:0:0:
434,228,175616,1,0,0:0:0:0:
434,228,175697,2,0,L|448:289,1,35,2|0,0:0|0:0,0:0:0:0:
494,321,175858,2,0,L|508:382,1,35,2|0,0:0|0:0,0:0:0:0:
433,137,176019,6,0,P|447:99|467:57,1,70,4|0,1:1|0:0,0:0:0:0:
368,0,176342,1,10,3:2:0:0:
279,69,176503,1,2,1:3:0:0:
206,12,176665,1,2,0:0:0:0:
181,6,176746,1,0,0:0:0:0:
156,0,176826,1,10,3:2:0:0:
48,86,176987,2,0,P|85:82|124:81,1,70,10|0,1:3|0:0,0:0:0:0:
117,80,177229,1,0,0:0:0:0:
117,80,177310,5,10,1:3:0:0:
202,142,177471,1,0,0:0:0:0:
190,238,177632,1,10,3:2:0:0:
101,178,177794,1,2,1:3:0:0:
76,184,177875,1,0,0:0:0:0:
51,190,177955,1,8,3:3:0:0:
26,196,178036,1,0,0:0:0:0:
1,202,178116,1,10,3:2:0:0:
22,353,178277,1,2,0:0:0:0:
88,300,178439,1,2,0:0:0:0:
113,306,178520,1,0,0:0:0:0:
139,310,178600,6,0,P|181:299|216:293,1,70,10|0,1:3|0:0,0:0:0:0:
266,208,178923,1,10,3:2:0:0:
257,379,179084,2,0,P|299:368|334:362,1,70,2|0,1:3|0:0,0:0:0:0:
473,331,179406,1,10,3:2:0:0:
369,271,179568,1,10,1:3:0:0:
449,225,179729,1,2,0:0:0:0:
455,200,179810,1,0,0:0:0:0:
461,175,179890,5,10,1:3:0:0:
314,182,180052,2,0,L|377:167,1,35,10|0,3:2|0:0,0:0:0:0:
246,94,180213,2,0,L|301:127,1,35,10|0,3:2|0:0,0:0:0:0:
292,0,180374,2,0,L|307:63,1,35,10|0,3:2|0:0,0:0:0:0:
505,55,180535,6,2,P|376:91|164:157,1,350,6|0,1:3|0:0,0:1:0:0:
182,165,181019,1,2,0:0:0:0:
182,165,181100,1,0,0:0:0:0:
182,165,181181,6,0,L|137:155,3,35,4|0|0|0,1:1|0:0|0:0|0:0,0:0:0:0:
239,223,181503,1,10,3:2:0:0:
39,227,181665,2,0,L|-5:236,3,35,2|0|2|0,1:3|0:0|0:0|0:0,0:0:0:0:
0,310,181987,1,10,3:2:0:0:
136,305,182148,2,0,P|127:253|119:215,1,70,10|0,1:3|0:0,0:0:0:0:
67,151,182390,1,0,0:0:0:0:
73,126,182471,5,10,1:3:0:0:
151,69,182632,1,0,0:0:0:0:
62,32,182794,1,10,1:2:0:0:
160,156,182955,1,2,3:3:0:0:
185,150,183036,1,0,0:0:0:0:
210,144,183116,1,10,1:3:0:0:
275,73,183277,1,10,3:2:0:0:
358,114,183439,1,2,1:3:0:0:
383,120,183520,1,0,0:0:0:0:
408,126,183600,1,8,3:2:0:0:
433,132,183681,1,0,0:0:0:0:
458,138,183761,5,4,1:1:0:0:
417,44,183923,1,2,0:0:0:0:
411,19,184004,1,2,0:2:0:0:
509,221,184165,1,2,0:2:0:0:
503,246,184246,1,2,1:3:0:0:
332,191,184406,1,2,0:0:0:0:
307,197,184487,1,0,0:0:0:0:
282,203,184567,1,10,3:2:0:0:
393,304,184729,1,10,1:3:0:0:
387,329,184810,1,0,0:0:0:0:
381,354,184890,1,2,0:0:0:0:
214,384,185052,5,10,1:3:0:0:
159,219,185213,2,0,L|171:262,1,35,10|0,3:2|0:0,0:0:0:0:
38,370,185374,2,0,L|29:337,1,35,10|0,3:2|0:0,0:0:0:0:
94,278,185535,2,0,L|103:311,1,35,10|0,3:2|0:0,0:0:0:0:
327,348,185697,6,0,P|344:298|359:260,1,70,6|8,1:3|3:2,0:0:0:0:
222,169,186019,2,0,L|231:135,3,35,2|0|2|0,0:0|0:0|0:0|0:0,0:0:0:0:
164,79,186342,5,4,1:1:0:0:
315,176,186503,1,2,0:0:0:0:
340,170,186584,1,2,0:2:0:0:
167,266,186826,5,2,1:3:0:0:
84,212,186987,1,2,0:0:0:0:
59,206,187068,1,0,0:0:0:0:
34,200,187148,1,10,3:2:0:0:
0,384,187310,1,10,1:3:0:0:
77,349,187471,1,2,0:0:0:0:
102,343,187552,1,0,0:0:0:0:
127,337,187632,5,10,1:3:0:0:
16,287,187794,1,0,0:0:0:0:
119,240,187955,1,10,3:2:0:0:
50,149,188116,1,2,1:3:0:0:
146,94,188277,1,8,3:3:0:0:
96,0,188439,1,10,3:2:0:0:
230,62,188600,1,2,0:0:0:0:
255,56,188681,1,0,0:0:0:0:
280,50,188761,1,2,0:0:0:0:
305,44,188842,1,0,0:0:0:0:
330,38,188922,5,10,1:3:0:0:
374,121,189084,1,0,0:0:0:0:
463,86,189245,1,10,3:2:0:0:
512,173,189406,1,2,1:3:0:0:
424,222,189568,1,2,0:0:0:0:
467,312,189729,1,10,3:2:0:0:
328,272,189890,1,10,1:3:0:0:
303,278,189971,1,0,0:0:0:0:
278,284,190051,1,2,0:0:0:0:
253,290,190132,1,0,0:0:0:0:
228,296,190212,5,10,1:3:0:0:
298,161,190374,2,0,L|279:209,1,35,10|0,3:2|0:0,0:0:0:0:
399,187,190535,2,0,L|366:200,1,35,10|0,3:2|0:0,0:0:0:0:
452,276,190697,2,0,L|419:263,1,35,10|0,3:2|0:0,0:0:0:0:
352,384,190858,6,2,P|324:253|400:44,1,350,6|0,1:3|0:0,0:1:0:0:
392,53,191342,1,2,0:0:0:0:
392,53,191423,1,0,0:0:0:0:
392,53,191503,5,4,1:1:0:0:
319,114,191665,1,2,0:0:0:0:
294,108,191746,1,2,0:2:0:0:
50,204,191987,5,2,1:3:0:0:
25,198,192068,1,0,0:0:0:0:
0,192,192148,1,2,0:0:0:0:
50,114,192310,1,10,3:2:0:0:
21,30,192471,1,10,1:3:0:0:
109,38,192632,1,2,0:0:0:0:
134,32,192713,1,0,0:0:0:0:
159,26,192793,5,10,1:3:0:0:
237,85,192955,1,0,0:0:0:0:
161,156,193116,1,10,3:2:0:0:
240,223,193277,1,2,1:3:0:0:
188,315,193439,1,10,3:3:0:0:
267,379,193600,1,10,3:2:0:0:
364,338,193761,1,2,0:0:0:0:
358,313,193842,1,0,0:0:0:0:
352,288,193922,1,2,0:0:0:0:
346,263,194003,1,0,0:0:0:0:
340,238,194083,5,10,1:3:0:0:
435,176,194245,1,2,0:0:0:0:
460,182,194326,1,2,0:2:0:0:
512,264,194487,1,2,0:2:0:0:
487,270,194568,1,2,1:3:0:0:
461,361,194729,1,2,0:0:0:0:
486,367,194810,1,0,0:0:0:0:
511,373,194890,1,10,3:2:0:0:
397,295,195052,1,10,1:3:0:0:
315,360,195213,1,2,0:0:0:0:
290,354,195294,1,0,0:0:0:0:
265,348,195374,5,10,1:3:0:0:
325,229,195535,2,0,L|314:179,1,35,10|0,3:2|0:0,0:0:0:0:
357,132,195697,2,0,L|346:82,1,35,10|0,3:2|0:0,0:0:0:0:
397,38,195858,2,0,L|386:-12,1,35,10|0,3:2|0:0,0:0:0:0:
443,192,196019,1,6,1:3:0:0:
443,192,196100,1,0,0:0:0:0:
443,192,196181,2,0,L|379:206,1,35,10|0,3:2|0:0,0:0:0:0:
350,144,196342,2,0,L|286:158,1,35,2|0,0:0|0:0,0:0:0:0:
253,113,196503,1,2,0:0:0:0:
253,113,196584,1,0,0:0:0:0:
253,113,196665,6,0,L|242:30,1,70,4|0,1:1|0:0,0:0:0:0:
152,4,196987,1,10,3:2:0:0:
88,68,197148,1,2,1:3:0:0:
127,149,197310,1,2,0:0:0:0:
152,155,197391,1,0,0:0:0:0:
177,161,197471,1,10,3:2:0:0:
70,227,197632,1,10,1:3:0:0:
76,252,197713,1,0,0:0:0:0:
82,277,197793,1,2,0:0:0:0:
88,302,197874,1,0,0:0:0:0:
93,326,197955,6,0,P|140:336|174:347,1,70,10|0,1:3|0:0,0:0:0:0:
272,216,198277,1,10,3:2:0:0:
257,368,198439,2,0,P|304:378|338:389,1,70,2|8,1:3|3:3,0:0:0:0:
344,286,198761,1,10,3:2:0:0:
450,284,198923,1,2,0:0:0:0:
456,259,199004,1,0,0:0:0:0:
462,234,199084,1,2,0:0:0:0:
468,209,199165,1,0,0:0:0:0:
474,184,199245,5,10,1:3:0:0:
414,79,199406,1,0,0:0:0:0:
469,0,199568,1,10,3:2:0:0:
317,47,199729,1,2,1:3:0:0:
236,11,199890,1,2,0:0:0:0:
236,11,199971,1,0,0:0:0:0:
236,11,200052,1,10,3:2:0:0:
144,229,200213,1,10,1:3:0:0:
256,159,200374,1,2,0:0:0:0:
331,218,200535,5,10,1:3:0:0:
443,148,200697,2,0,L|412:165,1,35,10|0,3:2|0:0,0:0:0:0:
462,259,200858,2,0,L|429:251,1,35,10|0,3:2|0:0,0:0:0:0:
343,112,201019,2,0,L|351:78,1,35,10|0,3:2|0:0,0:0:0:0:
511,127,201181,6,2,B|215:88|465:278|236:345,1,350,6|0,1:3|0:0,0:1:0:0:
293,319,201665,1,2,0:0:0:0:
293,319,201745,1,0,0:0:0:0:
293,319,201826,5,12,1:1:0:0:
189,282,201987,1,2,0:0:0:0:
162,288,202068,1,2,0:2:0:0:
53,344,202229,1,2,0:2:0:0:
28,338,202310,1,2,1:3:0:0:
2,216,202471,1,2,0:0:0:0:
1,180,202552,1,0,0:0:0:0:
28,160,202632,1,10,3:2:0:0:
106,69,202794,1,10,1:3:0:0:
113,43,202875,1,2,0:2:0:0:
187,145,203035,1,2,0:2:0:0:
212,151,203116,5,10,1:3:0:0:
311,81,203277,1,2,0:0:0:0:
340,101,203357,1,0,0:0:0:0:
337,138,203438,1,10,3:2:0:0:
255,255,203600,1,10,1:3:0:0:
250,291,203680,1,0,0:0:0:0:
263,329,203761,1,0,3:3:0:0:
283,354,203841,1,2,0:2:0:0:
387,268,204003,1,2,0:2:0:0:
413,261,204084,1,8,1:3:0:0:
457,148,204245,1,2,0:0:0:0:
476,118,204325,1,0,0:0:0:0:
512,121,204406,5,4,1:1:0:0:
438,0,204568,1,2,0:0:0:0:
418,29,204648,1,0,0:0:0:0:
382,27,204729,1,10,3:2:0:0:
342,138,204890,1,8,1:2:0:0:
239,92,205052,1,2,0:0:0:0:
210,72,205132,1,0,0:0:0:0:
212,36,205213,1,10,3:2:0:0:
293,237,205374,1,10,1:3:0:0:
273,266,205454,1,0,0:0:0:0:
237,263,205535,1,2,0:0:0:0:
132,179,205697,5,4,3:3:0:0:
86,384,206019,2,0,B|87:352|87:352|69:386,1,52.5000020027161,10|0,1:2|0:0,0:0:0:0:
0,196,206181,1,0,1:0:0:0:
0,196,206261,1,0,3:3:0:0:
0,196,206342,2,0,B|24:174|24:174|-14:186,1,52.5000020027161,0|0,3:3|0:0,0:0:0:0:
211,97,206503,6,0,B|208:130|208:130|229:96,1,52.5000020027161,10|0,1:2|2:2,0:0:0:0:
279,271,206665,1,0,1:0:0:0:
279,271,206745,1,0,1:1:0:0:
279,271,206826,2,0,B|255:292|255:292|292:284,1,52.5000020027161,10|0,2:2|0:0,0:0:0:0:
106,264,206987,5,6,1:2:0:0:
512,384,207955,6,0,B|497:263|351:328|350:187,1,262.500010013581,2|0,0:0|0:0,0:0:0:0:
398,137,208923,1,0,0:0:0:0:
478,131,209245,2,0,L|465:189,1,52.5000020027161
333,349,209568,6,0,P|264:328|69:286,1,262.500010013581,2|0,0:0|0:0,0:0:0:0:
111,375,210535,2,0,B|170:389|236:373|148:266|233:232|312:251,1,262.500010013581
366,288,211503,1,0,0:0:0:0:
11,173,212148,6,0,P|107:151|169:-5,1,262.500010013581,2|0,0:0|0:0,0:0:0:0:
32,67,213116,2,0,B|141:39|145:220|254:219,1,262.500010013581
291,166,214084,1,0,0:0:0:0:
450,67,214406,1,0,0:0:0:0:
342,2,214729,6,0,P|359:62|399:274,1,262.500010013581,2|0,0:0|0:0,0:0:0:0:
364,329,215697,1,0,0:0:0:0:
36,261,217310,6,2,B|0:317|31:398|137:387|173:356|164:275,1,262.500010013581,2|0,0:0|0:0,0:0:0:0:
123,226,218277,2,0,B|291:164|193:384|402:325,1,315.000012016297
505,34,219890,6,0,P|442:30|271:146,1,262.500010013581,2|0,0:0|0:0,0:0:0:0:
303,204,220858,2,0,P|385:186|428:180,1,105.000004005432
425,260,221342,2,0,P|460:278|518:323,1,105.000004005432
471,384,221826,1,0,0:0:0:0:
0,175,222471,6,0,B|73:166|90:92|81:16|181:0,1,262.500010013581,2|2,0:0|0:0,0:0:0:0:
212,72,223439,2,0,P|253:67|321:49,1,105.000004005432
337,135,223923,2,0,P|369:109|416:50,1,105.000004005432
466,139,224406,2,0,P|479:101|499:18,1,105.000004005432
310,384,225052,6,0,P|233:319|222:214,1,210.000008010865,2|0,0:0|0:0,0:0:0:0:
293,104,226019,1,0,0:0:0:0:
48,163,226503,1,0,0:0:0:0:
104,287,226987,2,2,B|112:329|89:391|-42:431|-13:303|71:364,1,210.000008010865,0|2,0:0|0:0,0:0:0:0:
