osu file format v14

[General]
AudioFilename: audio.mp3
AudioLeadIn: 0
PreviewTime: 21181
Countdown: 0
SampleSet: Soft
StackLeniency: 0.7
Mode: 0
LetterboxInBreaks: 0
WidescreenStoryboard: 1
SamplesMatchPlaybackRate: 1

[Editor]
DistanceSpacing: 0.7
BeatDivisor: 4
GridSize: 32
TimelineZoom: 1.6

[Metadata]
Title:Yandere Complex
TitleUnicode:Yandere Complex
Artist:Sewerslvt
ArtistUnicode:Sewerslvt
Creator:228
Version:Hard
Source:
Tags:AYE1337 Caspar sewerslut dnb drum and bass breakcore electronic instrumental draining love story fingercontrol stamina
BeatmapID:4296665
BeatmapSetID:1412956

[Difficulty]
HPDrainRate:4
CircleSize:3.5
OverallDifficulty:6
ApproachRate:8
SliderMultiplier:1.1
SliderTickRate:1

[Events]
//Background and Video events
0,0,"totallynotstolenbg.jpg",0,0
//Break Periods
2,103961,123656
//Storyboard Layer 0 (Background)
//Storyboard Layer 1 (Fail)
//Storyboard Layer 2 (Pass)
//Storyboard Layer 3 (Foreground)
//Storyboard Layer 4 (Overlay)
//Storyboard Sound Samples

[TimingPoints]
536,322.58064516129,4,2,0,60,1,0
10858,-133.333333333333,4,2,1,45,0,0
15697,-133.333333333333,4,2,1,50,0,0
16503,-133.333333333333,4,2,1,55,0,0
20535,-133.333333333333,4,2,1,60,0,0
20697,-133.333333333333,4,2,1,65,0,0
20858,-133.333333333333,4,2,1,80,0,0
21181,-90.9090909090909,4,2,1,75,0,0
62148,-133.333333333333,4,2,1,75,0,0
62471,-83.3333333333333,4,2,1,75,0,0
103116,-111.111111111111,4,2,1,75,0,0
124406,-90.9090909090908,4,2,1,75,0,0
165374,-133.333333333333,4,2,1,75,0,0
165697,-80,4,3,1,85,0,1
206987,-133.333333333333,4,2,1,55,0,0
207955,-181.818181818181,4,2,1,55,0,0

[Colours]
Combo1 : 85,163,196
Combo2 : 225,91,91
Combo3 : 109,101,216
Combo4 : 210,106,200

[HitObjects]
46,192,10858,6,0,L|133:181,1,82.5000031471253,2|8,3:2|2:2,0:0:0:0:
127,181,11342,1,0,3:3:0:0:
222,281,11665,1,10,2:2:0:0:
274,224,11826,2,0,L|265:176,1,41.2500015735627,2|2,0:0|0:0,0:0:0:0:
322,123,12148,1,2,3:2:0:0:
274,61,12310,1,0,3:3:0:0:
202,84,12471,1,10,2:2:0:0:
140,36,12632,2,0,L|133:2,2,20.6250007867813,2|0|0,3:2|0:0|0:0,0:0:0:0:
186,97,12955,2,0,L|281:74,1,82.5000031471253,8|2,2:2|3:2,0:0:0:0:
342,55,13439,5,2,3:2:0:0:
459,118,13761,1,8,2:2:0:0:
459,118,13923,1,2,3:2:0:0:
452,241,14245,1,10,2:2:0:0:
452,241,14406,2,0,L|399:229,1,41.2500015735627,2|2,0:0|0:0,0:0:0:0:
345,279,14729,1,2,3:2:0:0:
354,358,14890,1,0,3:3:0:0:
426,384,15052,1,10,2:2:0:0:
481,325,15213,2,0,L|487:294,2,20.6250007867813,0|0|10,3:3|0:0|2:2,0:0:0:0:
424,377,15535,1,0,3:3:0:0:
362,328,15697,2,0,L|370:268,1,41.2500015735627,2|0,3:2|0:0,0:0:0:0:
308,218,16019,6,0,P|270:213|216:205,1,82.5000031471253,2|8,3:2|2:2,0:0:0:0:
165,260,16503,2,0,P|112:256|72:258,1,82.5000031471253,2|10,3:2|2:2,0:0:0:0:
35,327,16987,2,0,L|43:356,3,20.6250007867813,2|0|2|0,0:0|0:0|0:0|0:0,0:0:0:0:
28,359,17310,1,2,3:2:0:0:
114,367,17471,1,0,3:3:0:0:
137,288,17632,1,8,2:2:0:0:
76,242,17794,1,2,3:2:0:0:
0,130,18116,1,10,2:2:0:0:
56,76,18277,2,0,L|49:50,3,20.6250007867813,2|0|2|0,0:0|0:0|0:0|0:0,0:0:0:0:
82,61,18600,6,0,P|112:67|176:83,1,82.5000031471253,2|8,3:2|2:2,0:0:0:0:
222,136,19084,2,0,P|278:150|318:153,1,82.5000031471253,2|10,3:2|2:2,0:0:0:0:
386,138,19568,2,0,L|379:168,2,20.6250007867813,2|0|2,0:0|0:0|0:0,0:0:0:0:
314,80,19890,1,2,3:2:0:0:
277,154,20052,1,0,3:3:0:0:
271,238,20213,1,10,2:2:0:0:
214,294,20374,2,0,L|186:297,2,20.6250007867813,0|0|10,3:3|0:0|2:2,0:0:0:0:
278,241,20697,1,0,3:3:0:0:
208,184,20858,1,2,3:3:0:0:
121,196,21019,1,0,0:0:0:0:
62,266,21181,6,0,P|70:325|89:404,1,121.000003692627,4|10,1:1|3:2,0:0:0:0:
167,303,21665,2,0,P|162:254|147:180,1,121.000003692627,2|8,1:3|3:2,0:0:0:0:
202,109,22148,2,0,P|239:123|276:134,1,60.5000018463135,2|0,1:3|0:0,0:0:0:0:
288,101,22390,1,0,3:0:0:0:
288,101,22471,2,0,P|332:91|422:69,1,121.000003692627,2|8,1:3|3:2,0:0:0:0:
377,172,22955,2,0,P|336:191|253:214,1,121.000003692627,2|8,1:3|3:2,0:0:0:0:
253,301,23439,1,2,3:2:0:0:
253,301,23519,1,0,3:0:0:0:
253,301,23600,1,2,3:2:0:0:
314,384,23761,6,0,P|341:349|345:274,1,121.000003692627,4|10,1:1|3:2,0:0:0:0:
443,324,24245,2,0,P|447:268|412:192,1,121.000003692627,2|8,1:3|3:2,0:0:0:0:
364,105,24729,2,0,P|402:117|439:123,1,60.5000018463135,2|0,1:3|0:0,0:0:0:0:
504,173,25052,1,2,1:3:0:0:
446,242,25213,1,10,3:2:0:0:
361,268,25374,1,8,3:2:0:0:
278,243,25535,1,10,3:2:0:0:
215,185,25697,6,2,B|218:87|291:142|301:28,1,181.500005538941,6|2,1:3|3:2,0:1:0:0:
224,19,26342,5,4,1:1:0:0:
184,198,26665,1,10,3:2:0:0:
100,211,26826,2,0,P|61:203|-17:170,1,121.000003692627,2|8,1:3|3:2,0:0:0:0:
13,52,27310,2,0,P|27:98|55:118,1,60.5000018463135,2|0,1:3|3:0,0:0:0:0:
69,120,27552,1,0,0:0:0:0:
69,120,27632,2,0,L|147:110,2,60.5000018463135,2|0|8,1:3|0:0|3:2,0:0:0:0:
42,201,28116,2,0,P|36:251|20:332,1,121.000003692627,2|8,1:3|3:2,0:0:0:0:
107,384,28600,1,2,3:2:0:0:
107,384,28681,1,0,3:0:0:0:
107,384,28761,1,2,3:2:0:0:
173,312,28923,6,0,P|163:263|125:188,1,121.000003692627,4|10,1:1|3:2,0:0:0:0:
258,225,29406,2,0,P|274:161|320:102,1,121.000003692627,2|8,1:3|3:2,0:0:0:0:
179,65,29890,2,0,P|194:99|193:136,1,60.5000018463135,2|2,1:3|1:2,0:0:0:0:
281,186,30213,1,2,1:3:0:0:
367,178,30374,1,10,3:2:0:0:
402,99,30535,1,8,3:2:0:0:
345,31,30697,1,10,3:2:0:0:
259,33,30858,2,0,L|276:119,1,60.5000018463135,6|8,1:3|3:2,0:0:0:0:
284,82,31100,2,0,L|384:63,1,90.7500027694703
459,134,31503,6,0,B|446:180|446:180|461:204|461:204|448:261,1,121.000003692627,4|10,1:1|3:2,0:0:0:0:
357,271,31987,2,0,B|370:317|370:317|355:341|355:341|368:398,1,121.000003692627,2|8,1:3|3:2,0:0:0:0:
475,384,32471,2,0,L|455:317,1,60.5000018463135,2|2,1:3|3:2,0:0:0:0:
440,238,32794,1,2,1:3:0:0:
367,187,32955,1,2,0:0:0:0:
286,206,33116,1,10,3:2:0:0:
202,194,33277,1,2,1:3:0:0:
194,30,33600,1,8,3:2:0:0:
291,9,33761,1,2,3:2:0:0:
291,9,33842,1,0,3:0:0:0:
291,9,33923,1,2,3:2:0:0:
289,100,34084,6,0,P|241:94|185:40,1,121.000003692627,4|8,1:1|3:2,0:0:0:0:
105,95,34568,2,0,B|22:116|78:131|-13:153,1,121.000003692627,2|8,1:3|3:2,0:0:0:0:
5,23,35052,2,0,P|23:51|35:83,1,60.5000018463135,2|0,1:3|0:0,0:0:0:0:
36,162,35374,1,2,1:3:0:0:
3,232,35535,1,10,3:2:0:0:
42,311,35697,1,8,3:2:0:0:
129,326,35858,1,10,3:2:0:0:
206,282,36019,6,2,B|338:264|338:264|280:241,1,181.500005538941,6|2,1:3|1:2,0:1:0:0:
331,162,36665,5,4,1:1:0:0:
422,311,36987,1,10,3:2:0:0:
370,380,37148,2,0,P|332:380|253:353,1,121.000003692627,2|8,1:3|3:2,0:0:0:0:
213,239,37632,2,0,P|242:264|283:271,1,60.5000018463135,2|0,1:3|0:0,0:0:0:0:
289,254,37874,1,0,0:0:0:0:
289,254,37955,2,0,L|313:130,1,121.000003692627,2|8,1:3|3:2,0:0:0:0:
218,119,38439,2,0,L|240:-6,1,121.000003692627,2|8,1:3|3:2,0:0:0:0:
336,45,38923,1,2,3:2:0:0:
336,45,39003,1,0,3:0:0:0:
336,45,39084,1,2,3:2:0:0:
419,93,39245,6,0,L|486:78,2,60.5000018463135,4|0|10,1:1|0:0|3:2,0:0:0:0:
362,161,39729,2,0,P|296:153|239:125,1,121.000003692627,2|8,1:3|3:2,0:0:0:0:
156,117,40213,2,0,P|123:142|89:153,1,60.5000018463135,2|0,1:3|0:0,0:0:0:0:
58,226,40535,1,2,1:3:0:0:
139,243,40697,1,10,3:2:0:0:
193,308,40858,1,8,3:2:0:0:
204,384,41019,1,10,3:2:0:0:
109,384,41181,2,0,L|36:370,1,60.5000018463135,6|8,1:3|3:2,0:0:0:0:
60,351,41423,2,0,P|53:313|35:248,1,90.7500027694703,0|0,0:0|3:0,0:0:0:0:
71,171,41826,5,4,1:1:0:0:
71,171,42148,1,10,3:2:0:0:
149,127,42310,2,0,P|178:147|202:245,1,121.000003692627,2|8,1:3|3:2,0:0:0:0:
133,279,42794,2,0,P|83:262|57:258,1,60.5000018463135,2|0,1:3|0:0,0:0:0:0:
165,361,43116,2,0,P|210:345|292:329,1,121.000003692627,6|10,1:3|3:2,0:0:0:0:
349,265,43600,2,0,P|357:214|372:135,1,121.000003692627,6|8,1:3|3:2,0:0:0:0:
345,53,44084,1,2,1:2:0:0:
430,66,44245,1,2,3:2:0:0:
481,138,44406,6,0,P|467:190|388:207,1,121.000003692627,4|10,1:1|3:2,0:0:0:0:
338,146,44890,2,0,P|288:139|207:111,1,121.000003692627,2|8,1:3|3:2,0:0:0:0:
177,37,45374,1,2,1:3:0:0:
177,37,45697,1,2,1:3:0:0:
200,118,45858,1,10,3:2:0:0:
207,203,46019,1,8,3:2:0:0:
169,281,46181,1,10,3:2:0:0:
90,312,46342,6,0,P|35:299|13:173,1,181.500005538941,6|0,1:3|0:0,0:0:0:0:
64,132,46987,6,0,P|92:152|135:162,2,60.5000018463135,4|2|10,1:1|0:0|3:2,0:0:0:0:
23,49,47471,1,2,1:3:0:0:
23,49,47794,1,8,3:2:0:0:
108,5,47955,2,0,P|110:41|137:85,1,60.5000018463135,2|0,1:3|0:0,0:0:0:0:
150,59,48197,1,0,0:0:0:0:
150,59,48277,2,0,L|273:52,1,121.000003692627,6|10,1:3|3:2,0:0:0:0:
317,139,48761,2,0,P|255:161|226:224,1,121.000003692627,6|8,1:3|3:2,0:0:0:0:
247,306,49245,1,0,0:0:0:0:
325,272,49406,1,0,0:0:0:0:
400,327,49568,6,0,B|490:342|490:342|510:377,1,121.000003692627,4|10,1:1|3:2,0:0:0:0:
512,250,50052,2,0,L|499:181,1,60.5000018463135,2|0,1:3|1:0,0:0:0:0:
439,306,50374,1,8,3:2:0:0:
376,249,50535,2,0,L|302:234,1,60.5000018463135,2|0,1:3|0:0,0:0:0:0:
331,214,50777,1,0,0:0:0:0:
331,214,50858,2,0,L|314:144,1,60.5000018463135,2|10,1:3|3:2,0:0:0:0:
248,102,51181,1,8,3:2:0:0:
163,130,51342,1,10,3:2:0:0:
142,212,51503,2,0,L|214:233,1,60.5000018463135,6|8,1:3|3:2,0:0:0:0:
191,250,51745,1,0,0:0:0:0:
191,250,51826,2,2,L|208:323,1,60.5000018463135,2|2,1:2|0:0,0:0:0:0:
139,377,52148,6,0,P|85:386|12:384,1,121.000003692627,4|10,1:1|3:2,0:0:0:0:
20,306,52632,1,2,1:3:0:0:
20,306,52955,1,8,3:2:0:0:
91,249,53116,2,0,L|71:176,1,60.5000018463135,2|2,1:3|3:2,0:0:0:0:
130,93,53439,2,0,P|141:140|216:185,1,121.000003692627,6|10,1:3|3:2,0:0:0:0:
170,288,53923,2,0,P|118:253|41:240,1,121.000003692627,6|8,1:3|3:2,0:0:0:0:
27,167,54406,1,2,1:2:0:0:
27,167,54487,1,0,0:0:0:0:
27,167,54568,1,2,3:2:0:0:
86,99,54729,6,0,P|151:86|223:85,1,121.000003692627,4|10,1:1|3:2,0:0:0:0:
270,33,55213,2,0,P|329:32|417:23,1,121.000003692627,2|8,1:3|3:2,0:0:0:0:
458,90,55697,2,0,P|449:128|449:172,1,60.5000018463135,2|0,1:3|0:0,0:0:0:0:
384,214,56019,1,2,1:3:0:0:
301,200,56181,1,10,3:2:0:0:
273,123,56342,1,8,3:2:0:0:
326,54,56503,1,10,3:2:0:0:
424,69,56665,6,0,L|388:262,1,181.500005538941,6|0,1:3|0:0,0:0:0:0:
428,334,57310,5,4,1:1:0:0:
428,334,57632,1,10,3:2:0:0:
362,384,57794,2,0,P|316:362|237:347,1,121.000003692627,2|8,1:3|3:2,0:0:0:0:
181,292,58277,2,0,P|182:236|184:209,1,60.5000018463135,2|0,1:3|0:0,0:0:0:0:
236,155,58600,2,0,P|277:148|305:135,1,60.5000018463135,6|0,1:3|3:0,0:0:0:0:
266,240,58923,1,10,3:2:0:0:
175,237,59084,2,0,P|135:214|53:204,1,121.000003692627,6|8,1:3|3:2,0:0:0:0:
7,134,59568,2,2,L|-1:99,2,30.2500009231568,2|0|2,1:2|0:0|3:2,0:0:0:0:
95,119,59890,6,0,P|107:158|91:245,1,121.000003692627,4|10,1:1|3:2,0:0:0:0:
17,282,60374,2,0,P|20:332|87:393,1,121.000003692627,2|8,1:3|3:2,0:0:0:0:
146,342,60858,2,0,P|188:335|224:333,1,60.5000018463135,6|0,1:3|0:0,0:0:0:0:
291,372,61181,1,2,0:0:0:0:
291,372,62148,2,2,L|301:327,1,41.2500015735627,2|0,0:0|0:0,0:0:0:0:
306,232,62471,6,0,P|262:249|220:253,1,65.9999979858399,12|0,1:1|0:0,0:0:0:0:
218,240,62713,1,0,0:0:0:0:
218,240,62794,2,0,L|207:162,1,65.9999979858399,10|2,3:2|1:3,0:0:0:0:
279,85,63116,2,0,L|291:158,1,65.9999979858399,0|10,1:0|3:2,0:0:0:0:
336,233,63439,2,0,P|383:250|434:262,1,98.9999969787599,10|0,1:3|0:0,0:0:0:0:
450,239,63761,6,0,B|439:187|439:187|460:172|460:172|446:104,1,131.99999597168,10|10,1:3|3:2,0:0:0:0:
381,43,64245,2,0,B|356:117|356:117|299:132,1,131.99999597168,2|10,1:3|3:2,0:0:0:0:
230,78,64729,1,2,0:0:0:0:
230,78,64810,1,0,0:0:0:0:
230,78,64890,1,2,0:0:0:0:
132,61,65052,1,2,1:3:0:0:
74,198,65374,1,10,3:2:0:0:
137,253,65535,2,0,L|108:397,1,131.99999597168,2|8,1:3|3:2,0:0:0:0:
12,347,66019,2,0,L|29:270,1,65.9999979858399,10|2,1:3|0:0,0:0:0:0:
74,204,66342,5,10,1:3:0:0:
13,138,66503,1,10,3:2:0:0:
46,56,66665,1,8,3:2:0:0:
131,35,66826,1,10,3:2:0:0:
205,83,66987,6,0,L|251:77,3,32.99999899292,6|0|14|0,1:3|0:0|3:2|0:0,0:0:0:0:
237,111,67310,2,0,L|251:195,1,65.9999979858399,0|2,0:0|0:0,0:0:0:0:
292,245,67632,1,4,1:1:0:0:
458,212,67955,1,10,3:2:0:0:
390,149,68116,2,0,P|369:96|374:7,1,131.99999597168,10|10,1:3|3:2,0:0:0:0:
482,0,68600,2,0,P|470:43|441:75,1,65.9999979858399,2|0,1:3|0:0,0:0:0:0:
353,85,68923,6,0,B|309:96|309:96|292:129|292:129|215:155,1,131.99999597168,2|10,1:3|3:2,0:0:0:0:
215,228,69406,1,2,1:3:0:0:
215,228,69487,1,0,0:0:0:0:
215,228,69568,2,0,L|295:244,1,65.9999979858399,10|10,3:3|3:2,0:0:0:0:
352,299,69890,2,0,L|360:346,3,32.99999899292,2|0|2|0,0:0|0:0|0:0|0:0,0:0:0:0:
342,351,70213,2,0,L|203:376,1,131.99999597168,2|10,1:3|3:2,0:0:0:0:
127,334,70697,2,0,B|107:356|107:356|-11:386,1,131.99999597168,2|10,1:3|3:2,0:0:0:0:
22,278,71181,2,0,L|9:231,2,32.99999899292,10|0|2,1:3|0:0|0:0,0:0:0:0:
105,313,71503,5,10,1:3:0:0:
205,331,71665,1,8,3:2:0:0:
261,276,71826,1,10,3:2:0:0:
340,298,71987,1,10,3:2:0:0:
412,242,72148,2,0,L|419:190,3,32.99999899292,6|0|10|0,1:3|0:0|3:2|0:0,0:0:0:0:
435,234,72471,2,0,L|520:219,1,65.9999979858399,2|2,1:2|3:2,0:0:0:0:
455,137,72794,6,0,P|410:158|320:175,1,131.99999597168,4|10,1:1|3:2,0:0:0:0:
240,127,73277,2,0,P|259:76|261:-17,1,131.99999597168,2|10,1:3|3:2,0:0:0:0:
173,22,73761,1,10,1:3:0:0:
173,22,74084,1,10,1:3:0:0:
222,90,74245,1,2,0:0:0:0:
309,76,74406,1,10,3:2:0:0:
365,140,74568,2,0,L|338:270,1,131.99999597168,2|10,1:3|3:2,0:0:0:0:
313,254,74971,1,0,0:0:0:0:
313,254,75052,2,0,L|240:244,1,65.9999979858399,2|2,0:0|0:0,0:0:0:0:
145,206,75374,6,0,L|95:196,2,32.99999899292,10|0|2,1:3|0:0|0:0,0:0:0:0:
156,284,75697,1,10,3:2:0:0:
90,339,75858,2,0,L|81:384,2,32.99999899292,2|0|2,1:3|0:0|0:0,0:0:0:0:
22,298,76181,1,10,3:2:0:0:
22,298,76261,1,0,0:0:0:0:
22,298,76342,2,0,L|7:216,1,65.9999979858399,10|2,1:3|0:0,0:0:0:0:
90,175,76665,6,0,P|90:122|63:29,1,131.99999597168,10|10,1:3|3:2,0:0:0:0:
0,0,77148,1,10,3:2:0:0:
122,109,77471,2,2,P|182:92|269:83,1,131.99999597168,14|2,3:2|0:0,0:1:0:0:
340,127,77955,1,4,1:1:0:0:
340,127,78116,2,0,L|352:54,1,65.9999979858399,2|10,0:0|3:2,0:0:0:0:
417,195,78439,1,2,1:3:0:0:
417,195,78600,2,0,L|405:268,1,65.9999979858399,2|10,0:0|3:2,0:0:0:0:
509,180,78923,2,0,P|496:143|467:122,1,65.9999979858399,10|2,1:3|0:0,0:0:0:0:
407,192,79245,6,0,L|368:199,3,32.99999899292,10|0|2|2,1:3|3:0|3:2|3:0,0:0:0:0:
338,184,79568,2,0,L|326:138,3,32.99999899292,10|0|2|0,1:2|3:0|3:3|3:0,0:0:0:0:
302,127,79890,2,0,L|289:88,3,32.99999899292,10|0|10|2,1:3|3:0|3:2|3:2,0:0:0:0:
266,73,80213,2,0,L|213:58,3,32.99999899292,2|0|10|2,1:3|3:0|3:1|3:0,0:0:0:0:
199,82,80535,6,0,P|130:83|92:31,1,131.99999597168,4|10,1:1|3:2,0:0:0:0:
0,77,81019,1,2,1:3:0:0:
57,138,81181,2,0,L|76:210,2,65.9999979858399,0|8|10,1:0|3:2|1:3,0:0:0:0:
134,79,81665,1,2,0:0:0:0:
134,79,81745,1,2,0:0:0:0:
134,79,81826,2,0,L|156:153,1,65.9999979858399,10|10,1:3|3:2,0:0:0:0:
160,224,82148,1,8,3:2:0:0:
147,302,82310,1,10,3:2:0:0:
231,314,82471,1,6,1:3:0:0:
244,239,82632,1,10,3:2:0:0:
322,242,82794,2,0,L|369:234,3,32.99999899292,2|0|2|0,0:0|0:0|0:0|0:0,0:0:0:0:
362,261,83116,5,4,1:1:0:0:
201,384,83439,1,10,3:2:0:0:
183,298,83600,2,0,B|166:219|151:261|134:160,1,131.99999597168,2|10,1:3|3:2,0:0:0:0:
186,84,84084,2,0,P|212:128|243:140,1,65.9999979858399,10|2,1:3|0:0,0:0:0:0:
126,183,84406,2,0,P|64:178|-8:147,1,131.99999597168,10|10,1:3|3:2,0:0:0:0:
31,52,84890,1,2,1:3:0:0:
110,90,85052,2,0,P|145:70|200:71,1,65.9999979858399,8|10,3:3|3:2,0:0:0:0:
243,17,85374,2,0,P|265:54|298:71,1,65.9999979858399,2|2,1:2|0:0,0:0:0:0:
317,159,85697,6,0,B|294:247|294:247|237:262,1,131.99999597168,10|10,1:3|3:2,0:0:0:0:
369,285,86181,2,0,B|398:373|398:373|441:386,1,131.99999597168,2|10,1:3|3:2,0:0:0:0:
500,326,86665,2,0,L|513:279,2,32.99999899292,10|0|2,1:3|0:0|0:0,0:0:0:0:
439,256,86987,1,10,1:3:0:0:
506,197,87148,1,10,3:2:0:0:
493,112,87310,1,10,3:2:0:0:
406,87,87471,1,10,3:2:0:0:
339,137,87632,6,2,B|210:184|303:205|159:249,1,197.99999395752,4|0,1:3|3:0,0:1:0:0:
113,301,88277,5,4,1:1:0:0:
39,255,88439,2,0,P|4:286|-1:318,1,65.9999979858399,2|10,2:1|3:2,0:0:0:0:
103,314,88761,1,2,1:3:0:0:
154,240,88923,2,0,P|151:196|122:165,1,65.9999979858399,2|10,2:1|3:2,0:0:0:0:
107,172,89165,1,2,0:0:0:0:
107,172,89245,2,0,L|87:23,1,131.99999597168,10|10,1:3|1:3,0:0:0:0:
162,0,89729,1,2,3:2:0:0:
229,51,89890,1,10,3:2:0:0:
180,121,90052,2,0,P|89:145|37:153,1,131.99999597168,2|10,1:3|3:2,0:0:0:0:
6,243,90535,2,0,L|16:286,3,32.99999899292,2|0|2|0,0:0|0:0|3:2|0:0,0:0:0:0:
41,294,90858,5,10,1:3:0:0:
202,346,91181,1,10,3:2:0:0:
272,298,91342,2,0,P|310:303|405:327,1,131.99999597168,2|10,1:3|3:2,0:0:0:0:
491,267,91826,2,0,L|499:219,3,32.99999899292,10|0|2|0,1:3|0:0|0:0|0:0,0:0:0:0:
463,237,92148,5,10,1:3:0:0:
378,241,92310,1,10,3:2:0:0:
323,304,92471,1,10,3:2:0:0:
257,372,92632,1,10,3:2:0:0:
186,328,92794,2,0,P|175:254|185:184,1,131.99999597168,6|2,1:3|0:0,0:0:0:0:
295,68,93439,5,4,1:1:0:0:
204,65,93600,2,0,L|158:51,2,32.99999899292,2|0|10,0:0|0:0|3:2,0:0:0:0:
236,137,93923,1,2,1:3:0:0:
174,191,94084,2,0,P|124:202|85:200,1,65.9999979858399,2|10,0:0|3:2,0:0:0:0:
38,158,94406,2,0,P|33:113|39:74,1,65.9999979858399,10|2,1:3|1:2,0:0:0:0:
100,35,94729,2,0,B|176:64|126:78|218:107,1,131.99999597168,10|10,1:3|3:2,0:0:0:0:
301,85,95213,2,0,P|304:141|325:226,1,131.99999597168,2|10,1:3|3:2,0:0:0:0:
401,273,95697,2,0,L|440:266,3,32.99999899292,2|0|2|0,0:0|0:0|0:0|0:0,0:0:0:0:
388,300,96019,6,0,L|312:314,2,65.9999979858399,10|2|10,1:3|0:0|3:2,0:0:0:0:
448,382,96503,2,0,L|520:368,2,65.9999979858399,2|2|10,1:3|3:2|3:2,0:0:0:0:
376,328,96987,2,0,L|355:244,1,65.9999979858399,10|2,1:3|3:2,0:0:0:0:
434,202,97310,1,10,1:3:0:0:
466,128,97471,1,10,3:2:0:0:
450,48,97632,1,10,3:2:0:0:
378,7,97794,1,10,3:2:0:0:
292,24,97955,6,2,B|214:54|214:54|193:74|192:115|192:115|123:143,1,197.99999395752,6|2,1:3|0:0,0:1:0:0:
49,129,98600,6,0,P|13:76|9:-3,1,131.99999597168,14|10,1:1|3:2,0:0:0:0:
107,58,99084,1,2,1:3:0:0:
136,136,99245,2,0,P|120:185|95:214,1,65.9999979858399,2|10,2:1|3:2,0:0:0:0:
225,116,99568,2,0,P|241:159|241:196,1,65.9999979858399,10|2,1:3|0:0,0:0:0:0:
209,265,99890,1,10,1:3:0:0:
360,380,100213,2,0,P|374:335|374:295,1,65.9999979858399,10|2,3:2|1:3,0:0:0:0:
432,251,100535,1,0,0:0:0:0:
354,208,100697,1,10,3:2:0:0:
304,276,100858,2,0,P|337:309|400:334,1,98.9999969787599,2|0,0:0|0:0,0:0:0:0:
407,324,101181,6,0,B|420:272|420:272|439:262,2,65.9999979858399,6|2|0,1:1|0:0|0:0,0:0:0:0:
310,355,101665,2,0,L|171:387,1,131.99999597168,10|8,1:1|3:2,0:0:0:0:
98,355,102148,2,0,P|66:330|25:314,1,65.9999979858399,10|0,1:3|0:0,0:0:0:0:
26,237,102471,1,4,3:3:0:0:
129,106,102794,5,10,1:2:0:0:
200,168,102955,1,0,1:0:0:0:
200,168,103035,1,0,3:3:0:0:
200,168,103116,2,0,L|265:156,2,49.4999984893799,0|10|0,3:3|1:2|1:0,0:0:0:0:
137,227,103600,2,0,L|119:280,1,49.4999984893799,10|6,2:2|1:2,0:0:0:0:
139,33,124406,6,2,P|134:83|79:147,1,121.000003692627,4|10,1:1|3:2,0:0:0:0:
29,254,124890,2,0,P|82:228|164:226,1,121.000003692627,2|8,1:3|3:2,0:0:0:0:
254,214,125374,2,0,P|228:255|225:292,1,60.5000018463135,2|0,1:3|0:0,0:0:0:0:
277,342,125697,2,0,B|366:329|366:329|395:305,1,121.000003692627,2|8,1:3|3:2,0:0:0:0:
254,265,126181,2,0,B|154:247|154:247|123:211,1,121.000003692627,2|8,1:3|3:2,0:0:0:0:
157,139,126665,1,2,0:0:0:0:
157,139,126745,1,0,0:0:0:0:
157,139,126826,1,2,0:0:0:0:
239,99,126987,6,0,P|271:147|342:170,1,121.000003692627,4|10,1:1|3:2,0:0:0:0:
406,251,127471,2,0,P|426:198|496:149,1,121.000003692627,2|8,1:3|3:2,0:0:0:0:
440,39,127955,2,0,P|431:79|410:96,1,60.5000018463135,2|0,1:3|0:0,0:0:0:0:
327,83,128277,1,2,1:3:0:0:
276,145,128439,1,10,3:2:0:0:
287,224,128600,1,8,3:2:0:0:
340,282,128761,1,10,3:2:0:0:
282,349,128923,6,2,B|215:332|215:332|211:310|191:297|191:297|208:226,1,181.500005538941,6|2,1:3|3:2,0:1:0:0:
159,160,129568,6,0,L|86:182,2,60.5000018463135,4|0|10,1:1|0:0|3:2,0:0:0:0:
200,87,130052,1,2,1:3:0:0:
352,160,130374,1,8,3:2:0:0:
391,239,130535,2,0,L|409:325,1,60.5000018463135,2|0,1:3|0:0,0:0:0:0:
485,223,130858,2,0,P|500:170|476:98,1,121.000003692627,2|8,1:3|3:2,0:0:0:0:
446,12,131342,2,0,P|395:52|325:60,1,121.000003692627,2|8,1:3|3:2,0:0:0:0:
264,24,131826,1,2,0:0:0:0:
264,24,131906,1,0,0:0:0:0:
264,24,131987,1,2,0:0:0:0:
200,87,132148,6,0,B|193:153|169:144|167:216,1,121.000003692627,4|10,1:1|3:2,0:0:0:0:
83,169,132632,2,0,L|17:158,2,60.5000018463135,2|0|8,1:3|0:0|3:2,0:0:0:0:
94,247,133116,2,0,L|107:316,1,60.5000018463135,2|0,1:3|0:0,0:0:0:0:
168,372,133439,1,2,1:3:0:0:
207,295,133600,1,10,3:2:0:0:
189,214,133761,1,8,3:2:0:0:
116,175,133923,1,10,3:2:0:0:
35,185,134084,2,0,L|18:258,1,60.5000018463135,6|8,1:3|3:2,0:0:0:0:
44,242,134326,2,2,L|133:266,1,90.7500027694703,2|0,3:2|3:0,0:0:0:0:
214,214,134729,5,4,1:1:0:0:
192,54,135052,1,10,3:2:0:0:
265,7,135213,2,0,P|313:6|395:37,1,121.000003692627,2|8,1:3|3:2,0:0:0:0:
366,122,135697,2,0,L|380:174,2,30.2500009231568,2|0|0,1:3|0:0|0:0,0:0:0:0:
449,114,136019,2,0,P|478:154|483:189,2,60.5000018463135,2|2|10,1:3|0:0|3:2,0:0:0:0:
365,114,136503,2,0,P|317:132|237:121,1,121.000003692627,2|8,1:3|3:2,0:0:0:0:
180,64,136987,2,0,L|190:16,3,30.2500009231568,2|0|2|0,0:0|0:0|0:0|0:0,0:0:0:0:
208,44,137310,6,0,P|247:78|271:147,1,121.000003692627,4|8,1:1|3:2,0:0:0:0:
317,216,137794,2,0,L|298:296,2,60.5000018463135,2|0|8,1:3|0:0|3:2,0:0:0:0:
387,166,138277,2,0,L|456:151,1,60.5000018463135,2|0,1:3|0:0,0:0:0:0:
492,216,138600,1,2,1:3:0:0:
512,296,138761,1,10,3:2:0:0:
474,367,138923,1,8,3:2:0:0:
395,384,139084,1,10,3:2:0:0:
325,351,139245,6,2,B|261:289|261:289|167:310,1,181.500005538941,6|2,1:3|3:2,0:1:0:0:
85,325,139890,6,0,P|60:278|63:184,1,121.000003692627,4|10,1:1|3:2,0:0:0:0:
106,149,140374,1,2,1:3:0:0:
49,0,140697,1,8,3:2:0:0:
131,10,140858,2,0,P|169:23|192:57,1,60.5000018463135,2|0,1:3|0:0,0:0:0:0:
85,73,141181,2,0,P|42:100|31:180,1,121.000003692627,2|8,1:3|3:2,0:0:0:0:
72,241,141665,2,0,P|114:223|202:222,1,121.000003692627,2|8,1:3|3:2,0:0:0:0:
261,289,142148,1,2,0:0:0:0:
261,289,142229,1,0,0:0:0:0:
261,289,142310,1,2,0:0:0:0:
345,325,142471,6,0,L|358:396,2,60.5000018463135,4|0|10,1:1|0:0|3:2,0:0:0:0:
394,254,142955,1,2,1:3:0:0:
389,102,143277,1,8,3:2:0:0:
461,57,143439,2,0,P|445:15|425:-9,1,60.5000018463135,2|0,1:3|0:0,0:0:0:0:
351,25,143761,2,0,P|319:44|282:47,1,60.5000018463135,2|10,1:3|3:2,0:0:0:0:
209,15,144084,1,8,3:2:0:0:
171,92,144245,1,10,3:2:0:0:
224,165,144406,2,0,L|299:147,1,60.5000018463135,6|8,1:3|3:2,0:0:0:0:
274,177,144648,2,2,L|304:290,1,90.7500027694703,2|0,3:2|3:0,0:0:0:0:
264,361,145052,5,4,1:1:0:0:
264,361,145374,1,10,3:2:0:0:
181,330,145535,2,0,P|138:332|69:381,1,121.000003692627,2|8,1:3|3:2,0:0:0:0:
92,256,146019,2,0,P|54:240|31:216,1,60.5000018463135,2|0,1:3|0:0,0:0:0:0:
23,202,146261,1,0,0:0:0:0:
23,202,146342,2,0,L|0:72,1,121.000003692627,6|10,1:3|3:2,0:0:0:0:
107,134,146826,2,0,L|82:1,1,121.000003692627,6|8,1:3|3:2,0:0:0:0:
2,69,147310,1,0,0:0:0:0:
92,99,147471,1,0,0:0:0:0:
172,39,147632,6,0,P|227:19|303:6,1,121.000003692627,4|10,1:1|3:2,0:0:0:0:
364,42,148116,1,2,1:3:0:0:
364,42,148439,1,8,3:2:0:0:
293,103,148600,2,0,L|280:176,1,60.5000018463135,2|0,1:3|0:0,0:0:0:0:
376,144,148923,2,0,L|360:224,1,60.5000018463135,2|10,1:3|3:2,0:0:0:0:
289,257,149245,1,8,3:2:0:0:
211,214,149406,1,10,3:2:0:0:
131,239,149568,1,6,1:3:0:0:
100,318,149729,1,8,3:2:0:0:
150,384,149890,2,2,L|220:371,1,60.5000018463135,2|0,1:2|0:0,0:0:0:0:
310,335,150213,6,0,L|436:366,1,121.000003692627,4|10,1:1|3:2,0:0:0:0:
493,306,150697,1,2,1:3:0:0:
493,306,151019,1,8,3:2:0:0:
401,262,151181,2,0,L|412:337,1,60.5000018463135,2|0,1:3|0:0,0:0:0:0:
480,215,151503,2,0,P|449:172|371:156,1,121.000003692627,6|10,1:3|3:2,0:0:0:0:
295,214,151987,2,0,L|207:231,2,60.5000018463135,6|0|8,1:3|0:0|3:2,0:0:0:0:
395,168,152471,2,2,L|369:253,1,60.5000018463135,2|2,1:2|0:0,0:0:0:0:
304,306,152794,5,4,1:1:0:0:
237,256,152955,2,0,P|220:216|214:176,1,60.5000018463135,0|10,0:0|3:2,0:0:0:0:
271,126,153277,2,0,P|297:75|301:-8,1,121.000003692627,2|8,1:3|3:2,0:0:0:0:
165,0,153761,2,0,P|184:33|207:53,1,60.5000018463135,2|0,1:3|0:0,0:0:0:0:
285,113,154084,1,2,1:3:0:0:
197,127,154245,1,10,3:2:0:0:
116,120,154406,1,8,3:2:0:0:
54,66,154568,1,10,3:2:0:0:
10,0,154729,5,6,1:3:0:0:
10,0,155052,1,0,0:0:0:0:
54,66,155213,1,0,3:0:0:0:
6,136,155374,2,0,B|22:216|41:178|62:258,1,121.000003692627,4|10,1:1|3:2,0:0:0:0:
129,318,155858,2,0,P|71:332|26:388,1,121.000003692627,2|8,1:3|3:2,0:0:0:0:
145,300,156342,2,0,P|141:259|149:220,1,60.5000018463135,2|0,1:3|0:0,0:0:0:0:
249,191,156665,6,0,P|244:230|218:259,2,60.5000018463135,6|2|10,1:3|0:0|3:2,0:0:0:0:
201,120,157148,2,0,P|175:53|183:-16,1,121.000003692627,6|8,1:3|3:2,0:0:0:0:
260,53,157632,1,2,3:2:0:0:
336,76,157794,1,2,0:0:0:0:
404,28,157955,2,0,B|418:99|433:59|456:139,1,121.000003692627,4|10,1:1|3:2,0:0:0:0:
421,211,158439,1,2,1:3:0:0:
421,211,158761,1,8,3:2:0:0:
338,226,158923,2,0,P|289:218|263:202,1,60.5000018463135,2|0,1:3|0:0,0:0:0:0:
374,139,159245,1,2,1:3:0:0:
423,205,159406,1,10,3:2:0:0:
437,283,159568,1,8,3:2:0:0:
383,344,159729,1,10,3:2:0:0:
303,361,159890,2,0,L|281:301,1,60.5000018463135,6|8,1:3|3:2,0:0:0:0:
305,284,160132,1,0,0:0:0:0:
305,284,160213,2,2,P|318:254|318:214,1,60.5000018463135,2|2,1:2|3:2,0:0:0:0:
240,168,160535,6,0,P|192:208|120:240,1,121.000003692627,4|10,1:1|3:2,0:0:0:0:
61,206,161019,2,0,P|68:161|57:85,1,121.000003692627,2|8,1:3|3:2,0:0:0:0:
109,1,161503,2,0,P|119:39|145:59,1,60.5000018463135,2|0,1:3|0:0,0:0:0:0:
154,132,161826,1,6,1:3:0:0:
74,170,161987,1,0,0:0:0:0:
70,258,162148,1,10,3:2:0:0:
134,317,162310,2,0,P|178:307|223:242,1,121.000003692627,6|8,1:3|3:2,0:0:0:0:
282,190,162794,1,2,3:2:0:0:
239,113,162955,1,2,0:0:0:0:
276,40,163116,6,0,B|356:52|296:72|395:92,1,121.000003692627,4|10,1:1|3:2,0:0:0:0:
459,56,163600,1,2,1:3:0:0:
459,56,163923,1,8,3:2:0:0:
498,131,164084,2,0,L|478:194,1,60.5000018463135,6|0,1:3|0:0,0:0:0:0:
400,241,164406,1,2,0:0:0:0:
400,241,165374,2,2,L|413:196,1,41.2500015735627,2|0,0:0|0:0,0:0:0:0:
377,103,165697,6,0,P|332:134|299:141,1,68.75,14|2,1:1|0:0,0:0:0:0:
282,130,165939,1,2,0:2:0:0:
282,130,166019,1,0,0:0:0:0:
206,168,166181,2,0,B|196:221|196:221|214:246|214:246|204:320,1,137.5,2|10,1:3|3:2,0:0:0:0:
133,362,166665,2,0,L|112:284,1,68.75,10|2,1:3|0:2,0:0:0:0:
30,246,166987,1,10,1:3:0:0:
95,205,167148,1,0,0:0:0:0:
132,134,167310,1,10,3:2:0:0:
124,53,167471,2,0,P|77:21|-22:3,1,137.5,2|10,1:3|3:2,0:0:0:0:
53,109,167955,1,2,0:2:0:0:
53,109,168035,1,0,0:0:0:0:
53,109,168116,1,2,0:2:0:0:
145,53,168277,6,0,B|192:72|192:72|228:52,1,68.75,2|2,1:3|0:2,0:0:0:0:
246,154,168600,1,10,3:2:0:0:
328,123,168761,2,0,B|422:107|422:107|421:52,1,137.5,2|10,1:3|3:2,0:0:0:0:
361,5,169245,2,0,B|357:19|357:19|332:26,2,34.375,10|0|0,1:3|0:0|0:0,0:0:0:0:
438,36,169568,1,10,1:3:0:0:
501,90,169729,1,10,3:2:0:0:
479,179,169890,1,10,3:2:0:0:
399,203,170052,1,10,3:2:0:0:
459,255,170213,6,2,P|460:337|340:378,1,206.25,6|2,1:3|0:2,0:1:0:0:
294,324,170858,5,4,1:1:0:0:
267,163,171181,1,0,0:0:0:0:
209,225,171342,2,0,P|170:236|55:246,1,137.5,10|10,1:3|3:2,0:0:0:0:
166,319,171826,2,0,P|181:363|188:408,1,68.75,2|2,1:3|0:2,0:0:0:0:
252,299,172148,2,0,P|301:284|330:271,1,68.75,2|0,1:3|0:0,0:0:0:0:
371,203,172471,1,10,3:2:0:0:
296,154,172632,2,0,B|285:61|242:120|240:16,1,137.5,2|10,1:3|3:2,0:0:0:0:
327,0,173116,1,2,0:0:0:0:
327,0,173197,1,0,0:0:0:0:
327,0,173277,1,2,0:0:0:0:
366,87,173439,6,0,L|444:98,2,68.75,2|2|0,1:3|0:0|0:0,0:0:0:0:
296,143,173923,1,2,1:3:0:0:
122,170,174245,1,10,3:2:0:0:
48,125,174406,2,0,L|31:45,1,68.75,10|2,1:3|0:0,0:0:0:0:
97,0,174729,2,0,P|116:34|160:59,1,68.75,10|10,1:3|3:2,0:0:0:0:
202,119,175052,1,10,3:2:0:0:
196,209,175213,1,10,3:2:0:0:
153,276,175374,2,0,L|71:263,1,68.75,6|10,1:3|3:2,0:0:0:0:
100,284,175616,2,0,P|78:336|23:373,1,103.125,0|2,0:0|0:0,0:0:0:0:
0,277,176019,6,0,L|139:299,1,137.5,4|10,1:1|3:2,0:0:0:0:
213,246,176503,2,0,B|206:204|206:204|225:163|225:163|215:104,1,137.5,2|10,1:3|3:2,0:0:0:0:
158,50,176987,1,10,1:3:0:0:
242,9,177148,1,0,0:0:0:0:
242,9,177229,1,0,0:0:0:0:
242,9,177310,2,0,P|289:30|382:52,1,137.5,10|10,1:3|3:2,0:0:0:0:
407,138,177794,2,0,P|446:125|514:54,1,137.5,2|10,1:3|3:2,0:0:0:0:
391,20,178277,2,0,L|406:74,3,34.375,2|0|2|0,0:0|0:0|0:0|0:0,0:0:0:0:
396,77,178600,6,0,L|383:158,1,68.75,10|0,1:3|0:0,0:0:0:0:
484,125,178923,1,10,3:2:0:0:
445,212,179084,2,0,L|431:292,1,68.75,2|0,1:3|0:0,0:0:0:0:
512,315,179406,1,10,3:2:0:0:
444,365,179568,2,0,L|364:355,1,68.75,10|2,1:3|0:0,0:0:0:0:
313,297,179890,1,10,1:3:0:0:
352,222,180052,1,10,3:2:0:0:
287,170,180213,1,10,3:2:0:0:
322,95,180374,1,10,3:2:0:0:
256,33,180535,6,2,B|187:52|187:52|151:89|151:89|57:113,1,206.25,6|2,1:3|0:0,0:1:0:0:
0,164,181181,5,4,1:1:0:0:
37,317,181503,1,10,3:2:0:0:
119,342,181665,2,0,L|146:235,1,103.125,2|0,1:3|0:0,0:0:0:0:
120,241,181987,2,0,P|91:210|92:163,1,68.75,10|10,3:2|1:3,0:0:0:0:
155,122,182310,1,0,0:0:0:0:
220,180,182471,2,0,L|288:191,2,68.75,10|0|10,1:3|0:0|1:2,0:0:0:0:
154,106,182955,2,0,P|176:72|283:49,1,137.5,2|10,3:3|3:2,0:0:0:0:
333,116,183439,1,2,1:3:0:0:
333,116,183519,1,0,0:0:0:0:
333,116,183600,1,8,3:2:0:0:
412,82,183761,5,4,1:1:0:0:
367,11,183923,2,0,L|315:4,2,34.375,2|2|0,0:0|0:2|0:0,0:0:0:0:
445,0,184245,2,0,L|523:15,1,68.75,2|2,1:3|0:0,0:0:0:0:
502,100,184568,1,10,3:2:0:0:
427,124,184729,2,0,L|346:141,1,68.75,10|2,1:3|0:0,0:0:0:0:
292,185,185052,5,10,1:3:0:0:
253,248,185213,1,10,3:2:0:0:
200,304,185374,1,10,3:2:0:0:
126,334,185535,1,10,3:2:0:0:
49,343,185697,2,0,L|30:267,1,68.75,6|8,1:3|3:2,0:0:0:0:
53,256,185939,1,0,0:0:0:0:
53,256,186019,2,0,L|137:234,1,68.75,2|2,0:0|0:0,0:0:0:0:
194,197,186342,6,0,P|213:243|268:279,2,103.125,4|2|2,1:1|0:2|1:3,0:0:0:0:
258,24,187148,1,10,3:2:0:0:
316,90,187310,2,0,L|300:163,1,68.75,10|2,1:3|0:0,0:0:0:0:
234,223,187632,2,0,L|257:300,1,68.75,10|0,1:3|0:0,0:0:0:0:
292,374,187955,1,10,3:2:0:0:
292,374,188035,1,0,0:0:0:0:
292,374,188116,1,2,1:3:0:0:
361,314,188277,2,0,L|383:227,1,68.75,8|10,3:3|3:2,0:0:0:0:
345,162,188600,1,2,0:0:0:0:
266,137,188761,1,2,0:0:0:0:
324,76,188923,6,0,P|357:106|448:122,1,137.5,10|10,1:3|3:2,0:0:0:0:
331,182,189406,2,0,P|268:195|176:232,1,137.5,2|10,1:3|3:2,0:0:0:0:
126,186,189890,1,10,1:3:0:0:
126,186,189971,1,0,0:0:0:0:
126,186,190052,1,2,0:0:0:0:
44,137,190213,2,0,L|57:52,1,68.75,10|10,1:3|3:2,0:0:0:0:
129,34,190535,1,10,3:2:0:0:
183,101,190697,1,10,3:2:0:0:
128,170,190858,6,2,B|65:185|65:185|36:340,1,206.25,6|2,1:3|0:0,0:1:0:0:
109,370,191503,6,0,L|188:352,1,68.75,4|2,1:1|0:0,0:0:0:0:
229,288,191826,1,0,0:0:0:0:
209,205,191987,1,2,1:3:0:0:
406,165,192310,1,10,3:2:0:0:
437,248,192471,2,0,L|414:331,1,68.75,10|2,1:3|0:0,0:0:0:0:
494,382,192794,2,0,L|518:296,1,68.75,10|0,1:3|0:0,0:0:0:0:
461,247,193116,1,10,3:2:0:0:
380,285,193277,1,2,1:3:0:0:
296,259,193439,2,0,L|284:181,1,68.75,10|10,3:3|3:2,0:0:0:0:
336,123,193761,2,0,L|373:115,3,34.375,2|0|2|0,0:0|0:0|0:0|0:0,0:0:0:0:
368,91,194084,6,0,L|389:7,1,68.75,10|2,1:3|0:0,0:0:0:0:
356,42,194326,2,0,L|234:70,1,103.125,2|2,0:2|1:3,0:0:0:0:
88,28,194890,1,10,3:2:0:0:
27,83,195052,2,0,L|41:154,1,68.75,10|2,1:3|0:0,0:0:0:0:
107,194,195374,1,10,1:3:0:0:
158,128,195535,1,10,3:2:0:0:
236,155,195697,1,10,3:2:0:0:
301,101,195858,1,10,3:2:0:0:
370,160,196019,2,0,L|355:233,2,68.75,6|10|2,1:3|3:2|0:0,0:0:0:0:
314,99,196503,1,2,0:0:0:0:
264,183,196665,6,0,B|280:231|280:231|311:247|311:247|328:305,1,137.5,4|10,1:1|3:2,0:0:0:0:
261,360,197148,2,0,L|182:341,2,68.75,2|2|10,1:3|0:0|3:2,0:0:0:0:
339,322,197632,1,10,1:3:0:0:
339,322,197713,1,0,0:0:0:0:
339,322,197794,1,2,0:0:0:0:
270,263,197955,2,0,L|282:192,1,68.75,10|0,1:3|0:0,0:0:0:0:
354,148,198277,1,10,3:2:0:0:
440,167,198439,1,2,1:3:0:0:
483,333,198761,1,10,3:2:0:0:
417,384,198923,2,0,L|338:369,1,68.75,2|2,0:0|0:0,0:0:0:0:
268,327,199245,6,0,L|193:353,1,68.75,10|0,1:3|0:0,0:0:0:0:
132,305,199568,1,10,3:2:0:0:
62,359,199729,2,0,P|21:319|1:231,1,137.5,2|10,1:3|3:2,0:0:0:0:
44,169,200213,2,0,L|31:127,2,34.375,10|0|2,1:3|0:0|0:0,0:0:0:0:
123,220,200535,1,10,1:3:0:0:
162,156,200697,1,10,3:2:0:0:
116,96,200858,1,10,3:2:0:0:
154,28,201019,1,10,3:2:0:0:
77,0,201181,6,2,P|12:30|28:167,1,206.25,6|2,1:3|0:0,0:1:0:0:
84,199,201826,6,0,L|180:186,1,68.75,12|2,1:1|0:0,0:0:0:0:
171,175,202068,1,2,0:2:0:0:
171,175,202148,1,0,0:0:0:0:
242,123,202310,1,2,1:3:0:0:
256,210,202471,2,0,L|238:301,1,68.75,2|10,0:0|3:2,0:0:0:0:
350,211,202794,2,0,L|325:128,1,68.75,10|0,1:3|0:0,0:0:0:0:
358,72,203116,1,10,1:3:0:0:
432,119,203277,1,2,0:0:0:0:
458,44,203439,1,10,3:2:0:0:
375,51,203600,2,0,L|222:93,1,137.5,10|0,1:3|0:0,0:0:0:0:
157,53,204084,2,0,L|169:3,3,34.375,8|0|2|0,1:3|0:0|0:0|0:0,0:0:0:0:
136,33,204406,5,4,1:1:0:0:
146,199,204729,1,10,3:2:0:0:
194,264,204890,2,0,P|269:258|338:227,1,137.5,8|10,1:2|3:2,0:0:0:0:
422,226,205374,2,0,P|405:258|400:310,1,68.75,10|2,1:3|0:0,0:0:0:0:
449,365,205697,1,4,3:3:0:0:
449,365,206019,6,0,L|352:384,1,68.75,10|0,1:2|1:0,0:0:0:0:
357,371,206261,1,0,3:3:0:0:
357,371,206342,1,0,3:3:0:0:
280,331,206503,2,0,L|183:350,1,68.75,10|0,1:2|1:0,0:0:0:0:
188,337,206745,1,0,1:1:0:0:
188,337,206826,1,10,2:2:0:0:
133,265,206987,6,0,L|105:87,1,165.000006294251,4|2,1:0|3:2,0:0:0:0:
212,15,207955,2,0,P|223:75|252:97,2,90.7500027694703,2|2|0,3:3|3:2|3:0,0:0:0:0:
470,155,209568,6,0,P|424:182|348:198,1,121.000003692627,2|2,3:2|0:0,0:0:0:0:
225,174,210535,1,0,3:0:0:0:
96,61,212148,6,0,L|80:192,1,121.000003692627,2|0,3:2|3:0,0:0:0:0:
147,299,213116,2,0,P|174:259|218:243,2,90.7500027694703,0|2|0,3:0|3:2|3:0,0:0:0:0:
237,383,214406,2,0,L|276:376,1,30.2500009231568,0|0,3:0|0:0,0:0:0:0:
296,299,214729,6,0,B|293:202|220:235|218:134,1,181.500005538941,2|0,3:2|3:0,0:0:0:0:
411,30,217310,6,2,P|369:47|282:51,1,121.000003692627,2|0,0:0|3:0,0:0:0:0:
161,0,218277,2,0,P|147:22|79:41,2,90.7500027694703,2|2|0,3:0|3:2|3:0,0:0:0:0:
268,142,219890,1,2,0:0:0:0:
363,337,220858,2,0,P|402:364|445:386,2,90.7500027694703,0|2|0,3:0|3:2|3:0,0:0:0:0:
171,225,222471,6,0,P|134:245|-6:284,1,181.500005538941,2|0,3:2|3:0,0:0:0:0:
50,171,223923,1,0,3:0:0:0:
21,48,224406,1,0,0:0:0:0:
242,1,225052,6,0,P|240:47|235:161,1,151.250004615784,2|0,3:2|0:0,0:0:0:0:
256,192,226019,12,0,227632,0:0:0:0:
