osu file format v14

[General]
AudioFilename: audio.mp3
AudioLeadIn: 0
PreviewTime: 21181
Countdown: 0
SampleSet: Soft
StackLeniency: 0.7
Mode: 0
LetterboxInBreaks: 0
WidescreenStoryboard: 1

[Editor]
DistanceSpacing: 0.2
BeatDivisor: 4
GridSize: 32
TimelineZoom: 2.7

[Metadata]
Title:Yandere Complex
TitleUnicode:Yandere Complex
Artist:Sewerslvt
ArtistUnicode:Sewerslvt
Creator:228
Version:Extra
Source:
Tags:AYE1337 Caspar sewerslut dnb drum and bass breakcore electronic instrumental draining love story fingercontrol stamina
BeatmapID:3611648
BeatmapSetID:1412956

[Difficulty]
HPDrainRate:5.5
CircleSize:4
OverallDifficulty:8
ApproachRate:9.2
SliderMultiplier:1.4
SliderTickRate:1

[Events]
//Background and Video events
0,0,"totallynotstolenbg.jpg",0,0
//Break Periods
2,122994,123836
//Storyboard Layer 0 (Background)
//Storyboard Layer 1 (Fail)
//Storyboard Layer 2 (Pass)
//Storyboard Layer 3 (Foreground)
//Storyboard Layer 4 (Overlay)
//Storyboard Sound Samples

[TimingPoints]
536,322.58064516129,4,2,0,60,1,0
10858,-133.333333333333,4,2,1,45,0,0
15697,-117.647058823529,4,2,1,50,0,0
16503,-117.647058823529,4,2,1,55,0,0
20535,-117.647058823529,4,2,1,60,0,0
20697,-117.647058823529,4,2,1,65,0,0
20858,-100,4,2,1,80,0,0
21181,-79.9999999999998,4,2,1,75,0,0
62148,-133.333333333333,4,2,1,75,0,0
62471,-66.6666666666667,4,2,1,75,0,0
103761,-133.333333333333,4,2,1,75,0,0
104729,-133.333333333333,4,2,1,55,0,0
124406,-76.9230769230769,4,2,1,75,0,0
165374,-133.333333333333,4,2,1,75,0,0
165697,-66.6666666666667,4,3,1,85,0,1
206987,-133.333333333333,4,2,1,55,0,0
222471,-133.333333333333,4,2,1,50,0,0
226987,-133.333333333333,4,2,1,55,0,0

[Colours]
Combo1 : 85,163,196
Combo2 : 225,91,91
Combo3 : 109,101,216
Combo4 : 210,106,200

[HitObjects]
25,291,10858,6,0,L|148:274,1,105.000004005432,2|8,3:2|2:2,0:0:0:0:
70,207,11342,1,0,3:3:0:0:
70,207,11665,1,10,2:2:0:0:
139,284,11826,2,0,L|131:326,3,26.2500010013581,2|0|2|0,0:0|0:0|0:0|0:0,0:0:0:0:
180,376,12148,5,2,3:2:0:0:
180,376,12310,1,0,3:3:0:0:
269,296,12471,2,0,L|261:227,1,52.5000020027161,10|2,2:2|3:2,0:0:0:0:
262,243,12713,1,0,0:0:0:0:
262,243,12794,1,0,0:0:0:0:
332,176,12955,1,8,2:2:0:0:
255,110,13116,2,0,L|215:104,3,26.2500010013581,0|0|2|0,3:0|0:0|3:2|0:0,0:0:0:0:
196,35,13439,5,2,3:2:0:0:
196,35,13761,1,8,2:2:0:0:
187,170,13923,2,0,L|195:224,1,52.5000020027161,2|0,3:2|0:0,0:0:0:0:
275,127,14245,1,10,2:2:0:0:
338,175,14406,2,0,L|381:171,3,26.2500010013581,2|0|2|0,0:0|0:0|0:0|0:0,0:0:0:0:
418,116,14729,5,2,3:2:0:0:
418,116,14890,1,0,3:3:0:0:
339,59,15052,2,0,L|331:-1,1,52.5000020027161,10|0,2:2|3:3,0:0:0:0:
332,6,15294,1,0,0:0:0:0:
332,6,15374,1,10,2:2:0:0:
449,47,15535,1,0,3:3:0:0:
285,126,15697,2,0,L|220:114,1,59.5000011348725,2|0,3:2|0:0,0:0:0:0:
151,19,16019,5,2,3:2:0:0:
151,19,16342,1,8,2:2:0:0:
101,151,16503,1,2,3:2:0:0:
101,151,16826,1,10,2:2:0:0:
41,94,16987,2,0,L|-6:85,3,29.7500005674362,2|0|2|0,0:0|0:0|0:0|0:0,0:0:0:0:
0,14,17310,5,2,3:2:0:0:
84,28,17471,1,0,3:3:0:0:
101,151,17632,1,8,2:2:0:0:
171,106,17794,1,2,3:2:0:0:
171,106,18116,1,10,2:2:0:0:
260,192,18277,2,0,L|297:186,3,29.7500005674362,2|0|2|0,0:0|0:0|0:0|0:0,0:0:0:0:
339,128,18600,5,2,3:2:0:0:
339,128,18923,1,8,2:2:0:0:
390,286,19084,1,2,3:2:0:0:
390,286,19406,1,10,2:2:0:0:
446,228,19568,2,0,L|480:222,3,29.7500005674362,2|0|2|0,0:0|0:0|0:0|0:0,0:0:0:0:
504,152,19890,5,2,3:2:0:0:
504,152,20052,1,0,3:3:0:0:
466,333,20213,1,10,2:2:0:0:
390,286,20374,1,0,3:3:0:0:
390,286,20455,1,0,0:0:0:0:
390,286,20535,1,10,2:2:0:0:
321,373,20697,1,0,3:3:0:0:
229,280,20858,2,0,L|145:263,1,70,2|0,3:3|0:0,0:0:0:0:
35,375,21181,5,4,1:1:0:0:
69,242,21342,2,0,P|64:194|43:133,1,87.5,2|10,0:0|3:2,0:0:0:0:
124,43,21665,2,0,P|146:98|237:164,1,175,2|8,1:3|3:2,0:0:0:0:
340,67,22148,2,0,L|253:50,1,87.5,2|0,1:3|0:0,0:0:0:0:
254,50,22390,1,0,3:0:0:0:
254,50,22471,5,2,1:3:0:0:
406,11,22632,1,0,0:0:0:0:
351,156,22794,1,8,3:2:0:0:
478,103,22955,2,0,L|506:288,1,175,2|8,1:3|3:2,0:0:0:0:
384,367,23439,1,2,3:2:0:0:
384,367,23519,1,0,3:0:0:0:
384,367,23600,2,0,L|334:354,1,43.75,2|0,3:2|3:0,0:0:0:0:
332,257,23761,6,0,P|272:277|247:325,1,87.5,4|0,1:1|3:0,0:0:0:0:
231,384,24084,1,10,3:2:0:0:
279,184,24245,2,0,P|208:156|103:218,1,175,2|8,1:3|3:2,0:0:0:0:
32,311,24729,2,0,L|148:291,1,87.5,2|0,1:3|0:0,0:0:0:0:
118,296,24971,1,0,0:0:0:0:
118,296,25052,5,2,1:3:0:0:
207,233,25213,1,10,3:2:0:0:
43,175,25374,1,8,3:2:0:0:
173,67,25535,1,10,3:2:0:0:
47,11,25697,6,2,L|34:61,1,43.75,6|0,1:3|0:0,0:1:0:0:
94,103,25858,2,0,L|286:77,1,175,0|2,0:0|3:2,0:0:0:0:
397,6,26342,6,0,L|372:121,1,87.5,4|2,1:1|0:0,0:0:0:0:
299,215,26665,1,10,3:2:0:0:
196,159,26826,2,0,L|161:-2,1,131.25,2|0,1:3|0:0,0:0:0:0:
168,30,27148,1,8,3:2:0:0:
292,105,27310,2,0,L|401:87,1,87.5,2|0,1:3|3:0,0:0:0:0:
378,90,27552,1,0,0:0:0:0:
378,90,27632,5,2,1:3:0:0:
471,59,27794,1,0,0:0:0:0:
512,256,27955,1,8,3:2:0:0:
424,220,28116,2,0,P|372:250|343:377,1,175,2|8,1:3|3:2,0:0:0:0:
219,279,28600,1,2,3:2:0:0:
219,279,28681,1,0,3:0:0:0:
219,279,28761,2,0,L|271:267,1,43.75,2|0,3:2|3:0,0:0:0:0:
421,324,28923,6,0,B|432:336|432:336|521:328,1,87.5,4|0,1:1|3:0,0:0:0:0:
423,146,29245,1,10,3:2:0:0:
334,185,29406,2,0,P|280:149|266:13,1,175,2|8,1:3|3:2,0:0:0:0:
72,130,29890,2,0,L|181:112,1,87.5,2|2,1:3|1:2,0:0:0:0:
158,115,30132,1,0,3:0:0:0:
158,115,30213,5,2,1:3:0:0:
341,64,30374,1,10,3:2:0:0:
175,11,30535,1,8,3:2:0:0:
267,158,30697,1,10,3:2:0:0:
158,115,30858,5,6,1:3:0:0:
65,210,31019,1,8,3:2:0:0:
65,210,31100,2,0,P|20:188|-3:136,1,87.5
1,157,31342,2,0,L|11:82,1,43.75
139,279,31503,6,0,L|244:259,1,87.5,4|0,1:1|0:0,0:0:0:0:
302,198,31826,1,10,3:2:0:0:
103,369,31987,2,0,L|141:164,1,175,2|8,1:3|3:2,0:0:0:0:
202,56,32471,2,0,P|230:100|288:111,1,87.5,2|2,1:3|3:2,0:0:0:0:
261,112,32713,1,0,3:0:0:0:
261,112,32794,5,2,1:3:0:0:
480,61,32955,1,2,0:0:0:0:
326,7,33116,1,10,3:2:0:0:
415,137,33277,2,0,L|398:328,1,175,2|8,1:3|3:2,0:0:0:0:
512,377,33761,1,2,3:2:0:0:
512,377,33842,1,0,3:0:0:0:
512,377,33923,2,0,L|463:365,1,43.75,2|0,3:2|0:0,0:0:0:0:
319,378,34084,6,0,P|283:338|289:280,1,87.5,4|0,1:1|0:0,0:0:0:0:
368,226,34406,1,8,3:2:0:0:
244,179,34568,2,0,P|193:202|202:325,1,175,2|8,1:3|3:2,0:0:0:0:
64,384,35052,2,0,L|80:291,1,87.5,2|0,1:3|0:0,0:0:0:0:
78,297,35294,1,0,3:0:0:0:
78,297,35374,5,2,1:3:0:0:
169,384,35535,1,10,3:2:0:0:
278,245,35697,1,8,3:2:0:0:
108,195,35858,1,10,3:2:0:0:
151,81,36019,6,2,L|142:23,1,43.75,6|0,1:3|0:0,0:1:0:0:
17,0,36181,2,0,P|9:76|101:123,1,175,0|2,0:0|1:2,0:0:0:0:
84,125,36584,1,0,3:0:0:0:
84,125,36665,6,0,L|67:249,1,87.5,4|2,1:1|0:0,0:0:0:0:
122,365,36987,1,10,3:2:0:0:
172,277,37148,2,0,L|-26:311,1,175,2|8,1:3|3:2,0:0:0:0:
247,227,37632,2,0,L|261:352,1,87.5,2|0,1:3|0:0,0:0:0:0:
256,313,37874,1,0,0:0:0:0:
256,313,37955,5,2,1:3:0:0:
465,246,38116,1,2,0:0:0:0:
379,227,38277,1,8,3:2:0:0:
505,169,38439,2,0,P|486:111|371:73,1,175,2|8,1:3|3:2,0:0:0:0:
276,159,38923,1,2,3:2:0:0:
276,159,39003,1,0,3:0:0:0:
276,159,39084,2,0,L|205:147,1,43.75,2|0,3:2|3:0,0:0:0:0:
292,0,39245,6,0,L|313:113,1,87.5,4|0,1:1|0:0,0:0:0:0:
389,158,39568,1,10,3:2:0:0:
243,240,39729,2,0,P|174:225|173:105,1,175,2|8,1:3|3:2,0:0:0:0:
120,29,40213,2,0,L|21:8,1,87.5,2|0,1:3|0:0,0:0:0:0:
34,10,40455,1,0,0:0:0:0:
34,10,40535,5,2,1:3:0:0:
225,74,40697,1,10,3:2:0:0:
86,145,40858,1,8,3:2:0:0:
166,251,41019,1,10,3:2:0:0:
227,174,41181,6,0,L|163:158,1,43.75,6|0,1:3|0:0,0:0:0:0:
59,224,41342,1,8,3:2:0:0:
59,224,41423,2,0,P|16:204|16:149,1,87.5
8,167,41665,2,0,L|18:107,1,43.75,0|0,3:0|0:0,0:0:0:0:
100,299,41826,6,0,L|79:402,1,87.5,4|0,1:1|0:0,0:0:0:0:
222,184,42148,1,10,3:2:0:0:
291,342,42310,1,2,1:3:0:0:
291,342,42632,1,8,3:2:0:0:
394,264,42794,2,0,L|493:251,1,87.5,2|0,1:3|0:0,0:0:0:0:
480,252,43035,1,0,0:0:0:0:
480,252,43116,6,0,L|471:153,1,87.5,6|0,1:3|0:0,0:0:0:0:
362,100,43439,1,10,3:2:0:0:
458,36,43600,2,0,L|267:8,1,175,6|8,1:3|3:2,0:0:0:0:
157,107,44084,2,2,B|166:118|166:118|245:107,1,87.5,2|2,1:2|3:2,0:0:0:0:
322,214,44406,6,0,P|267:263|222:253,1,87.5,4|0,1:1|0:0,0:0:0:0:
139,201,44729,1,10,3:2:0:0:
66,365,44890,1,2,1:3:0:0:
66,365,45213,1,8,3:2:0:0:
12,251,45374,2,0,L|2:146,1,87.5,2|0,1:3|0:0,0:0:0:0:
7,156,45616,1,0,0:0:0:0:
11,148,45697,5,2,1:3:0:0:
141,0,45858,1,10,3:2:0:0:
99,178,46019,1,8,3:2:0:0:
120,91,46181,1,10,3:2:0:0:
170,277,46342,6,0,L|218:269,1,43.75,6|0,1:3|0:0,0:0:0:0:
241,200,46503,2,2,B|337:183|290:277|419:270,1,175,8|0,3:2|0:0,0:1:0:0:
486,146,46987,6,0,L|463:255,1,87.5,4|2,1:1|0:0,0:0:0:0:
453,359,47310,1,10,3:2:0:0:
275,311,47471,1,2,1:3:0:0:
275,311,47794,1,8,3:2:0:0:
331,193,47955,2,0,L|318:81,1,87.5,2|0,1:3|0:0,0:0:0:0:
320,106,48197,1,0,0:0:0:0:
320,106,48277,6,0,L|229:87,1,87.5,6|0,1:3|0:0,0:0:0:0:
86,120,48600,1,10,3:2:0:0:
144,0,48761,2,0,L|176:190,1,175,6|8,1:3|3:2,0:0:0:0:
80,247,49245,2,2,B|76:258|76:258|-17:265,1,87.5,0|0,0:0|0:0,0:0:0:0:
213,384,49568,6,0,P|254:352|251:304,1,87.5,4|0,1:1|0:0,0:0:0:0:
166,270,49890,1,10,3:2:0:0:
0,384,50052,1,2,1:3:0:0:
0,384,50374,1,8,3:2:0:0:
42,297,50535,2,0,L|25:194,1,87.5,2|0,1:3|0:0,0:0:0:0:
27,210,50777,1,0,0:0:0:0:
27,210,50858,5,2,1:3:0:0:
114,125,51019,1,10,3:2:0:0:
236,142,51181,1,8,3:2:0:0:
288,247,51342,1,10,3:2:0:0:
150,257,51503,5,6,1:3:0:0:
326,169,51665,1,8,3:2:0:0:
326,169,51745,1,0,0:0:0:0:
326,169,51826,2,2,L|344:59,1,87.5,2|2,1:2|0:0,0:0:0:0:
340,82,52068,1,0,0:0:0:0:
340,82,52148,6,0,L|255:44,1,87.5,4|0,1:1|0:0,0:0:0:0:
170,66,52471,1,10,3:2:0:0:
349,0,52632,1,2,1:3:0:0:
349,0,52955,1,8,3:2:0:0:
430,113,53116,2,0,P|481:103|499:55,1,87.5,2|2,1:3|3:2,0:0:0:0:
497,75,53358,1,0,3:0:0:0:
497,75,53439,6,0,L|505:-15,1,87.5,6|2,1:3|0:0,0:0:0:0:
305,77,53761,1,10,3:2:0:0:
414,120,53923,2,0,L|436:231,1,87.5,6|0,1:3|0:0,0:0:0:0:
328,303,54245,1,8,3:2:0:0:
437,347,54406,1,2,1:2:0:0:
437,347,54487,1,0,0:0:0:0:
437,347,54568,2,0,L|429:293,1,43.75,2|0,3:2|0:0,0:0:0:0:
324,215,54729,6,0,P|273:237|252:283,1,87.5,4|0,1:1|0:0,0:0:0:0:
287,364,55052,1,10,3:2:0:0:
122,315,55213,1,2,1:3:0:0:
122,315,55535,1,8,3:2:0:0:
133,195,55697,2,0,L|239:172,1,87.5,2|0,1:3|0:0,0:0:0:0:
218,176,55939,1,0,0:0:0:0:
218,176,56019,5,2,1:3:0:0:
49,155,56181,1,10,3:2:0:0:
115,101,56342,5,8,3:2:0:0:
191,263,56503,1,10,3:2:0:0:
295,145,56665,6,0,L|307:84,1,43.75,6|0,1:3|0:0,0:0:0:0:
204,20,56826,2,2,P|145:46|25:74,1,175,8|0,3:2|0:0,0:1:0:0:
317,86,57310,6,0,P|380:97|439:115,1,87.5,4|2,1:1|0:0,0:0:0:0:
507,159,57632,1,10,3:2:0:0:
339,204,57794,1,2,1:3:0:0:
339,204,58116,1,8,3:2:0:0:
455,262,58277,2,0,L|472:351,1,87.5,2|0,1:3|0:0,0:0:0:0:
471,347,58519,1,0,0:0:0:0:
471,347,58600,6,0,L|374:366,1,87.5,6|0,1:3|3:0,0:0:0:0:
208,350,58923,1,10,3:2:0:0:
287,296,59084,2,0,P|250:259|192:244,1,87.5,6|0,1:3|0:0,0:0:0:0:
116,349,59406,1,8,3:2:0:0:
146,205,59568,2,2,L|151:99,1,87.5,2|2,1:2|3:2,0:0:0:0:
150,117,59810,1,0,0:0:0:0:
150,117,59890,6,0,L|54:110,1,87.5,4|0,1:1|0:0,0:0:0:0:
169,15,60213,1,10,3:2:0:0:
246,82,60374,2,0,L|227:182,1,87.5,2|0,1:3|0:0,0:0:0:0:
351,0,60697,1,8,3:2:0:0:
428,67,60858,2,0,L|409:167,1,87.5,6|0,1:3|0:0,0:0:0:0:
332,226,61181,5,2,0:0:0:0:
332,226,62148,2,2,L|319:157,1,52.5000020027161,2|0,0:0|0:0,0:0:0:0:
215,53,62471,6,0,B|177:61|177:61|163:90|163:90|104:99,1,105.000004005432,12|0,1:1|0:0,0:0:0:0:
57,73,62713,1,0,0:0:0:0:
38,70,62794,2,0,L|-19:59,2,52.5000020027161,10|0|2,3:2|0:0|1:3,0:0:0:0:
10,169,63116,6,0,B|48:177|48:177|62:206|62:206|121:215,1,105.000004005432,0|10,1:0|3:2,0:0:0:0:
168,189,63358,1,0,0:0:0:0:
184,186,63439,2,0,B|222:225|222:225|234:380,1,210.000008010865,10|10,1:3|1:3,0:0:0:0:
318,269,63923,1,0,0:0:0:0:
146,306,64084,1,10,3:2:0:0:
272,160,64245,6,0,P|340:122|347:-16,1,210.000008010865,2|10,1:3|3:2,0:0:0:0:
418,240,64729,2,0,L|400:353,1,105.000004005432,2|2,0:0|0:0,0:0:0:0:
469,384,64971,1,0,0:0:0:0:
469,384,65052,5,2,1:3:0:0:
507,213,65213,1,2,0:0:0:0:
321,248,65374,1,10,3:2:0:0:
395,131,65535,2,0,L|272:107,1,105.000004005432,2|2,1:3|0:0,0:0:0:0:
256,183,65777,1,0,0:0:0:0:
257,184,65858,1,8,3:2:0:0:
94,63,66019,2,0,P|145:18|195:34,1,105.000004005432,10|2,1:3|0:0,0:0:0:0:
256,183,66342,6,0,L|138:208,1,105.000004005432,10|10,1:3|3:2,0:0:0:0:
80,246,66665,2,0,L|75:194,1,52.5000020027161,8|0,3:2|0:0,0:0:0:0:
0,202,66826,2,0,L|7:265,1,52.5000020027161,10|0,3:2|0:0,0:0:0:0:
58,384,66987,6,0,B|44:203|179:258|160:64,1,315.000012016297,6|2,1:3|0:0,0:0:0:0:
9,5,67632,6,0,B|40:9|40:9|44:23|44:23|125:31,1,105.000004005432,4|2,1:1|0:0,0:0:0:0:
173,5,67874,1,0,0:0:0:0:
173,5,67955,1,10,3:2:0:0:
253,123,68116,1,10,1:3:0:0:
253,123,68197,1,0,0:0:0:0:
253,123,68277,2,0,L|371:111,1,105.000004005432,2|10,0:0|3:2,0:0:0:0:
512,127,68600,2,0,P|480:64|379:57,1,157.500006008148,2|0,1:3|0:0,0:0:0:0:
357,112,68923,6,0,L|336:245,1,105.000004005432,2|2,1:3|0:0,0:0:0:0:
459,348,69245,1,10,3:2:0:0:
512,243,69406,2,0,P|438:265|281:343,1,210.000008010865,2|10,1:3|3:2,0:0:0:0:
184,384,69890,1,2,0:0:0:0:
160,371,69970,1,0,0:0:0:0:
145,351,70051,1,2,0:0:0:0:
139,325,70131,1,0,0:0:0:0:
140,300,70213,6,0,L|156:179,1,105.000004005432,2|2,1:3|0:0,0:0:0:0:
266,384,70535,1,10,3:2:0:0:
245,222,70697,2,0,L|261:101,1,105.000004005432,2|2,1:3|0:0,0:0:0:0:
74,243,71019,1,10,3:2:0:0:
51,163,71181,2,0,L|-13:153,2,52.5000020027161,10|0|2,1:3|0:0|0:0,0:0:0:0:
169,69,71503,5,10,1:3:0:0:
169,69,71584,1,0,0:0:0:0:
169,69,71665,1,8,3:2:0:0:
236,172,71826,1,10,3:2:0:0:
74,243,71987,1,10,3:2:0:0:
56,48,72148,2,0,P|164:28|283:-9,1,210.000008010865,6|2,1:3|1:2,0:0:0:0:
372,108,72632,1,2,3:2:0:0:
372,108,72713,1,0,0:0:0:0:
372,108,72794,6,0,L|356:258,1,105.000004005432,4|2,1:1|0:0,0:0:0:0:
243,286,73116,2,0,B|230:297|230:297|278:286,1,52.5000020027161,10|0,3:2|0:0,0:0:0:0:
308,354,73277,2,0,L|411:331,1,105.000004005432,2|2,1:3|0:0,0:0:0:0:
512,384,73600,1,10,3:2:0:0:
445,251,73761,2,0,L|456:146,1,105.000004005432,10|0,1:3|0:0,0:0:0:0:
372,24,74084,6,0,B|383:31|383:31|315:53,1,52.5000020027161,10|0,1:3|0:0,0:0:0:0:
212,136,74245,2,0,B|201:129|201:129|269:107,1,52.5000020027161,2|0,0:0|0:0,0:0:0:0:
254,24,74406,1,10,3:2:0:0:
334,175,74568,2,0,L|101:144,1,210.000008010865,2|10,1:3|3:2,0:0:0:0:
64,184,74971,1,0,0:0:0:0:
64,184,75052,1,2,0:0:0:0:
183,251,75213,1,2,0:0:0:0:
183,251,75294,1,0,0:0:0:0:
183,251,75374,6,0,B|191:289|191:289|220:303|220:303|229:362,1,105.000004005432,10|2,1:3|0:0,0:0:0:0:
166,384,75616,1,0,0:0:0:0:
166,384,75697,1,10,3:2:0:0:
257,219,75858,2,0,L|237:75,1,105.000004005432,2|2,1:3|0:0,0:0:0:0:
70,17,76181,1,10,3:2:0:0:
70,17,76261,1,0,0:0:0:0:
70,17,76342,2,0,P|112:54|171:39,1,105.000004005432,10|2,1:3|0:0,0:0:0:0:
334,77,76665,6,0,P|250:100|98:150,1,210.000008010865,10|10,1:3|3:2,0:0:0:0:
339,61,77148,1,10,3:2:0:0:
464,149,77310,6,0,L|379:135,1,52.5000020027161,6|0,1:3|0:0,0:0:0:0:
414,15,77471,2,2,L|455:252,1,210.000008010865,14|2,3:2|0:0,0:1:0:0:
503,337,77955,6,0,B|449:372|449:372|388:347,1,105.000004005432,4|2,1:1|0:0,0:0:0:0:
376,271,78277,1,10,3:2:0:0:
267,312,78439,2,0,B|263:248|263:248|315:208,1,105.000004005432,2|2,1:3|0:0,0:0:0:0:
386,152,78761,1,10,3:2:0:0:
386,152,78842,1,0,0:0:0:0:
386,152,78923,2,0,B|443:180|443:180|452:245,1,105.000004005432,10|2,1:3|0:0,0:0:0:0:
284,50,79245,5,10,1:3:0:0:
247,56,79326,1,0,3:0:0:0:
216,75,79406,1,2,3:2:0:0:
198,107,79487,1,2,3:0:0:0:
188,142,79568,1,10,1:2:0:0:
168,172,79648,1,0,3:0:0:0:
134,188,79729,1,2,3:3:0:0:
97,184,79810,1,0,3:0:0:0:
73,155,79890,6,0,B|78:125|78:125|65:96,3,52.5000020027161,10|0|10|2,1:3|3:0|3:2|3:2,0:0:0:0:
0,213,80213,2,0,B|-5:243|-5:243|8:272,3,52.5000020027161,2|0|10|2,1:3|3:0|3:1|3:0,0:0:0:0:
90,265,80535,6,0,L|216:282,1,105.000004005432,4|0,1:1|0:0,0:0:0:0:
105,355,80858,1,10,3:2:0:0:
259,349,81019,2,0,B|275:276|275:276|260:234,1,105.000004005432,2|0,1:3|1:0,0:0:0:0:
286,124,81342,1,8,3:2:0:0:
286,124,81423,1,2,0:0:0:0:
286,124,81503,2,0,L|415:106,1,105.000004005432,10|2,1:3|0:0,0:0:0:0:
484,4,81826,6,0,B|489:13|489:13|481:74,1,52.5000020027161,10|0,1:3|0:0,0:0:0:0:
471,138,81987,1,10,3:2:0:0:
409,197,82148,2,0,L|420:261,2,52.5000020027161,8|0|10,3:2|0:0|3:2,0:0:0:0:
286,124,82471,2,0,L|294:56,2,52.5000020027161,6|0|10,1:3|0:0|3:2,0:0:0:0:
230,181,82713,1,0,0:0:0:0:
230,181,82794,1,2,0:0:0:0:
321,219,82955,1,2,0:0:0:0:
135,246,83116,6,0,P|83:219|78:158,1,105.000004005432,4|2,1:1|0:0,0:0:0:0:
125,68,83439,1,10,3:2:0:0:
230,177,83600,2,0,L|197:393,1,210.000008010865,2|10,1:3|3:2,0:0:0:0:
309,307,84084,2,0,L|417:288,1,105.000004005432,10|2,1:3|0:0,0:0:0:0:
478,246,84326,1,0,0:0:0:0:
478,246,84406,5,10,1:3:0:0:
416,51,84568,2,0,L|407:-10,2,52.5000020027161,2|0|10,0:0|0:0|3:2,0:0:0:0:
508,85,84890,2,0,P|432:176|340:152,1,210.000008010865,2|10,1:3|3:2,0:0:0:0:
238,29,85374,2,0,B|229:18|229:18|290:28,1,52.5000020027161,2|0,1:2|0:0,0:0:0:0:
294,52,85535,2,0,B|303:63|303:63|242:53,1,52.5000020027161,2|0,0:0|0:0,0:0:0:0:
246,160,85697,6,0,L|271:19,1,105.000004005432,10|2,1:3|0:0,0:0:0:0:
131,16,86019,1,10,3:2:0:0:
157,108,86181,2,0,P|81:122|27:-20,1,210.000008010865,2|10,1:3|3:2,0:0:0:0:
113,218,86665,1,10,1:3:0:0:
107,243,86745,1,0,0:0:0:0:
101,269,86826,1,2,0:0:0:0:
95,294,86906,1,0,0:0:0:0:
89,320,86987,5,10,1:3:0:0:
183,295,87148,1,10,3:2:0:0:
26,248,87310,1,10,3:2:0:0:
192,205,87471,1,10,3:2:0:0:
258,368,87632,6,2,L|273:317,1,52.5000020027161,4|0,1:3|0:0,0:1:0:0:
329,260,87794,2,0,B|442:256|394:353|530:357,1,210.000008010865,0|0,0:0|3:0,0:0:0:0:
475,180,88277,6,0,B|459:175|459:175|450:132,1,52.5000020027161,4|0,1:1|0:0,0:0:0:0:
491,74,88439,2,0,B|441:55|441:55|383:96,1,105.000004005432,2|10,2:1|3:2,0:0:0:0:
248,247,88761,2,0,B|264:242|264:242|273:199,1,52.5000020027161,2|0,1:3|0:0,0:0:0:0:
232,141,88923,2,0,B|282:122|282:122|340:163,1,105.000004005432,2|10,2:1|3:2,0:0:0:0:
374,221,89165,1,2,0:0:0:0:
374,221,89245,1,10,1:3:0:0:
374,221,89568,6,0,L|384:293,3,52.5000020027161,10|0|2|0,1:3|0:0|3:2|0:0,0:0:0:0:
425,162,89890,1,10,3:2:0:0:
482,316,90052,2,0,P|406:295|265:276,1,210.000008010865,2|10,1:3|3:2,0:0:0:0:
165,362,90535,1,2,0:0:0:0:
165,362,90616,1,0,0:0:0:0:
165,362,90697,2,0,L|176:289,1,52.5000020027161,2|0,3:2|0:0,0:0:0:0:
228,171,90858,6,0,B|250:183|250:183|127:212,1,105.000004005432,10|2,1:3|0:0,0:0:0:0:
15,271,91181,1,10,3:2:0:0:
0,176,91342,2,0,B|1:51|100:123|85:-10,1,210.000008010865,2|10,1:3|3:2,0:0:0:0:
93,168,91826,1,10,1:3:0:0:
93,168,91906,1,0,0:0:0:0:
93,168,91987,1,2,0:0:0:0:
156,97,92148,5,10,1:3:0:0:
182,98,92228,1,0,0:0:0:0:
205,109,92309,1,10,3:2:0:0:
222,128,92389,1,0,0:0:0:0:
231,153,92470,1,10,3:2:0:0:
166,245,92632,1,10,3:2:0:0:
288,223,92794,2,0,P|343:253|394:396,1,210.000008010865,6|2,1:3|0:0,0:0:0:0:
278,313,93277,2,0,L|268:365,1,52.5000020027161,2|0,1:2|0:0,0:0:0:0:
385,185,93439,6,0,L|368:56,1,105.000004005432,4|2,1:1|0:0,0:0:0:0:
398,193,93761,1,10,3:2:0:0:
499,112,93923,2,0,L|482:-17,1,105.000004005432,2|2,1:3|0:0,0:0:0:0:
512,120,94245,1,10,3:2:0:0:
361,75,94406,2,0,L|238:53,1,105.000004005432,10|2,1:3|1:2,0:0:0:0:
152,263,94729,6,0,P|191:183|313:165,1,210.000008010865,10|10,1:3|3:2,0:0:0:0:
401,281,95213,2,0,L|358:61,1,210.000008010865,2|10,1:3|3:2,0:0:0:0:
235,49,95697,1,2,0:0:0:0:
208,45,95777,1,0,0:0:0:0:
182,41,95858,1,2,0:0:0:0:
156,38,95938,1,0,0:0:0:0:
130,34,96019,6,0,L|108:175,1,105.000004005432,10|2,1:3|0:0,0:0:0:0:
122,22,96342,1,10,3:2:0:0:
19,133,96503,2,0,L|-3:273,1,105.000004005432,2|2,1:3|3:2,0:0:0:0:
10,120,96826,1,10,3:2:0:0:
47,321,96987,2,0,L|169:294,1,105.000004005432,10|2,1:3|3:2,0:0:0:0:
307,372,97310,6,0,P|306:309|238:263,1,105.000004005432,10|10,1:3|3:2,0:0:0:0:
113,194,97632,2,0,P|124:171|148:160,1,52.5000020027161,10|0,3:2|0:0,0:0:0:0:
221,186,97794,2,0,P|247:184|269:199,1,52.5000020027161,10|0,3:2|0:0,0:0:0:0:
380,299,97955,6,2,L|392:228,1,52.5000020027161,6|0,1:3|0:0,0:1:0:0:
353,180,98116,2,0,B|367:65|474:144|478:-6,1,210.000008010865,0|2,0:0|0:0,0:0:0:0:
365,81,98600,6,0,L|497:133,1,105.000004005432,14|2,1:1|0:0,0:0:0:0:
512,231,98923,1,10,3:2:0:0:
353,180,99084,1,2,1:3:0:0:
426,275,99245,5,2,2:1:0:0:
403,354,99406,1,10,3:2:0:0:
284,233,99568,2,0,L|172:204,1,105.000004005432,10|2,1:3|0:0,0:0:0:0:
182,206,99810,1,0,0:0:0:0:
182,206,99890,2,0,L|147:0,1,210.000008010865,10|10,1:3|3:2,0:0:0:0:
13,37,100374,5,2,1:3:0:0:
127,71,100536,1,0,0:0:0:0:
242,106,100697,1,10,3:2:0:0:
82,150,100858,2,0,L|63:278,1,105.000004005432,2|2,0:0|0:0,0:0:0:0:
104,364,101181,6,0,B|57:349|57:349|57:342|57:342|-17:319,2,105.000004005432,6|2|0,1:1|0:0|0:0,0:0:0:0:
258,383,101665,6,0,L|249:312,1,52.5000020027161,10|0,1:1|0:0,0:0:0:0:
189,262,101826,2,0,L|307:233,1,105.000004005432,2|8,0:0|3:2,0:0:0:0:
390,179,102148,2,0,B|407:188|407:188|406:301,1,105.000004005432,10|0,1:3|0:0,0:0:0:0:
345,372,102471,5,4,3:3:0:0:
256,0,102794,5,10,1:2:0:0:
206,87,102955,1,0,1:0:0:0:
206,87,103035,1,0,3:3:0:0:
206,87,103116,2,0,L|200:152,1,52.5000020027161,0|0,3:3|0:0,0:0:0:0:
256,0,103277,1,10,1:2:0:0:
306,87,103438,1,0,1:0:0:0:
306,87,103518,1,0,1:1:0:0:
306,87,103599,2,0,L|312:152,1,52.5000020027161,10|0,2:2|0:0,0:0:0:0:
256,256,103761,5,6,1:2:0:0:
85,384,104729,6,0,P|72:341|12:224,2,157.500006008148,2|0|0,0:0|0:0|0:0,0:0:0:0:
137,10,106342,6,0,P|154:41|227:77,1,105.000004005432,2|0,0:0|0:0,0:0:0:0:
283,39,106826,1,0,0:0:0:0:
283,39,106987,2,0,L|291:106,1,52.5000020027161
366,54,107310,2,0,P|411:43|527:-8,2,157.500006008148
373,367,108923,6,0,P|403:334|477:312,1,105.000004005432,2|0,0:0|0:0,0:0:0:0:
472,236,109406,1,0,0:0:0:0:
472,236,109568,2,0,P|453:216|416:203,1,52.5000020027161
344,245,109890,2,0,P|280:198|270:108,1,157.500006008148,2|0,0:0|0:0,0:0:0:0:
265,124,110697,1,0,0:0:0:0:
265,124,110858,2,0,L|389:102,1,105.000004005432
134,261,111503,6,0,P|98:232|91:166,1,105.000004005432,2|0,0:0|0:0,0:0:0:0:
96,101,111987,1,0,0:0:0:0:
96,101,112148,2,0,P|68:93|38:93,1,52.5000020027161
186,121,112471,2,0,P|180:73|132:17,1,105.000004005432
254,182,112955,2,0,P|279:131|284:67,1,105.000004005432
243,268,113439,2,0,L|417:299,1,157.500006008148
481,365,114084,5,2,0:0:0:0:
485,278,114406,2,0,L|480:225,1,52.5000020027161
426,169,114729,2,0,L|421:116,1,52.5000020027161
487,54,115052,2,0,P|429:38|324:-4,2,157.500006008148,2|0|0,0:0|0:0|0:0,0:0:0:0:
17,108,116665,5,2,0:0:0:0:
143,0,116987,2,0,L|152:64,1,52.5000020027161
214,92,117310,2,0,L|223:156,1,52.5000020027161,2|0,0:0|0:0,0:0:0:0:
198,220,117632,2,0,P|148:236|117:293,1,105.000004005432
40,244,118116,2,0,P|40:296|77:358,1,105.000004005432
141,359,118600,1,0,0:0:0:0:
389,384,119245,6,0,P|409:335|416:260,1,105.000004005432,2|0,0:0|0:0,0:0:0:0:
379,213,119729,1,0,0:0:0:0:
379,213,119890,2,0,L|320:202,1,52.5000020027161
274,141,120213,2,0,P|289:76|359:11,2,157.500006008148,2|0|0,0:0|0:0|0:0,0:0:0:0:
46,12,121826,6,0,P|70:67|76:127,1,105.000004005432,2|0,0:0|0:0,0:0:0:0:
40,184,122310,1,0,0:0:0:0:
40,184,122471,2,0,L|110:199,1,52.5000020027161,2|0,0:0|0:0,0:0:0:0:
157,245,122794,1,0,0:0:0:0:
423,384,124406,6,2,P|435:309|476:179,1,181.999991668702,4|10,1:1|3:2,0:0:0:0:
300,384,124890,2,0,P|312:309|349:178,1,181.999991668702,2|8,1:3|3:2,0:0:0:0:
512,110,125374,2,0,L|418:127,1,90.9999958343508,2|0,1:3|0:0,0:0:0:0:
356,93,125616,1,0,0:0:0:0:
350,97,125697,6,0,P|279:85|143:18,1,181.999991668702,2|8,1:3|3:2,0:0:0:0:
341,207,126181,2,0,P|270:195|128:138,1,181.999991668702,2|8,1:3|3:2,0:0:0:0:
65,384,126665,1,2,0:0:0:0:
65,384,126745,1,0,0:0:0:0:
65,384,126826,1,2,0:0:0:0:
65,384,126906,1,0,0:0:0:0:
65,384,126987,6,0,P|67:300|-23:228,1,181.999991668702,4|10,1:1|3:2,0:0:0:0:
106,114,127471,2,0,P|159:177|115:294,1,181.999991668702,2|8,1:3|3:2,0:0:0:0:
240,176,127955,2,0,P|260:131|248:75,1,90.9999958343508,2|0,1:3|0:0,0:0:0:0:
256,90,128197,1,0,0:0:0:0:
256,90,128277,5,2,1:3:0:0:
292,241,128439,1,10,3:2:0:0:
141,277,128600,1,8,3:2:0:0:
105,126,128761,1,10,3:2:0:0:
268,243,128923,2,2,L|313:251,1,45.4999979171754,6|0,1:3|0:0,0:1:0:0:
346,178,129084,6,0,B|457:178|396:268|533:255,1,181.999991668702,0|2,0:0|3:2,0:0:0:0:
397,384,129568,6,0,L|377:274,1,90.9999958343508,4|0,1:1|0:0,0:0:0:0:
346,178,129890,1,10,3:2:0:0:
284,332,130052,2,0,L|264:222,1,90.9999958343508,2|0,1:3|0:0,0:0:0:0:
275,114,130374,1,8,3:2:0:0:
167,136,130535,2,0,P|104:123|51:104,1,90.9999958343508,2|0,1:3|0:0,0:0:0:0:
18,68,130777,1,0,0:0:0:0:
14,62,130858,6,0,L|-5:183,1,90.9999958343508,2|0,1:3|0:0,0:0:0:0:
72,207,131181,1,8,3:2:0:0:
180,137,131342,2,0,P|229:127|286:107,1,90.9999958343508,2|0,1:3|0:0,0:0:0:0:
98,26,131665,1,8,3:2:0:0:
72,207,131826,1,2,0:0:0:0:
73,215,131906,1,0,0:0:0:0:
74,224,131987,1,2,0:0:0:0:
75,232,132068,1,0,0:0:0:0:
76,240,132148,6,0,P|144:262|279:285,1,181.999991668702,4|10,1:1|3:2,0:0:0:0:
433,217,132632,2,0,P|453:148|360:89,1,181.999991668702,2|8,1:3|3:2,0:0:0:0:
253,273,133116,2,0,L|232:389,1,90.9999958343508,2|0,1:3|0:0,0:0:0:0:
465,363,133439,5,2,1:3:0:0:
433,217,133600,1,10,3:2:0:0:
393,300,133761,1,8,3:2:0:0:
283,194,133923,2,0,L|218:172,1,45.4999979171754,10|0,3:2|0:0,0:0:0:0:
170,222,134084,5,6,1:3:0:0:
45,113,134245,1,8,3:2:0:0:
56,100,134326,2,2,P|119:87|212:59,1,136.499993751526,2|0,3:2|3:0,0:0:0:0:
131,319,134729,6,0,P|64:309|19:198,1,181.999991668702,4|10,1:1|3:2,0:0:0:0:
260,210,135213,2,0,P|231:296|210:385,1,181.999991668702,2|8,1:3|3:2,0:0:0:0:
310,352,135697,2,0,P|365:340|402:290,1,90.9999958343508,2|0,1:3|0:0,0:0:0:0:
439,260,135939,1,0,0:0:0:0:
445,247,136019,6,0,L|428:138,1,90.9999958343508,2|2,1:3|0:0,0:0:0:0:
512,334,136342,1,10,3:2:0:0:
354,249,136503,2,0,L|325:59,1,181.999991668702,2|8,1:3|3:2,0:0:0:0:
36,130,136987,1,2,0:0:0:0:
36,130,137068,1,0,0:0:0:0:
36,130,137148,1,2,0:0:0:0:
36,130,137229,1,0,0:0:0:0:
36,130,137310,6,0,P|113:114|136:10,1,181.999991668702,4|8,1:1|3:2,0:0:0:0:
172,269,137794,2,0,P|95:238|-11:208,1,181.999991668702,2|8,1:3|3:2,0:0:0:0:
218,129,138277,2,0,P|234:198|274:229,1,90.9999958343508,2|0,1:3|0:0,0:0:0:0:
309,337,138600,5,2,1:3:0:0:
434,302,138761,1,10,3:2:0:0:
404,199,138923,1,8,3:2:0:0:
278,229,139084,1,10,3:2:0:0:
312,95,139245,2,2,L|361:83,1,45.4999979171754,6|0,1:3|0:0,0:1:0:0:
429,122,139406,6,0,P|440:96|343:7,1,181.999991668702,0|2,0:0|3:2,0:0:0:0:
151,58,139890,6,0,L|132:172,1,90.9999958343508,4|0,1:1|0:0,0:0:0:0:
232,67,140213,1,10,3:2:0:0:
56,117,140374,2,0,L|29:224,1,90.9999958343508,2|0,1:3|0:0,0:0:0:0:
224,315,140697,1,8,3:2:0:0:
224,315,140777,1,0,0:0:0:0:
224,315,140858,2,0,L|113:297,1,90.9999958343508,2|0,1:3|0:0,0:0:0:0:
11,198,141181,6,0,B|54:286|-23:287|0:376,1,181.999991668702,2|8,1:3|3:2,0:0:0:0:
224,315,141665,2,0,B|200:226|131:265|121:137,1,181.999991668702,2|8,1:3|3:2,0:0:0:0:
215,55,142148,1,2,0:0:0:0:
215,55,142229,1,0,0:0:0:0:
215,55,142310,1,2,0:0:0:0:
215,55,142390,1,0,0:0:0:0:
215,55,142471,6,0,L|340:75,1,90.9999958343508,4|0,1:1|0:0,0:0:0:0:
400,36,142794,1,10,3:2:0:0:
382,189,142955,2,0,P|415:256|544:270,1,181.999991668702,2|8,1:3|3:2,0:0:0:0:
512,107,143439,2,0,L|387:127,1,90.9999958343508,2|0,1:3|0:0,0:0:0:0:
269,160,143761,5,2,1:3:0:0:
436,239,143923,1,10,3:2:0:0:
329,300,144084,1,8,3:2:0:0:
222,361,144245,1,10,3:2:0:0:
410,384,144406,2,0,L|466:371,1,45.4999979171754,6|0,1:3|0:0,0:0:0:0:
329,300,144568,1,8,3:2:0:0:
323,284,144648,2,2,P|245:262|179:232,1,136.499993751526,2|0,3:2|3:0,0:0:0:0:
123,91,145052,5,4,1:1:0:0:
123,91,145374,1,10,3:2:0:0:
56,209,145535,2,0,B|58:232|58:232|4:399,1,181.999991668702,2|8,1:3|3:2,0:0:0:0:
209,272,146019,2,0,B|170:214|170:214|166:194,1,90.9999958343508,2|0,1:3|0:0,0:0:0:0:
32,98,146342,6,0,B|184:81|184:81|210:65,1,181.999991668702,6|10,1:3|3:2,0:0:0:0:
268,0,146826,2,0,P|241:101|271:200,1,181.999991668702,6|8,1:3|3:2,0:0:0:0:
422,319,147310,2,2,P|440:344|424:318,1,90.9999958343508,0|0,0:0|0:0,0:0:0:0:
346,174,147632,5,4,1:1:0:0:
346,174,147955,1,10,3:2:0:0:
483,239,148116,2,0,P|408:240|310:327,1,181.999991668702,2|8,1:3|3:2,0:0:0:0:
424,116,148600,2,0,P|381:88|353:46,1,90.9999958343508,2|0,1:3|0:0,0:0:0:0:
240,293,148923,2,0,P|202:330|186:380,1,90.9999958343508,2|10,1:3|3:2,0:0:0:0:
284,90,149245,2,0,L|267:17,1,45.4999979171754,8|0,3:2|0:0,0:0:0:0:
357,56,149406,1,10,3:2:0:0:
186,228,149568,5,6,1:3:0:0:
95,157,149729,1,8,3:2:0:0:
88,147,149810,1,0,0:0:0:0:
82,136,149890,2,2,B|71:114|71:114|84:43,1,90.9999958343508,2|0,1:2|0:0,0:0:0:0:
0,316,150213,6,0,L|108:298,1,90.9999958343508,4|0,1:1|0:0,0:0:0:0:
170,303,150535,1,10,3:2:0:0:
0,316,150697,1,2,1:3:0:0:
0,316,151019,1,8,3:2:0:0:
171,384,151181,6,0,L|189:275,1,90.9999958343508,2|0,1:3|0:0,0:0:0:0:
27,138,151503,2,0,L|45:247,1,90.9999958343508,6|0,1:3|0:0,0:0:0:0:
185,294,151826,1,10,3:2:0:0:
5,62,151987,2,0,P|45:115|183:100,1,181.999991668702,6|8,1:3|3:2,0:0:0:0:
288,25,152471,2,2,P|306:9|282:22,1,90.9999958343508,2|2,1:2|0:0,0:0:0:0:
387,275,152794,6,0,B|514:291|512:153,1,181.999991668702,4|10,1:1|3:2,0:0:0:0:
512,179,153277,1,2,1:3:0:0:
512,179,153600,1,8,3:2:0:0:
482,302,153761,2,0,B|499:317|499:317|517:406,1,90.9999958343508,2|0,1:3|0:0,0:0:0:0:
289,307,154084,2,0,B|303:241|303:241|321:226,1,90.9999958343508,2|10,1:3|3:2,0:0:0:0:
244,130,154406,2,0,L|253:212,1,45.4999979171754,8|0,3:2|0:0,0:0:0:0:
396,265,154568,2,0,L|405:347,1,45.4999979171754,10|0,3:2|0:0,0:0:0:0:
284,384,154729,5,6,1:3:0:0:
215,311,154890,1,8,3:2:0:0:
210,302,154971,1,0,0:0:0:0:
204,293,155052,2,2,L|100:267,1,90.9999958343508,0|0,0:0|0:0,0:0:0:0:
0,31,155374,6,0,P|88:41|127:144,1,181.999991668702,4|10,1:1|3:2,0:0:0:0:
129,116,155858,1,2,1:3:0:0:
129,116,156181,1,8,3:2:0:0:
273,227,156342,2,0,P|328:215|394:197,1,90.9999958343508,2|0,1:3|0:0,0:0:0:0:
197,384,156665,6,0,P|200:313|87:245,1,181.999991668702,6|10,1:3|3:2,0:0:0:0:
300,145,157148,2,0,P|385:158|521:176,1,181.999991668702,6|8,1:3|3:2,0:0:0:0:
424,7,157632,2,0,P|419:36|429:7,1,90.9999958343508,2|2,3:2|0:0,0:0:0:0:
380,195,157955,6,0,B|258:223|349:277|203:314,1,181.999991668702,4|10,1:1|3:2,0:0:0:0:
241,301,158439,1,2,1:3:0:0:
241,301,158761,1,8,3:2:0:0:
64,246,158923,2,0,P|50:307|37:352,1,90.9999958343508,2|0,1:3|0:0,0:0:0:0:
187,137,159245,2,0,P|173:198|160:243,1,90.9999958343508,2|10,1:3|3:2,0:0:0:0:
333,335,159568,2,0,L|407:325,1,45.4999979171754,8|0,3:2|0:0,0:0:0:0:
427,269,159729,2,0,L|501:259,1,45.4999979171754,10|0,3:2|0:0,0:0:0:0:
221,384,159890,5,6,1:3:0:0:
241,301,160052,1,8,3:2:0:0:
248,295,160132,1,0,0:0:0:0:
255,289,160213,2,2,L|278:191,1,90.9999958343508,2|2,1:2|3:2,0:0:0:0:
336,28,160535,6,0,B|355:42|355:42|548:18,1,181.999991668702,4|10,1:1|3:2,0:0:0:0:
512,22,161019,2,0,L|484:211,1,181.999991668702,2|8,1:3|3:2,0:0:0:0:
296,92,161503,2,0,L|180:74,1,90.9999958343508,2|0,1:3|0:0,0:0:0:0:
399,211,161826,6,0,L|432:318,1,90.9999958343508,6|0,1:3|0:0,0:0:0:0:
464,114,162148,1,10,3:2:0:0:
291,192,162310,2,0,P|227:180|212:67,1,181.999991668702,6|8,1:3|3:2,0:0:0:0:
80,0,162794,2,0,L|47:107,1,90.9999958343508,2|2,3:2|0:0,0:0:0:0:
0,247,163116,6,0,P|91:250|182:258,1,181.999991668702,4|10,1:1|3:2,0:0:0:0:
360,287,163600,2,0,P|283:250|289:165,1,181.999991668702,2|8,1:3|3:2,0:0:0:0:
435,129,164084,2,0,P|415:202|413:226,1,90.9999958343508,6|0,1:3|0:0,0:0:0:0:
448,289,164326,1,0,0:0:0:0:
448,289,164406,1,2,0:0:0:0:
444,289,165374,2,2,L|431:228,1,52.5000020027161,2|0,0:0|0:0,0:0:0:0:
421,31,165697,5,14,1:1:0:0:
342,85,165858,1,2,0:0:0:0:
331,87,165939,1,2,0:2:0:0:
320,89,166019,1,0,0:0:0:0:
246,44,166181,2,0,B|217:64|217:64|199:241,1,210.000008010865,2|10,1:3|3:2,0:0:0:0:
374,384,166665,2,0,P|314:368|257:362,1,105.000004005432,10|2,1:3|0:2,0:0:0:0:
204,327,166906,1,0,0:0:0:0:
204,327,166987,6,0,P|144:311|87:305,1,105.000004005432,10|0,1:3|0:0,0:0:0:0:
322,276,167310,2,0,L|225:289,1,52.5000020027161,10|0,3:2|0:0,0:0:0:0:
67,384,167471,2,0,B|80:357|80:357|48:175,1,210.000008010865,2|10,1:3|3:2,0:0:0:0:
36,46,167955,1,2,0:2:0:0:
47,47,168036,1,0,0:0:0:0:
58,48,168116,1,2,0:2:0:0:
69,49,168197,1,0,0:0:0:0:
80,50,168278,1,2,1:3:0:0:
167,109,168439,1,2,0:2:0:0:
255,64,168600,1,10,3:2:0:0:
46,2,168761,6,0,L|85:237,1,210.000008010865,2|10,1:3|3:2,0:0:0:0:
213,257,169245,1,10,1:3:0:0:
223,255,169326,1,0,1:2:0:0:
308,236,169487,1,0,1:2:0:0:
298,238,169568,1,10,1:3:0:0:
434,110,169729,2,0,L|428:163,1,52.5000020027161,10|0,3:2|0:0,0:0:0:0:
351,151,169890,2,0,L|357:98,1,52.5000020027161,10|0,3:2|0:0,0:0:0:0:
506,163,170052,2,0,L|514:100,1,52.5000020027161,10|0,3:2|0:0,0:0:0:0:
509,27,170213,6,2,B|315:64|475:217|276:241,1,315.000012016297,6|2,1:3|0:2,0:1:0:0:
138,116,170858,5,4,1:1:0:0:
51,186,171019,2,0,L|-8:198,2,52.5000020027161,2|2|0,0:0|0:2|0:0,0:0:0:0:
187,209,171342,2,0,B|200:283|200:283|244:299|244:299|270:406,1,210.000008010865,10|10,1:3|3:2,0:0:0:0:
250,143,171826,2,0,P|309:117|339:81,1,105.000004005432,2|2,1:3|0:2,0:0:0:0:
324,14,172068,1,0,0:0:0:0:
324,14,172148,6,0,P|384:28|420:81,1,105.000004005432,2|0,1:3|0:0,0:0:0:0:
250,143,172471,1,10,3:2:0:0:
157,95,172632,2,0,P|100:128|97:283,1,210.000008010865,2|10,1:3|3:2,0:0:0:0:
216,384,173116,1,2,0:0:0:0:
217,373,173197,1,0,0:0:0:0:
218,362,173277,1,2,0:0:0:0:
219,351,173358,1,0,0:0:0:0:
220,340,173439,1,2,1:3:0:0:
292,289,173600,1,2,0:0:0:0:
294,278,173681,1,2,0:2:0:0:
296,267,173761,1,0,0:0:0:0:
416,380,173923,6,0,P|505:329|503:212,1,210.000008010865,2|10,1:3|3:2,0:0:0:0:
411,128,174406,2,0,B|397:149|397:149|285:176,1,105.000004005432,10|2,1:3|0:0,0:0:0:0:
247,138,174648,1,0,0:0:0:0:
247,138,174729,1,10,1:3:0:0:
347,18,174890,2,0,L|329:91,1,52.5000020027161,10|0,3:2|0:0,0:0:0:0:
366,136,175052,2,0,L|348:209,1,52.5000020027161,10|0,3:2|0:0,0:0:0:0:
380,260,175213,2,0,L|362:333,1,52.5000020027161,10|0,3:2|0:0,0:0:0:0:
461,194,175374,6,0,L|512:179,2,52.5000020027161,6|0|10,1:3|0:0|3:2,0:0:0:0:
319,167,175697,2,0,B|397:149|397:149|411:128,1,105.000004005432,2|2,0:0|0:0,0:0:0:0:
512,0,176019,6,0,B|477:26|477:26|294:-1,1,210.000008010865,4|10,1:1|3:2,0:0:0:0:
183,102,176503,1,2,1:3:0:0:
117,47,176665,1,2,0:0:0:0:
115,35,176745,1,0,0:0:0:0:
113,24,176826,1,10,3:2:0:0:
41,105,176987,1,10,1:3:0:0:
40,116,177068,1,0,0:0:0:0:
39,127,177148,1,0,0:0:0:0:
38,138,177229,1,0,0:0:0:0:
37,149,177310,6,0,L|157:170,1,105.000004005432,10|0,1:3|0:0,0:0:0:0:
25,27,177632,1,10,3:2:0:0:
170,90,177794,2,0,B|193:121|193:121|153:314,1,210.000008010865,2|10,1:3|3:2,0:0:0:0:
375,148,178277,1,2,0:0:0:0:
376,137,178358,1,0,0:0:0:0:
377,126,178438,1,2,0:0:0:0:
378,115,178519,1,0,0:0:0:0:
379,104,178600,6,0,L|259:83,1,105.000004005432,10|0,1:3|0:0,0:0:0:0:
450,210,178923,1,10,3:2:0:0:
495,127,179084,1,2,1:3:0:0:
493,116,179165,1,0,1:0:0:0:
479,25,179326,1,0,1:0:0:0:
481,36,179407,1,10,3:2:0:0:
380,104,179568,2,0,L|359:224,1,105.000004005432,10|2,1:3|0:0,0:0:0:0:
467,350,179890,6,0,L|514:390,1,52.5000020027161,10|0,1:3|0:0,0:0:0:0:
383,329,180052,2,0,L|324:349,1,52.5000020027161,10|0,3:2|0:0,0:0:0:0:
442,267,180213,2,0,L|453:206,1,52.5000020027161,10|0,3:2|0:0,0:0:0:0:
467,350,180374,1,10,3:2:0:0:
291,252,180535,6,2,P|207:240|-27:125,1,315.000012016297,6|2,1:3|0:0,0:1:0:0:
88,0,181181,5,4,1:1:0:0:
89,11,181262,1,0,0:0:0:0:
90,22,181343,1,0,0:0:0:0:
91,33,181423,1,0,0:0:0:0:
92,44,181504,1,10,3:2:0:0:
165,143,181665,2,0,B|159:258|242:213|236:344,1,210.000008010865,2|10,1:3|3:2,0:0:0:0:
0,384,182148,2,0,P|49:363|107:344,1,105.000004005432,10|0,1:3|0:0,0:0:0:0:
151,292,182390,1,0,0:0:0:0:
151,292,182471,6,0,P|200:271|258:252,1,105.000004005432,10|0,1:3|0:0,0:0:0:0:
58,268,182794,1,10,1:2:0:0:
84,178,182955,1,2,3:3:0:0:
81,167,183035,1,0,0:0:0:0:
79,156,183116,1,10,1:3:0:0:
77,145,183197,1,0,0:0:0:0:
75,134,183277,1,10,3:2:0:0:
214,32,183439,1,2,1:3:0:0:
211,43,183519,1,0,0:0:0:0:
209,54,183600,1,8,3:2:0:0:
207,65,183681,1,0,0:0:0:0:
205,76,183761,6,0,L|334:88,1,105.000004005432,4|2,1:1|0:0,0:0:0:0:
327,96,184003,2,0,L|361:-22,1,105.000004005432,2|2,0:2|0:2,0:0:0:0:
363,2,184245,1,2,1:3:0:0:
460,146,184406,2,0,L|534:137,2,52.5000020027161,2|0|10,0:0|0:0|3:2,0:0:0:0:
335,183,184729,2,0,L|304:309,1,105.000004005432,10|2,1:3|0:0,0:0:0:0:
354,353,184971,1,0,0:0:0:0:
354,353,185052,6,0,L|481:337,1,105.000004005432,10|10,1:3|3:2,0:0:0:0:
322,191,185374,2,0,L|229:174,1,52.5000020027161,10|0,3:2|0:0,0:0:0:0:
219,240,185535,2,0,L|126:223,1,52.5000020027161,10|0,3:2|0:0,0:0:0:0:
52,122,185697,1,6,1:3:0:0:
52,122,186019,1,2,0:0:0:0:
125,71,186181,1,2,0:0:0:0:
122,60,186261,1,0,0:0:0:0:
118,49,186342,5,4,1:1:0:0:
32,260,186584,1,2,1:2:0:0:
30,270,186665,1,0,0:0:0:0:
87,333,186826,1,2,1:3:0:0:
162,285,186987,2,0,P|220:276|278:257,1,105.000004005432,2|10,0:0|3:2,0:0:0:0:
232,21,187310,2,0,P|197:68|169:122,1,105.000004005432,10|2,1:3|0:0,0:0:0:0:
190,184,187552,1,0,0:0:0:0:
190,184,187632,6,0,P|142:149|88:121,1,105.000004005432,10|0,1:3|0:0,0:0:0:0:
297,174,187955,1,10,3:2:0:0:
416,43,188116,2,0,P|358:52|300:71,1,105.000004005432,2|8,1:3|3:3,0:0:0:0:
346,307,188439,2,0,P|380:259|408:205,1,105.000004005432,10|2,3:2|0:0,0:0:0:0:
388,144,188681,1,0,0:0:0:0:
388,144,188761,1,2,0:0:0:0:
476,200,188923,5,10,1:3:0:0:
479,94,189084,1,0,0:0:0:0:
388,144,189245,1,10,3:2:0:0:
325,28,189406,2,0,B|315:53|315:53|125:79,1,210.000008010865,2|10,1:3|3:2,0:0:0:0:
37,266,189890,1,10,1:3:0:0:
48,269,189970,1,0,0:0:0:0:
59,271,190051,1,2,0:0:0:0:
70,273,190132,1,0,0:0:0:0:
81,275,190212,5,10,1:3:0:0:
166,168,190374,2,0,L|186:250,1,52.5000020027161,10|0,3:2|0:0,0:0:0:0:
252,199,190535,2,0,L|239:147,1,52.5000020027161,10|0,3:2|0:0,0:0:0:0:
314,129,190697,2,0,L|334:211,1,52.5000020027161,10|0,3:2|0:0,0:0:0:0:
237,384,190858,6,2,B|26:357|219:244|-22:215,1,315.000012016297,6|2,1:3|0:0,0:1:0:0:
281,273,191503,5,4,1:1:0:0:
354,332,191665,2,0,L|342:399,2,52.5000020027161,2|2|0,0:0|0:2|0:0,0:0:0:0:
325,192,191987,2,0,B|311:127|311:127|343:97|343:97|317:-34,1,210.000008010865,2|10,1:3|3:2,0:0:0:0:
397,236,192471,2,0,L|509:264,1,105.000004005432,10|2,1:3|0:0,0:0:0:0:
512,341,192713,1,0,0:0:0:0:
512,341,192794,6,0,L|400:369,1,105.000004005432,10|0,1:3|0:0,0:0:0:0:
464,158,193116,1,10,3:2:0:0:
325,192,193277,2,0,P|251:153|255:33,1,210.000008010865,2|10,1:3|3:2,0:0:0:0:
469,3,193761,1,2,0:0:0:0:
466,13,193842,1,0,0:0:0:0:
463,23,193923,1,2,0:0:0:0:
461,33,194003,1,0,0:0:0:0:
459,43,194084,5,10,1:3:0:0:
398,105,194245,1,2,0:0:0:0:
314,80,194406,1,0,0:0:0:0:
311,90,194487,1,2,0:2:0:0:
308,100,194568,2,0,P|244:119|187:143,1,105.000004005432,2|2,1:3|0:0,0:0:0:0:
226,25,194890,1,10,3:2:0:0:
340,177,195052,2,0,P|294:225|256:274,1,105.000004005432,10|2,1:3|0:0,0:0:0:0:
107,267,195374,5,10,1:3:0:0:
24,204,195535,2,0,L|11:141,1,52.5000020027161,10|0,3:2|0:0,0:0:0:0:
64,93,195697,2,0,L|51:30,1,52.5000020027161,10|0,3:2|0:0,0:0:0:0:
143,114,195858,2,0,L|153:165,1,52.5000020027161,10|0,3:2|0:0,0:0:0:0:
108,268,196019,5,6,1:3:0:0:
194,342,196181,1,10,3:2:0:0:
202,348,196261,2,0,L|312:334,1,105.000004005432,2|0,1:2|0:0,0:0:0:0:
315,339,196503,1,2,0:0:0:0:
383,191,196665,5,4,1:1:0:0:
310,132,196826,1,0,0:0:0:0:
299,129,196906,1,0,0:0:0:0:
288,127,196987,1,10,3:2:0:0:
289,230,197148,1,2,1:3:0:0:
457,102,197310,2,0,P|448:43|433:-13,1,105.000004005432,2|10,0:0|3:2,0:0:0:0:
285,224,197632,2,0,P|294:283|309:339,1,105.000004005432,10|2,1:3|0:0,0:0:0:0:
376,359,197874,1,0,0:0:0:0:
376,359,197955,6,0,L|490:340,1,105.000004005432,10|0,1:3|0:0,0:0:0:0:
353,187,198277,1,10,3:2:0:0:
211,306,198439,2,0,B|140:325|140:325|117:365|117:365|13:389,1,210.000008010865,2|10,1:3|3:2,0:0:0:0:
56,191,198923,1,2,0:0:0:0:
58,180,199003,1,0,0:0:0:0:
60,169,199084,1,2,0:0:0:0:
62,158,199165,1,0,0:0:0:0:
64,147,199245,1,10,1:3:0:0:
141,218,199406,1,0,0:0:0:0:
143,229,199486,1,0,0:0:0:0:
145,240,199567,1,10,3:2:0:0:
0,70,199729,6,0,P|72:55|235:9,1,210.000008010865,2|10,1:3|3:2,0:0:0:0:
346,68,200213,2,0,L|338:128,2,52.5000020027161,10|0|2,1:3|0:0|0:0,0:0:0:0:
232,138,200535,5,10,1:3:0:0:
461,132,200697,2,0,L|489:192,1,52.5000020027161,10|0,3:2|0:0,0:0:0:0:
389,191,200858,2,0,L|383:257,1,52.5000020027161,10|0,3:2|0:0,0:0:0:0:
297,208,201019,2,0,L|259:262,1,52.5000020027161,10|0,3:2|0:0,0:0:0:0:
328,384,201181,6,2,B|318:191|489:313|447:75,1,315.000012016297,6|2,1:3|0:0,0:1:0:0:
381,0,201826,5,12,1:1:0:0:
302,39,201987,1,2,0:0:0:0:
276,34,202068,1,2,0:2:0:0:
250,29,202148,1,0,0:0:0:0:
376,97,202310,1,2,1:3:0:0:
287,124,202471,1,2,0:0:0:0:
261,119,202552,1,0,0:0:0:0:
235,114,202632,1,10,3:2:0:0:
149,183,202794,1,10,1:3:0:0:
146,208,202874,1,2,0:2:0:0:
143,234,202955,1,0,0:0:0:0:
140,259,203035,1,2,0:2:0:0:
137,285,203116,5,10,1:3:0:0:
242,322,203277,2,0,L|300:312,2,52.5000020027161,2|0|10,0:0|0:0|3:2,0:0:0:0:
0,384,203600,2,0,B|12:351|12:351|141:316|141:316|159:262,1,210.000008010865,10|0,1:3|0:0,0:0:0:0:
41,215,204084,1,8,1:3:0:0:
38,190,204164,1,0,0:0:0:0:
35,164,204245,1,2,0:0:0:0:
32,139,204325,1,0,0:0:0:0:
29,113,204406,5,4,1:1:0:0:
104,39,204568,1,2,0:0:0:0:
130,34,204649,1,0,0:0:0:0:
156,29,204729,1,10,3:2:0:0:
235,114,204890,1,8,1:2:0:0:
339,36,205052,1,2,0:0:0:0:
344,62,205133,1,0,0:0:0:0:
349,88,205213,1,10,3:2:0:0:
320,220,205374,1,10,1:3:0:0:
294,225,205455,1,0,0:0:0:0:
268,230,205535,1,2,0:0:0:0:
235,114,205697,5,4,3:3:0:0:
256,384,206019,5,10,1:2:0:0:
206,297,206181,1,0,1:0:0:0:
206,297,206261,1,0,3:3:0:0:
206,297,206342,2,0,L|200:232,1,52.5000020027161,0|0,3:3|0:0,0:0:0:0:
256,384,206503,1,10,1:2:0:0:
306,297,206665,1,0,1:0:0:0:
306,297,206745,1,0,1:1:0:0:
306,297,206826,2,0,L|312:232,1,52.5000020027161,10|0,2:2|0:0,0:0:0:0:
256,96,206987,5,6,1:2:0:0:
362,365,207955,6,0,P|411:344|524:319,2,157.500006008148,2|0|0,0:0|0:0|0:0,0:0:0:0:
206,0,209568,6,0,P|197:63|166:174,1,157.500006008148,2|0,0:0|0:0,0:0:0:0:
94,160,210213,2,0,P|45:174|23:182,1,52.5000020027161
31,310,210535,6,0,P|71:272|182:268,2,157.500006008148
358,384,212148,6,0,P|341:277|340:260,1,105.000004005432,2|0,0:0|0:0,0:0:0:0:
397,224,212632,1,0,0:0:0:0:
397,224,212794,2,0,P|438:218|471:211,1,52.5000020027161
466,137,213116,2,0,P|442:82|455:24,1,105.000004005432
333,121,213600,2,0,P|335:68|371:10,1,105.000004005432
358,22,214084,1,0,0:0:0:0:
133,176,214729,6,0,P|66:160|40:76,1,157.500006008148,2|0,0:0|0:0,0:0:0:0:
95,33,215374,2,0,P|132:30|163:24,1,52.5000020027161
226,150,215697,2,0,P|211:197|200:304,1,157.500006008148
200,304,216342,1,0,0:0:0:0:
200,304,216665,1,0,0:0:0:0:
512,59,217310,6,2,B|497:97|497:97|365:115|365:115|350:148,1,210.000008010865,2|0,0:0|0:0,0:0:0:0:
247,192,218277,2,0,P|303:213|393:270,1,157.500006008148
279,290,219084,1,0,0:0:0:0:
279,290,219245,2,0,P|257:324|236:389,1,105.000004005432
101,242,219890,6,0,B|103:161|40:188|47:81,1,157.500006008148,2|0,0:0|0:0,0:0:0:0:
98,38,220535,2,0,P|133:30|164:18,1,52.5000020027161
222,49,220858,2,0,P|284:37|386:12,2,157.500006008148
441,384,222471,6,0,P|430:322|338:278,1,157.500006008148,2|0,0:0|0:0,0:0:0:0:
281,242,223116,2,0,P|273:208|264:174,1,52.5000020027161,0|2,0:0|0:0,0:0:0:0:
321,135,223439,2,0,P|364:120|418:18,1,157.500006008148
492,112,224245,1,0,0:0:0:0:
492,112,224406,2,0,P|500:147|513:227,1,105.000004005432
337,288,225052,6,0,P|277:290|181:331,1,157.500006008148,2|0,0:0|0:0,0:0:0:0:
109,296,225697,2,0,P|93:260|78:229,1,52.5000020027161
136,183,226019,1,0,0:0:0:0:
76,73,226503,1,0,0:0:0:0:
76,73,226665,2,0,P|117:64|146:57,1,52.5000020027161
224,0,226987,6,2,B|170:69|234:164|327:106|237:73,1,210.000008010865,0|2,0:0|0:0,0:0:0:0:
