osu file format v14

[General]
AudioFilename: audio.mp3
AudioLeadIn: 0
PreviewTime: 21181
Countdown: 0
SampleSet: None
StackLeniency: 0.7
Mode: 0
LetterboxInBreaks: 0
WidescreenStoryboard: 1
SamplesMatchPlaybackRate: 1

[Editor]
DistanceSpacing: 1.1
BeatDivisor: 4
GridSize: 32
TimelineZoom: 2.7

[Metadata]
Title:Yandere Complex
TitleUnicode:Yandere Complex
Artist:Sewerslvt
ArtistUnicode:Sewerslvt
Creator:228
Version:Caspar's Insane
Source:
Tags:AYE1337 Caspar sewerslut dnb drum and bass breakcore electronic instrumental draining love story fingercontrol stamina
BeatmapID:4313601
BeatmapSetID:1412956

[Difficulty]
HPDrainRate:5
CircleSize:4
OverallDifficulty:7
ApproachRate:9
SliderMultiplier:1.4
SliderTickRate:1

[Events]
//Background and Video events
0,0,"totallynotstolenbg.jpg",0,0
//Break Periods
//Storyboard Layer 0 (Background)
//Storyboard Layer 1 (Fail)
//Storyboard Layer 2 (Pass)
//Storyboard Layer 3 (Foreground)
//Storyboard Layer 4 (Overlay)
//Storyboard Sound Samples

[TimingPoints]
536,322.58064516129,4,2,0,60,1,0
10858,-133.333333333333,4,2,1,45,0,0
15697,-117.647058823529,4,2,1,50,0,0
16503,-117.647058823529,4,2,1,55,0,0
20535,-117.647058823529,4,2,1,60,0,0
20697,-117.647058823529,4,2,1,65,0,0
20858,-100,4,2,1,80,0,0
21181,-79.9999999999998,4,2,1,75,0,0
62148,-133.333333333333,4,2,1,75,0,0
62471,-76.9230769230769,4,2,1,75,0,0
103761,-133.333333333333,4,2,1,75,0,0
104729,-133.333333333333,4,2,1,55,0,0
124406,-80,4,2,1,75,0,0
165374,-133.333333333333,4,2,1,40,0,0
165697,-76.9230769230769,4,3,1,85,0,0
206987,-133.333333333333,4,2,1,55,0,0
222471,-133.333333333333,4,2,1,50,0,0
222794,-133.333333333333,4,2,1,50,0,0
223439,-133.333333333333,4,2,1,50,0,0
225374,-133.333333333333,4,2,1,50,0,0
225697,-133.333333333333,4,2,1,50,0,0
226341,-133.333333333333,4,2,1,50,0,0
226503,-133.333333333333,4,2,1,50,0,0
226825,-133.333333333333,4,2,1,50,0,0
226987,-133.333333333333,4,2,1,55,0,0

[Colours]
Combo1 : 85,163,196
Combo2 : 225,91,91
Combo3 : 109,101,216
Combo4 : 210,106,200

[HitObjects]
51,268,10858,6,0,P|105:268|169:279,1,105.000004005432,2|8,3:2|2:2,0:0:0:0:
231,238,11342,1,0,3:3:0:0:
231,238,11665,1,10,2:2:0:0:
292,295,11826,2,0,L|297:320,3,26.2500010013581,2|0|2|0,0:0|0:0|0:0|0:0,0:0:0:0:
329,275,12148,5,2,3:2:0:0:
410,298,12310,1,0,3:3:0:0:
471,240,12471,2,0,L|465:172,1,52.5000020027161,10|2,2:2|3:2,0:0:0:0:
461,103,12955,5,8,2:2:0:0:
395,50,13116,2,0,L|389:24,3,26.2500010013581,0|0|2|0,3:0|0:0|3:2|0:0,0:0:0:0:
360,74,13439,6,0,P|316:83|241:64,1,105.000004005432,2|8,3:2|2:2,0:0:0:0:
177,98,13923,2,0,P|129:92|71:101,1,105.000004005432,2|10,3:2|2:2,0:0:0:0:
73,100,14406,1,2,0:0:0:0:
42,178,14568,2,0,L|2:176,2,26.2500010013581,2|0|2,0:0|0:0|3:2,0:0:0:0:
79,252,14890,1,0,3:3:0:0:
79,252,15052,6,0,L|148:243,1,52.5000020027161,10|0,2:2|3:3,0:0:0:0:
171,269,15294,1,0,0:0:0:0:
171,269,15374,2,0,L|240:260,1,52.5000020027161,10|0,2:2|3:3,0:0:0:0:
249,229,15616,1,0,0:0:0:0:
249,229,15697,2,0,P|256:277|251:343,1,89.2500017023087,2|0,3:2|0:0,0:0:0:0:
282,356,16019,5,2,3:2:0:0:
451,313,16342,5,8,2:2:0:0:
451,313,16503,2,0,P|375:296|362:239,1,119.000002269745,2|10,3:2|2:2,0:0:0:0:
409,182,16987,2,0,L|438:177,3,29.7500005674362,2|0|2|0,0:0|0:0|0:0|0:0,0:0:0:0:
372,150,17310,1,2,3:2:0:0:
398,58,17471,1,0,3:3:0:0:
398,58,17632,6,0,L|457:65,2,59.5000011348725,8|2|0,2:2|3:2|0:0,0:0:0:0:
320,2,18116,1,10,2:2:0:0:
233,41,18277,2,0,P|218:41|203:37,3,29.7500005674362,2|0|2|0,0:0|0:0|0:0|0:0,0:0:0:0:
264,78,18600,6,0,L|251:200,1,119.000002269745,2|8,3:2|2:2,0:0:0:0:
311,258,19084,2,0,B|277:283|277:283|266:374,1,119.000002269745,2|10,3:2|2:2,0:0:0:0:
187,306,19568,5,2,0:0:0:0:
111,359,19729,1,2,0:0:0:0:
111,359,19810,1,0,0:0:0:0:
111,359,19890,1,2,3:2:0:0:
34,310,20052,1,0,3:3:0:0:
34,310,20213,6,0,L|47:226,1,59.5000011348725,10|0,2:2|3:3,0:0:0:0:
114,188,20535,6,0,L|127:104,1,59.5000011348725,10|0,2:2|3:3,0:0:0:0:
208,86,20858,5,2,3:3:0:0:
226,0,21019,1,0,0:0:0:0:
339,77,21181,6,0,P|391:88|499:68,1,131.25,4|0,1:1|0:0,0:0:0:0:
468,79,21503,1,10,3:2:0:0:
485,178,21665,2,0,P|438:188|374:215,1,87.5,2|0,1:3|3:0,0:0:0:0:
361,115,21987,1,8,3:2:0:0:
297,179,22148,2,0,L|312:271,1,87.5,2|0,1:3|0:0,0:0:0:0:
389,337,22471,6,0,B|310:293|310:293|220:347,1,175,2|8,1:3|3:2,0:0:0:0:
132,332,22955,2,0,L|41:327,2,87.5,2|0|8,1:3|0:0|3:2,0:0:0:0:
98,231,23439,2,0,L|41:241,2,43.75,2|0|2,3:2|3:0|3:2,0:0:0:0:
136,208,23681,5,0,3:0:0:0:
136,208,23761,2,0,P|149:154|140:102,1,87.5,4|0,1:1|3:0,0:0:0:0:
75,45,24084,1,10,3:2:0:0:
198,41,24245,6,0,P|232:19|281:30,1,87.5,2|0,1:3|0:0,0:0:0:0:
384,0,24568,1,8,3:2:0:0:
495,89,24729,6,0,L|401:74,1,87.5,2|0,1:3|0:0,0:0:0:0:
375,102,24971,1,0,0:0:0:0:
375,102,25052,2,0,P|383:154|374:210,3,87.5,2|10|8|10,1:3|3:2|3:2|3:2,0:0:0:0:
379,188,25697,5,6,1:3:0:0:
510,197,25858,2,0,P|439:202|329:276,1,175,0|2,0:0|3:2,0:0:0:0:
217,275,26342,6,0,P|235:324|235:369,1,87.5,4|2,1:1|0:0,0:0:0:0:
129,288,26665,1,10,3:2:0:0:
54,240,26826,2,0,P|75:195|80:128,1,87.5,2|0,1:3|0:0,0:0:0:0:
156,113,27148,1,8,3:2:0:0:
156,113,27310,2,0,P|146:53|116:10,1,87.5,2|0,1:3|3:0,0:0:0:0:
175,25,27552,5,0,0:0:0:0:
175,25,27632,2,0,B|262:24|262:24|350:42,1,175,2|8,1:3|3:2,0:0:0:0:
446,36,28116,2,0,B|359:53|359:53|272:52,1,175,2|8,1:3|3:2,0:0:0:0:
280,136,28600,6,0,L|236:136,3,43.75,2|0|2|0,3:2|3:0|3:2|3:0,0:0:0:0:
320,153,28923,1,4,1:1:0:0:
406,119,29084,1,0,3:0:0:0:
478,166,29245,2,0,L|473:257,1,87.5,10|2,3:2|1:3,0:0:0:0:
473,253,29568,1,0,0:0:0:0:
385,251,29729,1,8,3:2:0:0:
385,251,29890,2,0,L|399:341,1,87.5,2|2,1:3|1:2,0:0:0:0:
366,367,30132,5,0,3:0:0:0:
366,367,30213,1,2,1:3:0:0:
281,346,30374,1,10,3:2:0:0:
196,323,30535,1,8,3:2:0:0:
113,291,30697,1,10,3:2:0:0:
40,339,30858,5,6,1:3:0:0:
67,220,31019,2,2,B|88:177|88:177|35:105,1,131.25,8|0,3:2|0:0,0:0:0:0:
38,109,31342,1,0,0:0:0:0:
87,36,31503,6,0,P|147:21|207:24,1,87.5,4|0,1:1|0:0,0:0:0:0:
243,72,31826,1,10,3:2:0:0:
312,19,31987,2,0,P|331:61|320:114,1,87.5,2|0,1:3|0:0,0:0:0:0:
422,94,32310,1,8,3:2:0:0:
433,191,32471,2,0,B|446:209|446:209|516:243,1,87.5,2|2,1:3|3:2,0:0:0:0:
353,247,32794,6,0,B|380:277|380:277|515:326,1,175,2|10,1:3|3:2,0:0:0:0:
295,307,33277,2,0,B|267:337|267:337|132:386,1,175,2|8,1:3|3:2,0:0:0:0:
85,324,33761,2,0,L|42:313,3,43.75,2|0|2|0,3:2|3:0|3:2|0:0,0:0:0:0:
117,293,34084,5,4,1:1:0:0:
95,213,34245,1,0,0:0:0:0:
95,213,34406,2,0,P|45:219|4:219,1,87.5,8|2,3:2|1:3,0:0:0:0:
132,131,34729,1,0,0:0:0:0:
132,131,34890,1,8,3:2:0:0:
6,59,35052,2,0,P|55:52|97:53,1,87.5,2|0,1:3|0:0,0:0:0:0:
134,38,35294,5,0,3:0:0:0:
175,23,35374,2,0,B|206:18|206:18|217:21|217:21|228:17|228:17|262:20,3,87.5,2|10|8|10,1:3|3:2|3:2|3:2,0:0:0:0:
338,61,36019,5,6,1:3:0:0:
338,61,36181,2,0,B|396:22|396:22|396:75|396:75|421:164,1,175,0|2,0:0|1:2,0:0:0:0:
476,183,36665,6,0,P|448:227|437:265,1,87.5,4|2,1:1|0:0,0:0:0:0:
437,260,36987,1,10,3:2:0:0:
351,240,37148,2,0,P|348:292|322:339,1,87.5,2|0,1:3|0:0,0:0:0:0:
248,303,37471,1,8,3:2:0:0:
177,354,37632,2,0,L|77:346,1,87.5,2|0,1:3|0:0,0:0:0:0:
72,311,37874,5,0,0:0:0:0:
72,311,37955,2,0,P|100:262|224:176,1,175,2|8,1:3|3:2,0:0:0:0:
65,151,38439,2,0,P|160:93|213:17,1,175,2|8,1:3|3:2,0:0:0:0:
285,75,38923,2,0,P|300:53|313:17,3,43.75,2|0|2|0,3:2|3:0|3:2|3:0,0:0:0:0:
334,71,39245,5,4,1:1:0:0:
416,42,39406,1,0,0:0:0:0:
491,86,39568,1,10,3:2:0:0:
482,171,39729,5,2,1:3:0:0:
400,200,39890,1,0,0:0:0:0:
325,156,40052,1,8,3:2:0:0:
245,191,40213,2,0,P|233:242|228:301,1,87.5,2|0,1:3|0:0,0:0:0:0:
205,314,40455,1,0,0:0:0:0:
205,314,40535,1,2,1:3:0:0:
111,347,40697,5,10,3:2:0:0:
133,255,40858,1,8,3:2:0:0:
111,347,41019,1,10,3:2:0:0:
0,223,41181,5,6,1:3:0:0:
55,281,41342,2,2,P|40:218|50:101,1,175,8|0,3:2|3:0,0:0:0:0:
52,22,41826,6,0,L|191:39,1,131.25,4|0,1:1|0:0,0:0:0:0:
182,37,42148,2,0,P|193:98|190:150,1,87.5,10|2,3:2|1:3,0:0:0:0:
198,216,42471,1,0,0:0:0:0:
295,204,42632,1,8,3:2:0:0:
295,204,42794,2,0,P|366:200|407:192,1,87.5,2|0,1:3|0:0,0:0:0:0:
428,194,43035,5,0,0:0:0:0:
428,194,43116,2,0,P|456:144|393:37,1,175,6|10,1:3|3:2,0:0:0:0:
277,54,43600,2,0,P|249:104|312:211,1,175,6|8,1:3|3:2,0:0:0:0:
369,253,44084,5,2,1:2:0:0:
376,268,44165,1,0,0:0:0:0:
381,284,44245,1,2,3:2:0:0:
384,301,44326,1,0,0:0:0:0:
385,318,44406,6,0,P|346:342|323:380,1,87.5,4|0,1:1|0:0,0:0:0:0:
255,264,44729,1,10,3:2:0:0:
255,264,44890,2,0,P|233:304|232:348,1,87.5,2|0,1:3|0:0,0:0:0:0:
118,299,45213,1,8,3:2:0:0:
118,299,45374,2,0,P|119:344|140:383,1,87.5,2|0,1:3|0:0,0:0:0:0:
138,380,45616,5,0,0:0:0:0:
138,380,45697,1,2,1:3:0:0:
50,374,45858,1,10,3:2:0:0:
41,282,46019,1,8,3:2:0:0:
32,192,46181,1,10,3:2:0:0:
32,47,46342,5,6,1:3:0:0:
124,123,46503,2,2,B|146:120|146:120|302:158,1,175,8|0,3:2|0:0,0:1:0:0:
288,63,46987,6,0,B|331:41|331:41|397:49,1,87.5,4|2,1:1|0:0,0:0:0:0:
456,61,47310,1,10,3:2:0:0:
400,128,47471,2,0,P|386:168|382:214,1,87.5,2|0,1:3|0:0,0:0:0:0:
448,268,47794,1,8,3:2:0:0:
448,268,47955,2,0,P|399:238|337:227,1,87.5,2|0,1:3|0:0,0:0:0:0:
354,199,48197,5,0,0:0:0:0:
354,199,48277,2,0,P|268:214|163:209,1,175,6|10,1:3|3:2,0:0:0:0:
260,130,48761,2,0,P|174:113|78:70,1,175,6|8,1:3|3:2,0:0:0:0:
23,148,49245,5,0,0:0:0:0:
30,168,49326,1,0,0:0:0:0:
35,189,49406,1,0,0:0:0:0:
35,210,49487,1,0,0:0:0:0:
30,231,49568,6,0,P|18:283|23:330,2,87.5,4|0|10,1:1|0:0|3:2,0:0:0:0:
111,279,50052,2,0,P|123:330|149:370,2,87.5,2|0|8,1:3|1:0|3:2,0:0:0:0:
198,281,50535,2,0,P|245:302|309:305,1,87.5,2|0,1:3|0:0,0:0:0:0:
301,345,50777,5,0,0:0:0:0:
301,345,50858,1,2,1:3:0:0:
357,278,51019,1,10,3:2:0:0:
441,302,51181,1,8,3:2:0:0:
441,302,51342,1,10,3:2:0:0:
512,233,51503,5,6,1:3:0:0:
405,175,51665,2,0,B|448:60|448:60|415:5,1,175,8|2,3:2|0:0,0:0:0:0:
350,66,52148,6,0,B|304:54|304:54|263:85,1,87.5,4|0,1:1|0:0,0:0:0:0:
203,17,52471,1,10,3:2:0:0:
156,99,52632,2,0,P|102:93|61:77,1,87.5,2|0,1:3|0:0,0:0:0:0:
2,199,52955,1,8,3:2:0:0:
2,199,53116,2,0,P|57:182|128:185,1,87.5,2|2,1:3|3:2,0:0:0:0:
86,179,53358,5,0,3:0:0:0:
86,179,53439,2,0,P|85:257|54:370,1,175,6|10,1:3|3:2,0:0:0:0:
176,367,53923,2,0,P|176:288|208:176,1,175,6|8,1:3|3:2,0:0:0:0:
268,141,54406,5,2,1:2:0:0:
260,120,54487,1,0,0:0:0:0:
256,98,54568,1,2,3:2:0:0:
255,76,54648,1,0,0:0:0:0:
260,54,54729,6,0,L|355:36,1,87.5,4|0,1:1|0:0,0:0:0:0:
497,79,55052,1,10,3:2:0:0:
497,79,55213,2,0,L|402:97,1,87.5,2|0,1:3|0:0,0:0:0:0:
363,168,55535,1,8,3:2:0:0:
434,219,55697,2,0,P|465:254|481:304,1,87.5,2|0,1:3|0:0,0:0:0:0:
479,291,55939,5,0,0:0:0:0:
479,291,56019,1,2,1:3:0:0:
394,363,56181,1,10,3:2:0:0:
339,294,56342,1,8,3:2:0:0:
267,343,56503,1,10,3:2:0:0:
210,275,56665,1,6,1:3:0:0:
210,275,56826,6,2,P|121:269|18:273,1,175,8|0,3:2|0:0,0:1:0:0:
38,349,57310,6,0,P|53:307|22:263,1,87.5,4|2,1:1|0:0,0:0:0:0:
75,193,57632,1,10,3:2:0:0:
139,133,57794,2,0,P|117:79|70:32,1,87.5,2|0,1:3|0:0,0:0:0:0:
15,80,58116,1,8,3:2:0:0:
106,40,58277,2,0,P|156:27|215:29,1,87.5,2|0,1:3|0:0,0:0:0:0:
231,5,58519,5,0,0:0:0:0:
231,5,58600,2,0,B|247:52|206:133|240:187,1,175,6|10,1:3|3:2,0:0:0:0:
171,246,59084,2,0,P|247:272|321:176,1,175,6|8,1:3|3:2,0:0:0:0:
415,162,59568,5,2,1:2:0:0:
433,174,59648,1,0,0:0:0:0:
445,191,59729,1,2,3:2:0:0:
453,211,59810,1,0,0:0:0:0:
457,232,59890,6,0,P|440:276|440:323,1,87.5,4|0,1:1|0:0,0:0:0:0:
275,245,60213,1,10,3:2:0:0:
275,245,60374,2,0,L|383:226,1,87.5,2|0,1:3|0:0,0:0:0:0:
213,315,60697,1,8,3:2:0:0:
162,245,60858,2,0,B|29:229|29:229|0:291,1,175,6|2,1:3|0:0,0:0:0:0:
96,41,62471,5,12,1:1:0:0:
185,57,62632,1,0,0:0:0:0:
281,82,62794,1,10,3:2:0:0:
281,82,62874,1,0,0:0:0:0:
281,82,62955,1,2,1:3:0:0:
400,56,63116,5,0,1:0:0:0:
351,132,63277,1,10,3:2:0:0:
396,222,63439,1,10,1:3:0:0:
396,222,63519,1,0,0:0:0:0:
396,222,63600,1,2,0:0:0:0:
500,310,63761,5,10,1:3:0:0:
408,302,63923,1,0,0:0:0:0:
318,289,64084,2,0,L|306:339,2,45.4999979171754,10|0|2,3:2|0:0|1:3,0:0:0:0:
225,224,64406,5,8,3:3:0:0:
134,240,64568,1,10,3:2:0:0:
43,250,64729,2,0,L|44:295,3,45.4999979171754,2|0|2|0,0:0|0:0|0:0|0:0,0:0:0:0:
16,206,65052,6,0,P|21:155|15:98,1,90.9999958343508,2|2,1:3|0:0,0:0:0:0:
63,138,65294,1,0,0:0:0:0:
63,138,65374,2,0,P|58:87|64:30,1,90.9999958343508,10|2,3:2|1:3,0:0:0:0:
25,28,65616,5,0,0:0:0:0:
25,28,65697,1,2,0:0:0:0:
109,46,65858,1,8,3:2:0:0:
197,68,66019,2,0,L|255:75,3,45.4999979171754,10|0|2|0,1:3|0:0|0:0|0:0,0:0:0:0:
217,103,66342,6,0,P|218:166|269:191,1,90.9999958343508,10|10,1:3|3:2,0:0:0:0:
317,141,66665,1,8,3:2:0:0:
389,189,66826,1,10,3:2:0:0:
506,152,66987,5,6,1:3:0:0:
429,105,67148,1,14,3:2:0:0:
389,189,67310,2,0,P|389:237|380:299,1,90.9999958343508,0|2,0:0|0:0,0:0:0:0:
351,312,67552,5,0,0:0:0:0:
351,312,67632,2,0,P|411:304|437:343,2,90.9999958343508,4|2|10,1:1|0:0|3:2,0:0:0:0:
253,304,68116,2,0,P|204:340|214:386,2,90.9999958343508,10|2|10,1:3|0:0|3:2,0:0:0:0:
278,267,68519,1,0,0:0:0:0:
278,267,68600,2,0,P|274:188|279:115,1,136.499993751526,2|0,1:3|0:0,0:0:0:0:
245,97,68923,5,2,1:3:0:0:
158,71,69084,1,2,0:0:0:0:
77,113,69245,2,0,L|68:163,1,45.4999979171754,10|0,3:2|0:0,0:0:0:0:
29,180,69406,2,0,L|142:201,1,90.9999958343508,2|10,1:3|3:3,0:0:0:0:
187,260,69729,6,0,L|196:310,1,45.4999979171754,10|0,3:2|0:0,0:0:0:0:
235,327,69890,2,0,L|190:336,3,45.4999979171754,2|0|2|0,0:0|0:0|0:0|0:0,0:0:0:0:
280,319,70213,5,2,1:3:0:0:
375,305,70374,1,2,0:0:0:0:
375,305,70455,1,0,0:0:0:0:
375,305,70535,1,10,3:2:0:0:
464,288,70697,2,0,L|480:234,2,45.4999979171754,2|0|2,1:3|0:0|0:0,0:0:0:0:
406,178,71019,5,10,3:2:0:0:
454,66,71181,2,0,L|466:109,2,45.4999979171754,10|0|2,1:3|0:0|0:0,0:0:0:0:
349,25,71503,1,10,1:3:0:0:
349,25,71584,1,0,0:0:0:0:
349,25,71665,2,0,P|288:30|221:54,1,90.9999958343508,8|10,3:2|3:2,0:0:0:0:
238,79,71906,5,0,0:0:0:0:
238,79,71987,2,0,P|213:86|185:84,1,45.4999979171754,10|0,3:2|0:0,0:0:0:0:
149,73,72148,2,0,P|122:80|100:95,4,45.4999979171754,6|0|10|0|2,1:3|0:0|3:2|0:0|1:2,0:0:0:0:
18,161,72632,5,2,3:2:0:0:
18,161,72713,1,0,0:0:0:0:
18,161,72794,2,0,P|63:173|81:227,1,90.9999958343508,4|2,1:1|0:0,0:0:0:0:
171,193,73116,2,0,L|153:293,1,90.9999958343508,10|2,3:2|1:3,0:0:0:0:
117,306,73358,5,0,0:0:0:0:
117,306,73439,2,0,P|105:351|51:369,1,90.9999958343508,2|10,0:0|3:2,0:0:0:0:
215,341,73761,2,0,P|289:348|322:357,1,90.9999958343508,10|0,1:3|0:0,0:0:0:0:
328,259,74084,5,10,1:3:0:0:
411,295,74245,1,2,0:0:0:0:
480,237,74406,1,10,3:2:0:0:
401,208,74568,5,2,1:3:0:0:
401,208,74648,1,0,0:0:0:0:
401,208,74729,2,0,B|392:161|392:161|417:102,1,90.9999958343508,8|10,3:3|3:2,0:0:0:0:
459,128,74971,1,0,0:0:0:0:
459,128,75052,2,0,B|452:81|452:81|410:33,1,90.9999958343508,2|2,0:0|0:0,0:0:0:0:
329,23,75374,6,0,P|265:27|188:42,1,136.499993751526,10|0,1:3|0:0,0:0:0:0:
193,40,75697,1,10,3:2:0:0:
110,130,75858,6,0,P|175:134|251:149,1,136.499993751526,2|0,1:3|0:0,0:0:0:0:
245,147,76181,1,10,3:2:0:0:
233,248,76342,6,0,P|218:296|219:349,1,90.9999958343508,10|2,1:3|0:0,0:0:0:0:
261,360,76584,1,0,0:0:0:0:
261,360,76665,2,0,P|251:316|183:315,1,90.9999958343508,10|10,1:3|3:2,0:0:0:0:
316,246,76987,5,10,3:2:0:0:
316,246,77148,2,0,P|326:202|386:212,1,90.9999958343508,10|6,3:2|1:3,0:0:0:0:
485,156,77471,6,2,P|470:203|382:212,1,136.499993751526,14|0,3:2|0:0,0:1:0:0:
366,194,77794,2,0,L|373:125,1,45.4999979171754,2|0,0:0|0:0,0:0:0:0:
395,105,77955,5,4,1:1:0:0:
341,31,78116,1,2,0:0:0:0:
264,79,78277,1,10,3:2:0:0:
175,72,78439,5,2,1:3:0:0:
98,24,78600,1,2,0:0:0:0:
44,98,78761,1,10,3:2:0:0:
118,151,78923,2,0,L|103:250,1,90.9999958343508,10|2,1:3|0:0,0:0:0:0:
78,279,79165,5,0,0:0:0:0:
78,279,79245,2,0,P|68:300|65:342,3,45.4999979171754,10|0|2|2,1:3|3:0|3:2|3:0,0:0:0:0:
127,363,79568,2,0,P|137:342|140:300,3,45.4999979171754,10|0|2|0,1:2|3:0|3:3|3:0,0:0:0:0:
195,262,79890,6,0,P|185:283|182:325,3,45.4999979171754,10|0|10|2,1:3|3:0|3:2|3:2,0:0:0:0:
244,346,80213,2,0,P|254:325|257:283,3,45.4999979171754,2|0|10|2,1:3|3:0|3:1|3:0,0:0:0:0:
299,283,80535,5,4,1:1:0:0:
389,274,80697,1,0,0:0:0:0:
479,264,80858,1,10,3:2:0:0:
424,190,81019,5,2,1:3:0:0:
334,181,81181,1,0,1:0:0:0:
244,171,81342,1,8,3:2:0:0:
244,171,81423,1,2,0:0:0:0:
244,171,81503,2,0,P|236:112|242:60,1,90.9999958343508,10|2,1:3|0:0,0:0:0:0:
238,80,81745,5,2,0:0:0:0:
238,80,81826,1,10,1:3:0:0:
322,47,81987,1,10,3:2:0:0:
242,2,82148,1,8,3:2:0:0:
161,45,82310,1,10,3:2:0:0:
71,65,82471,6,0,B|83:92|83:92|81:108|81:108|98:120|98:120|122:127,3,90.9999958343508,6|10|2|2,1:3|3:2|0:0|0:0,0:0:0:0:
66,199,83116,5,4,1:1:0:0:
66,199,83277,1,2,0:0:0:0:
37,285,83439,1,10,3:2:0:0:
75,306,83519,1,0,0:0:0:0:
116,328,83600,2,0,P|165:313|226:310,1,90.9999958343508,2|2,1:3|3:2,0:0:0:0:
253,231,83923,1,10,3:2:0:0:
253,231,84084,2,0,P|243:280|242:350,1,90.9999958343508,10|2,1:3|0:0,0:0:0:0:
283,347,84326,5,0,0:0:0:0:
283,347,84406,2,0,P|330:319|372:264,1,90.9999958343508,10|2,1:3|0:0,0:0:0:0:
396,215,84729,1,10,3:2:0:0:
480,188,84890,2,0,P|476:124|364:86,1,181.999991668702,2|10,1:3|3:2,0:0:0:0:
300,32,85374,2,0,L|203:41,1,90.9999958343508,2|2,1:2|0:0,0:0:0:0:
124,7,85697,5,10,1:3:0:0:
124,7,85858,1,2,0:0:0:0:
132,97,86019,1,10,3:2:0:0:
40,99,86181,1,2,1:3:0:0:
40,99,86261,1,0,0:0:0:0:
40,99,86342,2,0,P|52:162|71:199,1,90.9999958343508,0|10,0:0|3:2,0:0:0:0:
154,191,86665,2,0,P|216:174|282:169,1,90.9999958343508,10|2,1:3|0:0,0:0:0:0:
275,208,86906,5,0,0:0:0:0:
275,208,86987,2,0,P|223:188|187:236,1,90.9999958343508,10|10,1:3|3:2,0:0:0:0:
165,292,87310,1,10,3:2:0:0:
261,330,87471,1,10,3:2:0:0:
184,384,87632,1,4,1:3:0:0:
261,330,87794,6,0,P|305:251|347:157,1,181.999991668702,0|0,0:0|3:0,0:0:0:0:
427,121,88277,6,0,L|482:115,2,45.4999979171754,4|0|2,1:1|0:0|2:1,0:0:0:0:
371,52,88600,1,10,3:2:0:0:
290,94,88761,2,0,L|241:52,2,45.4999979171754,2|0|2,1:3|0:0|2:1,0:0:0:0:
342,167,89084,1,10,3:2:0:0:
379,189,89165,1,0,0:0:0:0:
417,216,89245,2,0,B|440:236|440:236|464:344,1,136.499993751526,10|0,1:3|0:0,0:0:0:0:
462,339,89568,6,0,P|397:334|351:338,1,90.9999958343508,10|2,1:3|3:2,0:0:0:0:
306,273,89890,1,10,3:2:0:0:
231,326,90052,2,0,P|180:314|140:292,1,90.9999958343508,2|10,1:3|3:3,0:0:0:0:
62,332,90374,1,10,3:2:0:0:
55,241,90535,2,0,L|11:233,3,45.4999979171754,2|0|2|0,0:0|0:0|3:2|0:0,0:0:0:0:
86,217,90858,6,0,B|126:132|126:132|60:59,1,181.999991668702,10|10,1:3|3:2,0:0:0:0:
27,148,91342,1,2,1:3:0:0:
44,107,91423,1,0,0:0:0:0:
66,66,91503,2,0,L|171:52,1,90.9999958343508,2|10,0:0|3:2,0:0:0:0:
198,81,91745,1,0,0:0:0:0:
198,81,91826,2,0,L|302:93,1,90.9999958343508,10|2,1:3|0:0,0:0:0:0:
376,68,92148,6,0,L|432:57,4,45.4999979171754,10|0|10|0|10,1:3|0:0|3:2|0:0|3:2,0:0:0:0:
419,148,92632,1,10,3:2:0:0:
419,148,92794,1,6,1:3:0:0:
349,207,92955,1,10,3:2:0:0:
349,207,93035,1,0,0:0:0:0:
349,207,93116,2,0,P|382:246|433:239,1,90.9999958343508,2|2,0:0|1:2,0:0:0:0:
418,345,93439,6,0,L|373:336,4,45.4999979171754,4|0|2|0|10,1:1|0:0|0:0|0:0|3:2,0:0:0:0:
280,312,93923,1,2,1:3:0:0:
280,312,94084,1,2,0:0:0:0:
186,293,94245,1,10,3:2:0:0:
186,293,94326,1,0,0:0:0:0:
186,293,94406,2,0,L|79:262,1,90.9999958343508,10|2,1:3|1:2,0:0:0:0:
28,157,94729,6,0,L|42:213,4,45.4999979171754,10|0|2|0|10,1:3|0:0|0:0|0:0|3:2,0:0:0:0:
66,74,95213,1,2,1:3:0:0:
131,136,95374,2,0,L|156:234,2,90.9999958343508,8|10|2,3:3|3:2|0:0,0:0:0:0:
221,145,95858,1,2,0:0:0:0:
221,145,96019,5,10,1:3:0:0:
259,62,96181,1,2,0:0:0:0:
299,80,96261,1,0,0:0:0:0:
342,97,96342,2,0,P|392:103|452:101,1,90.9999958343508,10|2,3:2|1:3,0:0:0:0:
472,134,96584,1,0,0:0:0:0:
472,134,96665,2,0,P|422:128|362:130,1,90.9999958343508,2|10,3:2|3:2,0:0:0:0:
396,226,96987,1,10,1:3:0:0:
310,254,97148,1,2,3:2:0:0:
228,193,97310,5,10,1:3:0:0:
248,314,97471,1,10,3:2:0:0:
184,265,97632,1,10,3:2:0:0:
295,245,97794,1,10,3:2:0:0:
151,236,97955,5,6,1:3:0:0:
48,251,98116,1,0,0:0:0:0:
77,331,98277,2,0,P|71:270|47:171,1,136.499993751526
87,164,98600,6,0,P|61:116|123:66,1,136.499993751526,14|0,1:1|0:0,0:0:0:0:
141,29,98923,1,10,3:2:0:0:
212,84,99084,1,2,1:3:0:0:
285,30,99245,2,0,P|369:34|465:48,1,181.999991668702,2|10,2:1|1:3,0:0:0:0:
465,48,99729,5,2,0:0:0:0:
478,145,99890,2,0,P|422:136|364:136,1,90.9999958343508,10|2,1:3|0:0,0:0:0:0:
301,165,100213,1,10,3:2:0:0:
301,165,100374,2,0,P|255:198|214:239,1,90.9999958343508,2|0,1:3|0:0,0:0:0:0:
176,296,100697,1,10,3:2:0:0:
176,296,100858,2,0,P|152:347|137:403,1,90.9999958343508,2|2,0:0|0:0,0:0:0:0:
231,359,101181,6,0,P|278:324|344:363,1,136.499993751526,6|0,1:1|0:0,0:0:0:0:
378,331,101503,1,10,3:2:0:0:
451,276,101665,1,10,1:1:0:0:
466,365,101826,2,0,P|464:280|435:155,1,181.999991668702,2|10,0:0|1:3,0:0:0:0:
445,185,102310,5,0,0:0:0:0:
472,98,102471,1,4,3:3:0:0:
317,15,102794,5,10,1:2:0:0:
268,91,102955,2,0,L|221:76,2,45.4999979171754,0|0|0,1:0|3:3|3:3,0:0:0:0:
303,174,103277,1,10,1:2:0:0:
246,245,103439,1,0,1:0:0:0:
246,245,103519,1,0,1:1:0:0:
246,245,103600,1,10,2:2:0:0:
257,337,103761,5,6,1:2:0:0:
402,292,104406,1,0,0:0:0:0:
402,292,104729,6,0,B|319:283|342:352|251:353,3,157.500006008148,2|0|0|0,0:0|0:0|0:0|0:0,0:0:0:0:
226,335,106342,5,2,0:0:0:0:
60,300,106987,1,0,0:0:0:0:
60,300,107310,6,0,P|72:239|60:129,3,157.500006008148
104,126,108923,6,0,P|51:118|74:30,1,157.500006008148,2|0,0:0|0:0,0:0:0:0:
62,33,109568,1,0,0:0:0:0:
187,73,109890,6,0,B|291:46|291:46|353:69,3,157.500006008148,2|0|0|0,0:0|0:0|0:0|0:0,0:0:0:0:
422,62,111503,6,0,P|349:65|293:134,1,157.500006008148,2|0,0:0|0:0,0:0:0:0:
319,164,112148,1,0,0:0:0:0:
445,217,112471,6,0,L|420:51,3,157.500006008148
471,127,114084,5,2,0:0:0:0:
445,217,114406,1,0,0:0:0:0:
473,307,114729,1,0,0:0:0:0:
366,354,115052,5,2,0:0:0:0:
366,354,115535,5,0,0:0:0:0:
366,354,116019,5,0,0:0:0:0:
187,305,116665,6,0,P|156:332|90:319,1,105.000004005432,2|0,0:0|0:0,0:0:0:0:
49,332,117148,1,0,0:0:0:0:
15,263,117310,2,0,L|27:207,1,52.5000020027161,2|0,0:0|0:0,0:0:0:0:
81,143,117632,5,0,0:0:0:0:
81,143,118116,5,0,0:0:0:0:
81,143,118600,5,0,0:0:0:0:
172,34,119245,5,2,0:0:0:0:
253,81,119568,1,0,0:0:0:0:
330,27,119890,1,0,0:0:0:0:
307,154,120213,5,2,0:0:0:0:
307,154,120697,5,0,0:0:0:0:
307,154,121181,5,0,0:0:0:0:
492,229,121826,6,0,L|381:224,1,105.000004005432,2|0,0:0|0:0,0:0:0:0:
387,224,122310,1,0,0:0:0:0:
365,266,122471,2,0,P|372:292|371:325,1,52.5000020027161,2|0,0:0|0:0,0:0:0:0:
276,305,122794,5,0,0:0:0:0:
276,305,123277,5,0,0:0:0:0:
276,305,124406,6,2,B|245:320|245:320|119:293,1,131.25,4|0,1:1|0:0,0:0:0:0:
150,299,124729,1,10,3:2:0:0:
103,214,124890,2,0,P|68:177|14:141,1,87.5,2|0,1:3|0:0,0:0:0:0:
75,65,125213,1,8,3:2:0:0:
164,28,125374,2,0,P|187:74|194:123,1,87.5,2|0,1:3|0:0,0:0:0:0:
274,56,125697,6,0,P|371:47|479:48,1,175,2|8,1:3|3:2,0:0:0:0:
483,179,126181,2,0,P|487:118|390:90,1,175,2|8,1:3|0:0,0:0:0:0:
328,154,126665,6,0,L|278:148,2,43.75,2|0|2,0:0|0:0|0:0,0:0:0:0:
358,191,126906,1,0,0:0:0:0:
358,191,126987,2,0,B|376:232|376:232|371:280,1,87.5,4|0,1:1|0:0,0:0:0:0:
278,246,127310,1,10,3:2:0:0:
186,216,127471,2,0,B|181:258|181:258|199:299,1,87.5,2|0,1:3|0:0,0:0:0:0:
318,343,127794,5,8,3:2:0:0:
278,246,127955,2,0,P|270:192|253:120,1,87.5,2|0,1:3|0:0,0:0:0:0:
235,120,128197,5,0,0:0:0:0:
235,120,128277,2,0,P|224:73|221:-5,3,87.5,2|10|8|10,1:3|3:2|3:2|3:2,0:0:0:0:
125,6,128923,1,6,1:3:0:0:
125,6,129084,6,0,B|76:6|85:111|18:149,1,175,0|2,0:0|3:2,0:0:0:0:
33,239,129568,6,0,P|86:228|85:168,1,87.5,4|0,1:1|0:0,0:0:0:0:
187,169,129890,1,10,3:2:0:0:
261,230,130052,2,0,L|381:241,1,87.5,2|0,1:3|0:0,0:0:0:0:
457,212,130374,1,8,3:2:0:0:
496,307,130535,2,0,P|448:313|391:335,1,87.5,2|0,1:3|0:0,0:0:0:0:
370,356,130777,5,0,0:0:0:0:
370,356,130858,2,0,B|371:316|371:316|472:195,1,175,2|8,1:3|3:2,0:0:0:0:
382,163,131342,2,0,B|409:134|409:134|423:-22,1,175,2|8,1:3|3:2,0:0:0:0:
287,51,131826,6,0,P|262:45|219:42,3,43.75,2|0|2|0,0:0|0:0|0:0|0:0,0:0:0:0:
318,24,132148,1,4,1:1:0:0:
317,120,132310,1,0,0:0:0:0:
220,121,132471,2,0,P|160:119|112:128,1,87.5,10|2,3:2|1:3,0:0:0:0:
50,72,132794,1,0,0:0:0:0:
11,159,132955,1,8,3:2:0:0:
82,222,133116,2,0,P|133:176|123:124,1,87.5,2|0,1:3|0:0,0:0:0:0:
132,122,133358,5,0,0:0:0:0:
132,122,133439,1,2,1:3:0:0:
227,127,133600,1,10,3:2:0:0:
231,31,133761,1,8,3:2:0:0:
134,27,133923,1,10,3:2:0:0:
218,114,134084,5,6,1:3:0:0:
325,54,134245,2,0,B|361:47|394:55|394:55|383:94|388:150,1,131.25,8|0,3:2|0:0,0:0:0:0:
386,116,134568,1,0,3:0:0:0:
468,172,134729,6,0,P|474:225|491:267,1,87.5,4|0,1:1|0:0,0:0:0:0:
485,256,135052,1,10,3:2:0:0:
416,327,135213,6,0,P|367:305|322:299,1,87.5,2|0,1:3|0:0,0:0:0:0:
333,299,135536,1,8,3:2:0:0:
307,204,135697,2,0,P|349:172|377:136,1,87.5,2|0,1:3|0:0,0:0:0:0:
370,145,135939,5,0,0:0:0:0:
370,145,136019,2,0,P|264:160|164:150,1,175,2|10,1:3|3:2,0:0:0:0:
235,254,136503,2,0,P|127:240|33:204,1,175,2|8,1:3|3:2,0:0:0:0:
29,128,136987,2,0,L|10:76,3,43.75,2|0|2|0,0:0|0:0|0:0|0:0,0:0:0:0:
55,99,137310,5,4,1:1:0:0:
144,134,137471,1,0,0:0:0:0:
144,134,137632,2,0,B|160:106|160:106|136:20,1,87.5,8|2,3:2|1:3,0:0:0:0:
240,26,137955,1,0,0:0:0:0:
240,26,138116,1,8,3:2:0:0:
307,94,138277,2,0,B|351:87|351:87|394:117,1,87.5,2|0,1:3|0:0,0:0:0:0:
425,82,138519,5,0,0:0:0:0:
463,111,138600,2,0,P|476:166|475:227,3,87.5,2|10|8|10,1:3|3:2|3:2|3:2,0:0:0:0:
385,211,139245,1,6,1:3:0:0:
385,211,139406,6,0,B|371:250|371:250|387:318|387:318|364:351|306:355,1,175,0|2,0:0|3:2,0:0:0:0:
262,285,139890,6,0,L|168:267,1,87.5,4|0,1:1|0:0,0:0:0:0:
176,268,140213,1,10,3:2:0:0:
82,288,140374,2,0,P|47:315|16:361,1,87.5,2|0,1:3|0:0,0:0:0:0:
21,206,140697,1,8,3:2:0:0:
119,192,140858,2,0,P|135:147|130:79,1,87.5,2|0,1:3|0:0,0:0:0:0:
122,66,141100,5,0,0:0:0:0:
122,66,141181,2,0,B|181:130|181:130|285:117,1,175,2|8,1:3|3:2,0:0:0:0:
246,22,141665,2,0,B|332:34|332:34|373:112,1,175,2|8,1:3|3:2,0:0:0:0:
459,64,142148,2,0,L|427:1,3,43.75,2|0|2|0,0:0|0:0|0:0|0:0,0:0:0:0:
479,93,142471,5,4,1:1:0:0:
450,184,142632,1,0,0:0:0:0:
470,278,142794,1,10,3:2:0:0:
359,320,142955,5,2,1:3:0:0:
388,229,143116,1,0,0:0:0:0:
368,135,143278,1,8,3:2:0:0:
368,135,143439,2,0,P|298:127|250:131,1,87.5,2|0,1:3|0:0,0:0:0:0:
257,91,143681,5,0,0:0:0:0:
257,91,143761,1,2,1:3:0:0:
173,140,143923,1,10,3:2:0:0:
173,140,144084,1,8,3:2:0:0:
173,140,144245,1,10,3:2:0:0:
73,81,144406,5,6,1:3:0:0:
17,172,144568,2,0,B|58:201|10:275|70:349,1,175,8|0,3:2|3:0,0:0:0:0:
60,336,145052,6,0,P|142:314|219:315,1,131.25,4|0,1:1|0:0,0:0:0:0:
188,312,145374,1,10,3:2:0:0:
269,364,145535,2,0,P|291:324|268:276,1,87.5,2|0,1:3|0:0,0:0:0:0:
206,222,145858,1,8,3:2:0:0:
263,145,146019,2,0,P|259:91|271:28,1,87.5,2|0,1:3|0:0,0:0:0:0:
293,20,146261,5,0,0:0:0:0:
293,20,146342,2,0,P|359:34|468:32,1,175,6|10,1:3|3:2,0:0:0:0:
512,126,146826,2,0,P|445:134|342:171,1,175,6|8,1:3|3:2,0:0:0:0:
298,251,147310,5,0,0:0:0:0:
308,265,147390,1,0,0:0:0:0:
316,280,147471,1,0,0:0:0:0:
321,296,147552,1,0,0:0:0:0:
325,312,147632,6,0,P|273:321|256:351,1,87.5,4|0,1:1|0:0,0:0:0:0:
189,293,147955,1,10,3:2:0:0:
112,347,148116,2,0,P|63:342|13:325,1,87.5,2|0,1:3|0:0,0:0:0:0:
26,330,148439,1,8,3:2:0:0:
23,234,148600,2,0,P|72:239|122:256,1,87.5,2|0,1:3|0:0,0:0:0:0:
108,250,148842,5,0,0:0:0:0:
108,250,148923,1,2,1:3:0:0:
109,154,149084,5,10,3:2:0:0:
102,58,149245,1,8,3:2:0:0:
102,58,149406,1,10,3:2:0:0:
201,19,149568,5,6,1:3:0:0:
194,115,149729,2,0,B|237:108|237:108|301:113|301:113|390:98,1,175,8|0,3:2|0:0,0:0:0:0:
445,44,150213,6,0,B|473:79|473:79|458:132,1,87.5,4|0,1:1|0:0,0:0:0:0:
367,101,150535,1,10,3:2:0:0:
399,192,150697,2,0,P|378:234|369:277,1,87.5,2|0,1:3|0:0,0:0:0:0:
459,362,151019,1,8,3:2:0:0:
459,362,151181,2,0,P|439:321|376:309,1,87.5,2|0,1:3|0:0,0:0:0:0:
369,273,151423,5,0,0:0:0:0:
369,273,151503,2,0,B|241:336|241:336|182:331,1,175,6|10,1:3|3:2,0:0:0:0:
190,231,151987,2,0,B|51:273|51:273|23:303,1,175,6|8,1:3|3:2,0:0:0:0:
31,177,152471,2,2,L|54:121,3,43.75,2|0|2|0,1:2|0:0|0:0|0:0,0:0:0:0:
76,171,152794,5,4,1:1:0:0:
129,91,152955,1,0,0:0:0:0:
55,28,153116,2,0,P|128:50|175:54,1,87.5,10|2,3:2|1:3,0:0:0:0:
217,108,153439,1,0,0:0:0:0:
289,44,153600,2,0,L|392:27,2,87.5,8|2|0,3:2|1:3|0:0,0:0:0:0:
289,44,154003,5,0,0:0:0:0:
289,44,154084,1,2,1:3:0:0:
321,133,154245,1,10,3:2:0:0:
402,184,154406,1,8,3:2:0:0:
498,165,154568,1,10,3:2:0:0:
399,96,154729,5,6,1:3:0:0:
415,195,154890,2,0,P|441:264|494:349,1,175,8|0,3:2|0:0,0:0:0:0:
343,369,155374,6,0,P|374:325|333:296,1,87.5,4|0,1:1|0:0,0:0:0:0:
265,328,155697,1,10,3:2:0:0:
265,328,155858,2,0,P|199:331|157:338,1,87.5,2|0,1:3|0:0,0:0:0:0:
82,347,156181,1,8,3:2:0:0:
75,255,156342,2,0,P|141:252|183:245,1,87.5,2|0,1:3|0:0,0:0:0:0:
198,216,156584,5,0,0:0:0:0:
198,216,156665,2,0,B|212:185|212:185|170:155|148:89|194:26,1,175,6|10,1:3|3:2,0:0:0:0:
275,0,157148,2,0,B|261:31|261:31|303:61|325:127|279:190,1,175,6|8,1:3|3:2,0:0:0:0:
389,126,157632,1,2,3:2:0:0:
408,116,157713,1,0,3:0:0:0:
429,112,157794,1,2,0:0:0:0:
450,112,157874,1,0,0:0:0:0:
471,117,157955,6,0,B|463:149|463:149|480:224,1,87.5,4|0,1:1|0:0,0:0:0:0:
386,239,158277,1,10,3:2:0:0:
302,189,158439,2,0,B|273:204|240:174|197:206,1,87.5,2|0,1:3|0:0,0:0:0:0:
138,147,158761,1,8,3:2:0:0:
138,147,158923,2,0,P|100:171|102:222,1,87.5,2|0,1:3|0:0,0:0:0:0:
139,242,159165,5,0,0:0:0:0:
139,242,159245,1,2,1:3:0:0:
153,336,159406,1,10,3:2:0:0:
153,336,159568,1,8,3:2:0:0:
153,336,159729,1,10,3:2:0:0:
244,326,159890,5,6,1:3:0:0:
340,356,160052,2,0,B|339:314|339:314|452:207,1,175,8|2,3:2|3:2,0:0:0:0:
494,140,160535,6,0,B|472:127|472:127|440:50,1,87.5,4|0,1:1|0:0,0:0:0:0:
351,66,160858,1,10,3:2:0:0:
264,108,161019,2,0,L|167:83,1,87.5,2|0,1:3|0:0,0:0:0:0:
179,86,161342,1,8,3:2:0:0:
98,138,161503,2,0,P|108:192|108:234,1,87.5,2|0,1:3|0:0,0:0:0:0:
72,256,161745,5,0,0:0:0:0:
72,256,161826,2,0,B|100:247|100:247|178:270|178:270|255:210,1,175,6|10,1:3|3:2,0:0:0:0:
304,167,162310,2,0,B|253:127|253:127|175:150|175:150|147:141,1,175,6|8,1:3|3:2,0:0:0:0:
62,70,162794,5,2,3:2:0:0:
68,86,162874,1,0,3:0:0:0:
70,103,162955,1,2,0:0:0:0:
68,120,163035,1,0,0:0:0:0:
62,136,163116,6,0,P|104:147|154:138,1,87.5,4|0,1:1|0:0,0:0:0:0:
192,55,163439,1,10,3:2:0:0:
192,55,163600,2,0,P|234:44|284:53,1,87.5,2|0,1:3|0:0,0:0:0:0:
342,128,163923,1,8,3:2:0:0:
342,128,164084,2,0,P|384:139|434:130,1,87.5,6|0,1:3|0:0,0:0:0:0:
488,55,164406,5,2,0:0:0:0:
473,322,165374,6,2,P|443:296|453:239,1,78.7500030040742,2|0,0:0|0:0,0:0:0:0:
462,234,165697,5,14,1:1:0:0:
374,185,165858,1,2,0:0:0:0:
328,273,166019,2,0,P|271:260|221:260,1,90.9999958343508,0|2,0:0|1:3,0:0:0:0:
195,232,166261,1,0,0:0:0:0:
195,232,166342,2,0,P|134:248|59:308,1,136.499993751526,2|0,0:2|0:0,0:0:0:0:
27,290,166665,1,10,1:3:0:0:
72,374,166826,1,2,0:2:0:0:
27,290,166987,6,0,P|58:235|69:140,1,136.499993751526,10|0,1:3|0:0,0:0:0:0:
100,122,167310,1,10,3:2:0:0:
103,6,167471,6,0,P|142:30|179:81,1,90.9999958343508,2|0,1:3|0:0,0:0:0:0:
240,6,167794,1,10,3:2:0:0:
172,65,167955,2,0,P|269:42|343:39,1,136.499993751526,2|0,0:2|0:0,0:0:0:0:
341,74,168277,6,0,P|377:103|423:80,1,90.9999958343508,2|2,1:3|0:2,0:0:0:0:
471,151,168600,1,10,3:2:0:0:
471,151,168761,2,0,P|402:141|321:139,1,136.499993751526,2|0,1:3|0:0,0:0:0:0:
295,170,169084,1,10,3:2:0:0:
203,130,169245,2,0,P|194:188|194:231,1,90.9999958343508,10|0,1:3|0:0,0:0:0:0:
156,254,169487,5,0,0:0:0:0:
156,254,169568,1,10,1:3:0:0:
254,271,169729,1,10,3:2:0:0:
315,337,169890,5,10,3:2:0:0:
217,354,170051,1,10,3:2:0:0:
327,323,170213,5,6,1:3:0:0:
416,370,170374,2,0,P|420:323|484:217,1,136.499993751526
507,230,170697,2,0,P|483:280|427:269,1,90.9999958343508,2|4,0:2|1:1,0:0:0:0:
398,196,171019,1,2,0:0:0:0:
441,105,171181,1,0,0:0:0:0:
441,105,171342,6,0,P|435:57|330:37,1,136.499993751526,10|0,1:3|0:0,0:0:0:0:
321,53,171665,1,10,3:2:0:0:
226,21,171826,2,0,P|226:77|215:141,1,90.9999958343508,2|2,1:3|0:2,0:0:0:0:
187,148,172068,5,0,0:0:0:0:
187,148,172148,2,0,P|122:135|26:132,1,136.499993751526,2|0,1:3|0:0,0:0:0:0:
17,93,172471,1,10,3:2:0:0:
2,191,172632,2,0,P|49:183|108:168,1,90.9999958343508,2|0,1:3|0:0,0:0:0:0:
168,237,172955,1,10,3:2:0:0:
168,237,173116,2,0,L|160:295,3,45.4999979171754,2|0|2|0,0:0|0:0|0:0|0:0,0:0:0:0:
199,264,173439,5,2,1:3:0:0:
292,229,173600,1,2,0:0:0:0:
319,325,173761,2,0,P|351:359|406:353,2,90.9999958343508,0|2|2,0:0|1:3|0:0,0:0:0:0:
403,282,174245,1,10,3:2:0:0:
501,289,174406,2,0,P|469:323|414:317,1,90.9999958343508,10|2,1:3|0:0,0:0:0:0:
403,282,174648,5,0,0:0:0:0:
403,282,174729,1,10,1:3:0:0:
390,182,174890,1,10,3:2:0:0:
380,81,175052,1,10,3:2:0:0:
467,25,175213,5,10,3:2:0:0:
380,81,175374,1,6,1:3:0:0:
290,37,175535,2,0,P|234:51|95:44,1,181.999991668702,10|2,3:2|0:0,0:0:0:0:
42,79,176019,6,0,P|83:39|123:62,1,90.9999958343508,4|0,1:1|0:0,0:0:0:0:
164,131,176342,1,10,3:2:0:0:
72,170,176503,2,0,P|49:216|30:308,1,136.499993751526,2|0,1:3|0:0,0:0:0:0:
30,298,176826,5,10,3:2:0:0:
127,273,176987,2,0,P|175:278|221:299,1,90.9999958343508,10|0,1:3|0:0,0:0:0:0:
260,276,177229,1,0,0:0:0:0:
260,276,177310,2,0,P|330:287|348:366,1,136.499993751526,10|0,1:3|0:0,0:0:0:0:
393,372,177632,1,10,3:2:0:0:
476,316,177794,2,0,P|482:265|470:175,1,136.499993751526,2|0,1:3|0:0,0:0:0:0:
490,134,178116,1,10,3:2:0:0:
423,59,178277,2,0,L|429:13,3,45.4999979171754,2|0|2|0,0:0|0:0|0:0|0:0,0:0:0:0:
398,81,178600,5,10,1:3:0:0:
303,113,178761,1,0,0:0:0:0:
303,113,178923,2,0,P|280:57|270:11,2,90.9999958343508,10|2|0,3:2|1:3|0:0,0:0:0:0:
376,180,179406,1,10,3:2:0:0:
279,207,179568,2,0,P|224:206|162:222,1,90.9999958343508,10|2,1:3|0:0,0:0:0:0:
148,191,179810,5,0,0:0:0:0:
148,191,179890,1,10,1:3:0:0:
96,273,180052,1,10,3:2:0:0:
0,282,180213,5,10,3:2:0:0:
52,202,180374,1,10,3:2:0:0:
86,286,180535,5,6,1:3:0:0:
193,299,180697,2,0,P|244:319|339:374,1,136.499993751526
315,358,181019,6,0,L|291:244,1,90.9999958343508,2|4,0:0|1:1,0:0:0:0:
231,174,181342,1,0,0:0:0:0:
319,111,181503,1,10,3:2:0:0:
319,111,181665,2,0,P|342:156|296:233,1,136.499993751526,2|0,1:3|0:0,0:0:0:0:
296,269,181987,5,10,3:2:0:0:
396,250,182148,2,0,P|441:234|484:246,1,90.9999958343508,10|0,1:3|0:0,0:0:0:0:
512,271,182390,5,0,0:0:0:0:
512,271,182471,2,0,B|471:213|471:213|468:122,1,136.499993751526,10|0,1:3|0:0,0:0:0:0:
471,96,182794,1,10,1:2:0:0:
376,170,182955,2,0,B|382:99|382:99|339:20,1,136.499993751526,2|0,3:3|0:0,0:0:0:0:
321,0,183278,1,10,3:2:0:0:
284,122,183439,2,0,L|278:176,3,45.4999979171754,2|0|8|0,1:3|0:0|3:2|0:0,0:0:0:0:
248,136,183761,6,0,P|200:110|131:90,1,90.9999958343508,4|2,1:1|0:0,0:0:0:0:
88,33,184084,1,0,0:0:0:0:
84,132,184245,2,0,P|76:183|79:235,1,90.9999958343508,2|2,1:3|0:0,0:0:0:0:
77,222,184568,1,10,3:2:0:0:
176,357,184729,2,0,P|166:304|143:246,1,90.9999958343508,10|2,1:3|0:0,0:0:0:0:
153,269,184971,5,0,0:0:0:0:
153,269,185052,1,10,1:3:0:0:
229,194,185213,5,10,3:2:0:0:
321,238,185374,1,10,3:2:0:0:
413,199,185535,1,10,3:2:0:0:
497,244,185697,5,6,1:3:0:0:
413,199,185858,2,0,P|363:241|408:298,1,136.499993751526,8|0,3:2|0:0,0:0:0:0:
428,312,186181,1,2,0:0:0:0:
506,236,186342,6,0,P|498:174|479:116,1,90.9999958343508,4|2,1:1|0:0,0:0:0:0:
449,31,186665,1,0,0:0:0:0:
449,31,186826,2,0,P|417:77|470:136,1,136.499993751526,2|0,1:3|0:0,0:0:0:0:
505,114,187148,1,10,3:2:0:0:
405,125,187310,2,0,P|351:132|278:150,1,90.9999958343508,10|2,1:3|0:0,0:0:0:0:
277,172,187552,5,0,0:0:0:0:
277,172,187632,2,0,P|196:183|117:173,1,136.499993751526,10|0,1:3|0:0,0:0:0:0:
93,162,187955,1,10,3:2:0:0:
197,97,188116,2,0,P|116:86|37:96,1,136.499993751526,2|0,1:3|0:0,0:0:0:0:
13,107,188439,1,10,3:2:0:0:
0,189,188600,2,0,L|16:238,3,45.4999979171754,2|0|2|0,0:0|0:0|0:0|0:0,0:0:0:0:
38,218,188923,6,0,P|44:278|43:313,1,90.9999958343508,10|0,1:3|0:0,0:0:0:0:
142,265,189245,1,10,3:2:0:0:
142,265,189406,2,0,P|136:325|137:360,1,90.9999958343508,2|2,1:3|0:0,0:0:0:0:
214,201,189729,1,10,3:2:0:0:
242,285,189890,2,0,P|310:270|387:268,1,136.499993751526,10|0,1:3|0:0,0:0:0:0:
420,240,190213,5,10,1:3:0:0:
496,175,190374,1,10,3:2:0:0:
399,148,190535,1,10,3:2:0:0:
475,82,190697,1,10,3:2:0:0:
380,48,190858,1,6,1:3:0:0:
380,48,191019,6,0,P|307:65|226:75,1,136.499993751526
228,25,191342,1,2,0:0:0:0:
228,25,191503,6,0,P|233:86|231:147,1,90.9999958343508,4|2,1:1|0:0,0:0:0:0:
312,162,191826,1,0,0:0:0:0:
219,198,191987,2,0,P|147:209|96:233,1,90.9999958343508,2|2,1:3|0:0,0:0:0:0:
40,182,192310,1,10,3:2:0:0:
40,182,192471,2,0,B|24:229|24:229|61:276,1,90.9999958343508,10|2,1:3|0:0,0:0:0:0:
67,308,192713,5,0,0:0:0:0:
67,308,192794,2,0,B|158:300|158:300|216:320,1,136.499993751526,10|0,1:3|0:0,0:0:0:0:
250,307,193116,1,10,3:2:0:0:
336,224,193277,2,0,B|245:216|245:216|187:236,1,136.499993751526,2|0,1:3|0:0,0:0:0:0:
153,223,193599,1,10,3:2:0:0:
198,141,193761,2,0,L|205:88,3,45.4999979171754,2|0|2|0,0:0|0:0|0:0|0:0,0:0:0:0:
158,117,194084,5,10,1:3:0:0:
58,109,194245,1,2,0:0:0:0:
72,10,194406,1,0,0:0:0:0:
171,21,194568,2,0,B|225:25|225:25|322:78,1,136.499993751526,2|0,1:3|0:0,0:0:0:0:
345,51,194890,1,10,3:2:0:0:
345,51,195052,2,0,P|396:68|448:61,1,90.9999958343508,10|2,1:3|0:0,0:0:0:0:
455,21,195294,5,0,0:0:0:0:
455,21,195374,1,10,1:3:0:0:
424,116,195535,1,10,3:2:0:0:
450,212,195697,1,10,3:2:0:0:
424,116,195858,1,10,3:2:0:0:
450,212,196019,5,6,1:3:0:0:
410,304,196181,2,0,P|346:263|380:192,1,136.499993751526,10|0,3:2|0:0,0:0:0:0:
354,211,196503,1,2,0:0:0:0:
267,161,196665,6,0,P|190:168|145:179,1,90.9999958343508,4|0,1:1|0:0,0:0:0:0:
88,124,196987,1,10,3:2:0:0:
36,209,197148,2,0,P|76:246|131:318,1,136.499993751526,2|0,1:3|0:0,0:0:0:0:
131,361,197471,1,10,3:2:0:0:
204,292,197632,2,0,P|281:285|326:274,1,90.9999958343508,10|2,1:3|0:0,0:0:0:0:
334,313,197874,5,0,0:0:0:0:
334,313,197955,2,0,B|389:329|389:329|491:269,1,136.499993751526,10|0,1:3|0:0,0:0:0:0:
457,288,198277,1,10,3:2:0:0:
432,181,198439,2,0,B|377:165|377:165|275:225,1,136.499993751526,2|0,1:3|0:0,0:0:0:0:
308,205,198761,1,10,3:2:0:0:
219,158,198923,2,0,L|161:168,3,45.4999979171754,2|0|2|0,0:0|0:0|0:0|0:0,0:0:0:0:
200,195,199245,5,10,1:3:0:0:
100,181,199406,1,0,0:0:0:0:
125,83,199568,1,10,3:2:0:0:
125,83,199729,2,0,P|96:35|45:52,1,90.9999958343508,2|2,1:3|0:0,0:0:0:0:
17,123,200052,1,10,3:2:0:0:
23,222,200213,2,0,P|85:197|123:192,1,90.9999958343508,10|2,1:3|0:0,0:0:0:0:
147,224,200455,5,0,0:0:0:0:
147,224,200535,1,10,1:3:0:0:
126,322,200697,1,10,3:2:0:0:
126,322,200858,1,10,3:2:0:0:
223,344,201019,1,10,3:2:0:0:
223,344,201181,1,6,1:3:0:0:
315,299,201342,6,0,P|383:293|476:333,1,136.499993751526
447,313,201665,1,2,0:0:0:0:
488,222,201826,6,0,P|430:211|391:195,1,90.9999958343508,12|2,1:1|0:0,0:0:0:0:
300,204,202148,1,0,0:0:0:0:
300,204,202310,2,0,P|271:159|295:107,1,90.9999958343508,2|2,1:3|0:0,0:0:0:0:
338,44,202632,1,10,3:2:0:0:
419,102,202794,2,0,P|324:83|244:83,1,136.499993751526,10|2,1:3|0:2,0:0:0:0:
242,53,203116,6,0,B|218:38|218:38|87:71,1,136.499993751526,10|0,1:3|0:0,0:0:0:0:
113,64,203439,1,10,3:2:0:0:
198,127,203600,6,0,B|170:133|170:133|101:249,1,136.499993751526,10|2,1:3|0:2,0:0:0:0:
114,226,203923,1,0,0:0:0:0:
37,320,204084,2,0,L|88:304,3,45.4999979171754,8|0|2|0,1:3|0:0|0:0|0:0,0:0:0:0:
68,343,204406,5,4,1:1:0:0:
167,329,204568,1,2,0:0:0:0:
261,360,204729,2,0,P|254:288|259:226,1,90.9999958343508,10|8,3:2|1:2,0:0:0:0:
188,193,205052,1,2,0:0:0:0:
285,186,205213,2,0,P|278:114|283:52,1,90.9999958343508,10|10,3:2|1:3,0:0:0:0:
366,95,205535,5,2,0:0:0:0:
266,69,205697,1,4,3:3:0:0:
201,14,206020,5,10,1:2:0:0:
250,90,206181,2,0,L|293:76,2,45.4999979171754,0|0|0,1:0|3:3|3:3,0:0:0:0:
204,170,206503,1,10,1:2:0:0:
272,244,206665,1,0,1:0:0:0:
272,244,206745,1,0,1:1:0:0:
272,244,206826,1,10,2:2:0:0:
257,338,206987,5,6,1:2:0:0:
84,192,207632,1,0,0:0:0:0:
130,338,207955,6,0,B|95:314|129:252|77:182,3,157.500006008148,2|0|0|0,0:0|0:0|0:0|0:0,0:0:0:0:
80,258,209568,5,2,0:0:0:0:
252,144,210213,1,0,0:0:0:0:
196,79,210535,6,0,P|129:64|17:58,3,157.500006008148
40,57,212148,5,2,0:0:0:0:
291,66,212794,1,0,0:0:0:0:
336,0,213116,6,0,B|406:24|425:90|379:118,3,157.500006008148
379,118,214729,5,2,0:0:0:0:
336,315,215374,1,0,0:0:0:0:
468,315,215697,6,0,B|424:306|424:306|317:340,3,157.500006008148
260,272,217310,5,2,0:0:0:0:
260,272,217632,1,0,0:0:0:0:
260,272,217955,1,0,0:0:0:0:
246,155,218277,6,0,P|242:214|247:321,2,157.500006008148
100,221,219890,5,2,0:0:0:0:
100,221,220213,1,0,0:0:0:0:
100,221,220535,1,0,0:0:0:0:
53,132,220858,6,0,P|101:155|144:260,2,157.500006008148
326,177,222471,5,2,0:0:0:0:
326,177,222794,1,0,0:0:0:0:
326,177,223116,1,0,0:0:0:0:
390,52,223439,6,0,P|379:108|321:207,2,157.500006008148
203,82,225052,5,2,0:0:0:0:
203,82,225374,1,0,0:0:0:0:
203,82,225697,1,0,0:0:0:0:
271,118,226019,6,0,P|208:111|142:111,1,105.000004005432
203,82,226503,2,0,P|266:75|332:75,1,105.000004005432
270,48,226987,2,2,P|207:41|141:41,1,105.000004005432,0|0,0:0|0:0,0:0:0:0:
