osu file format v14

[General]
AudioFilename: audio.mp3
AudioLeadIn: 0
PreviewTime: 65030
Countdown: 0
SampleSet: Normal
StackLeniency: 0.7
Mode: 1
LetterboxInBreaks: 0
WidescreenStoryboard: 1

[Editor]
Bookmarks: 88300,110369
DistanceSpacing: 0.4
BeatDivisor: 4
GridSize: 32
TimelineZoom: 2.699999

[Metadata]
Title:Pretty Cvnt
TitleUnicode:Pretty Cvnt
Artist:Sewerslvt
ArtistUnicode:Sewerslvt
Creator:Friggy-chan
Version:Kantan
Source:
Tags:d3kuu sewer//slvt electronic instrumental atmospheric drum and bass jungle breakcore dnb & d&b n 'n' watamote watashi ga motenai no wa dou kangaete mo omaera ga warui no matter how you think about it it's your fault i'm not popular dou kangaete mo watashi wa warukunai gorillaz busted blue 私がモテないのはどう考えてもお前らが悪い どう考えても私は悪くない
BeatmapID:3324280
BeatmapSetID:1628321

[Difficulty]
HPDrainRate:8
CircleSize:5
OverallDifficulty:3
ApproachRate:5
SliderMultiplier:1.4
SliderTickRate:1

[Events]
//Background and Video events
0,0,"aaaaaaaa.jpg",0,0
//Break Periods
//Storyboard Layer 0 (Background)
//Storyboard Layer 1 (Fail)
//Storyboard Layer 2 (Pass)
//Storyboard Layer 3 (Foreground)
//Storyboard Layer 4 (Overlay)
//Storyboard Sound Samples

[TimingPoints]
30,344.827586206897,4,1,0,40,1,0
30,-100,4,1,0,40,0,0
22077,-100,4,1,0,42,0,0
23456,-100,4,1,0,44,0,0
24836,-100,4,1,0,45,0,0
25525,-100,4,1,0,47,0,0
26215,-100,4,1,0,49,0,0
27594,-100,4,1,0,51,0,0
30353,-100,4,1,0,52,0,0
31042,-100,4,1,0,54,0,0
31732,-100,4,1,0,56,0,0
33111,-100,4,1,0,58,0,0
34491,-100,4,1,0,60,0,0
35870,-100,4,1,0,61,0,0
36560,-100,4,1,0,63,0,0
37249,-100,4,1,0,65,0,0
44146,-100,4,1,0,70,0,0
64706,-100,4,1,0,65,0,0
66215,-100,4,1,0,70,0,0
88305,-100,4,1,0,70,0,1
110374,-100,4,1,0,70,0,0
176581,-100,4,1,0,70,0,1
198650,-100,4,1,0,70,0,0

[HitObjects]
256,192,30,5,0,0:0:0:0:
256,192,1409,1,0,0:0:0:0:
256,192,2788,1,8,0:0:0:0:
256,192,4167,1,8,0:0:0:0:
256,192,5547,1,0,0:0:0:0:
256,192,8305,1,0,0:0:0:0:
256,192,9685,1,8,0:0:0:0:
256,192,11064,1,0,0:0:0:0:
256,192,12443,1,0,0:0:0:0:
256,192,13823,1,8,0:0:0:0:
256,192,15202,1,8,0:0:0:0:
256,192,16581,1,0,0:0:0:0:
256,192,19340,1,0,0:0:0:0:
256,192,20719,1,8,0:0:0:0:
256,192,22098,1,0,0:0:0:0:
256,192,23478,1,0,0:0:0:0:
256,192,24857,1,8,0:0:0:0:
256,192,25547,1,0,0:0:0:0:
256,192,26236,1,8,0:0:0:0:
256,192,27616,1,0,0:0:0:0:
256,192,30374,1,8,0:0:0:0:
256,192,31064,1,0,0:0:0:0:
256,192,31754,1,8,0:0:0:0:
256,192,33133,1,0,0:0:0:0:
256,192,34512,1,0,0:0:0:0:
256,192,35892,1,8,0:0:0:0:
256,192,36581,1,0,0:0:0:0:
256,192,37271,1,8,0:0:0:0:
256,192,38823,1,8,0:0:0:0:
256,192,39340,1,8,0:0:0:0:
256,192,40030,1,0,0:0:0:0:
256,192,40374,1,8,0:0:0:0:
256,192,40719,1,8,0:0:0:0:
256,192,41754,1,0,0:0:0:0:
256,192,42098,1,8,0:0:0:0:
256,192,42788,1,8,0:0:0:0:
256,192,43823,1,0,0:0:0:0:
256,192,44167,1,12,0:0:0:0:
256,192,45374,1,12,0:0:0:0:
256,192,46236,1,12,0:0:0:0:
256,192,46926,1,4,0:0:0:0:
256,192,48133,1,4,0:0:0:0:
256,192,48995,1,12,0:0:0:0:
256,192,49685,1,4,0:0:0:0:
256,192,50892,1,4,0:0:0:0:
256,192,51754,1,4,0:0:0:0:
256,192,52443,1,12,0:0:0:0:
256,192,53650,1,12,0:0:0:0:
256,192,54512,1,4,0:0:0:0:
256,192,55202,1,12,0:0:0:0:
256,192,56409,1,12,0:0:0:0:
256,192,57271,1,12,0:0:0:0:
256,192,57961,1,4,0:0:0:0:
256,192,59167,1,4,0:0:0:0:
256,192,60030,1,12,0:0:0:0:
256,192,60719,1,4,0:0:0:0:
256,192,61926,1,4,0:0:0:0:
256,192,62788,1,4,0:0:0:0:
256,192,63478,1,12,0:0:0:0:
256,192,64685,1,12,0:0:0:0:
256,192,66236,1,0,0:0:0:0:
256,192,66581,1,8,0:0:0:0:
256,192,67271,1,8,0:0:0:0:
256,192,67961,1,8,0:0:0:0:
256,192,68305,1,0,0:0:0:0:
256,192,68995,1,0,0:0:0:0:
256,192,69340,1,8,0:0:0:0:
256,192,70374,1,8,0:0:0:0:
256,192,70719,1,8,0:0:0:0:
256,192,71064,1,0,0:0:0:0:
256,192,71754,1,0,0:0:0:0:
256,192,72098,1,8,0:0:0:0:
256,192,72788,1,8,0:0:0:0:
256,192,73478,1,8,0:0:0:0:
256,192,73823,1,8,0:0:0:0:
256,192,74512,1,0,0:0:0:0:
256,192,74857,1,8,0:0:0:0:
256,192,75892,1,0,0:0:0:0:
256,192,76236,1,8,0:0:0:0:
256,192,76581,1,0,0:0:0:0:
256,192,77271,1,0,0:0:0:0:
256,192,77616,1,8,0:0:0:0:
256,192,78305,1,8,0:0:0:0:
256,192,78995,1,8,0:0:0:0:
256,192,79340,1,0,0:0:0:0:
256,192,80030,1,0,0:0:0:0:
256,192,80374,1,8,0:0:0:0:
256,192,81409,1,0,0:0:0:0:
256,192,81754,1,8,0:0:0:0:
256,192,82098,1,8,0:0:0:0:
256,192,82788,1,0,0:0:0:0:
256,192,83133,1,8,0:0:0:0:
256,192,83823,1,8,0:0:0:0:
256,192,84512,1,8,0:0:0:0:
256,192,84857,1,8,0:0:0:0:
256,192,85547,1,0,0:0:0:0:
256,192,85892,1,8,0:0:0:0:
256,192,86926,1,8,0:0:0:0:
256,192,87271,1,8,0:0:0:0:
256,192,87961,1,8,0:0:0:0:
256,192,88305,1,0,0:0:0:0:
256,192,88995,1,0,0:0:0:0:
256,192,89340,1,8,0:0:0:0:
256,192,89685,1,0,0:0:0:0:
256,192,90374,1,0,0:0:0:0:
256,192,91064,1,8,0:0:0:0:
256,192,91409,1,8,0:0:0:0:
256,192,91754,1,0,0:0:0:0:
256,192,92443,1,8,0:0:0:0:
256,192,93478,1,8,0:0:0:0:
256,192,93823,1,0,0:0:0:0:
256,192,94512,1,0,0:0:0:0:
256,192,94857,1,0,0:0:0:0:
256,192,95202,1,8,0:0:0:0:
256,192,95892,1,0,0:0:0:0:
256,192,96581,1,0,0:0:0:0:
256,192,96926,1,8,0:0:0:0:
256,192,97271,1,8,0:0:0:0:
256,192,97961,1,8,0:0:0:0:
256,192,98995,1,8,0:0:0:0:
256,192,99340,1,0,0:0:0:0:
256,192,100030,1,8,0:0:0:0:
256,192,100374,1,0,0:0:0:0:
256,192,100719,1,8,0:0:0:0:
256,192,101754,1,0,0:0:0:0:
256,192,102098,1,8,0:0:0:0:
256,192,102788,1,8,0:0:0:0:
256,192,103133,1,0,0:0:0:0:
256,192,103478,1,8,0:0:0:0:
256,192,104512,1,8,0:0:0:0:
256,192,104857,1,0,0:0:0:0:
256,192,105547,1,8,0:0:0:0:
256,192,105892,1,8,0:0:0:0:
256,192,106236,1,8,0:0:0:0:
256,192,106926,1,8,0:0:0:0:
256,192,107616,1,0,0:0:0:0:
256,192,107961,1,8,0:0:0:0:
256,192,108305,1,0,0:0:0:0:
256,192,108995,1,8,0:0:0:0:
256,192,110374,1,0,0:0:0:0:
256,192,110719,1,8,0:0:0:0:
256,192,111581,1,0,0:0:0:0:
256,192,112098,1,0,0:0:0:0:
256,192,113133,1,0,0:0:0:0:
256,192,113478,1,8,0:0:0:0:
256,192,114512,1,8,0:0:0:0:
256,192,114857,1,8,0:0:0:0:
256,192,115202,1,0,0:0:0:0:
256,192,115892,1,8,0:0:0:0:
256,192,116236,1,8,0:0:0:0:
256,192,117098,1,0,0:0:0:0:
256,192,117616,1,0,0:0:0:0:
256,192,118650,1,8,0:0:0:0:
256,192,118995,1,8,0:0:0:0:
256,192,120030,1,0,0:0:0:0:
256,192,120374,1,8,0:0:0:0:
256,192,120719,1,0,0:0:0:0:
256,192,121409,1,0,0:0:0:0:
256,192,121754,1,0,0:0:0:0:
256,192,122616,1,0,0:0:0:0:
256,192,123133,1,0,0:0:0:0:
256,192,124167,1,0,0:0:0:0:
256,192,124512,1,0,0:0:0:0:
256,192,125547,1,8,0:0:0:0:
256,192,125892,1,8,0:0:0:0:
256,192,126236,1,8,0:0:0:0:
256,192,126926,1,8,0:0:0:0:
256,192,127271,1,0,0:0:0:0:
256,192,128133,1,0,0:0:0:0:
256,192,128650,1,0,0:0:0:0:
256,192,129685,1,8,0:0:0:0:
256,192,130030,1,0,0:0:0:0:
256,192,131064,1,0,0:0:0:0:
256,192,131409,1,8,0:0:0:0:
256,192,131754,1,0,0:0:0:0:
256,192,132443,1,0,0:0:0:0:
256,192,132788,1,8,0:0:0:0:
256,192,133650,1,0,0:0:0:0:
256,192,134167,1,0,0:0:0:0:
256,192,135202,1,0,0:0:0:0:
256,192,135547,1,8,0:0:0:0:
256,192,136581,1,8,0:0:0:0:
256,192,136926,1,8,0:0:0:0:
256,192,137271,1,0,0:0:0:0:
256,192,137961,1,0,0:0:0:0:
256,192,138305,1,8,0:0:0:0:
256,192,139167,1,0,0:0:0:0:
256,192,139685,1,0,0:0:0:0:
256,192,140719,1,8,0:0:0:0:
256,192,141064,1,8,0:0:0:0:
256,192,142098,1,0,0:0:0:0:
256,192,142443,1,8,0:0:0:0:
256,192,142788,1,0,0:0:0:0:
256,192,143478,1,0,0:0:0:0:
256,192,143823,1,0,0:0:0:0:
256,192,144685,1,0,0:0:0:0:
256,192,145202,1,0,0:0:0:0:
256,192,146236,1,0,0:0:0:0:
256,192,146581,1,0,0:0:0:0:
256,192,147616,1,8,0:0:0:0:
256,192,147961,1,8,0:0:0:0:
256,192,148305,1,8,0:0:0:0:
256,192,148995,1,0,0:0:0:0:
256,192,149340,1,0,0:0:0:0:
256,192,150202,1,0,0:0:0:0:
256,192,150719,1,0,0:0:0:0:
256,192,151754,1,0,0:0:0:0:
256,192,152098,1,0,0:0:0:0:
256,192,152961,1,0,0:0:0:0:
256,192,154512,1,0,0:0:0:0:
256,192,154857,1,8,0:0:0:0:
256,192,155547,1,8,0:0:0:0:
256,192,156236,1,8,0:0:0:0:
256,192,156581,1,0,0:0:0:0:
256,192,157271,1,0,0:0:0:0:
256,192,157616,1,8,0:0:0:0:
256,192,158650,1,8,0:0:0:0:
256,192,158995,1,8,0:0:0:0:
256,192,159340,1,0,0:0:0:0:
256,192,160030,1,0,0:0:0:0:
256,192,160374,1,8,0:0:0:0:
256,192,161064,1,8,0:0:0:0:
256,192,161754,1,8,0:0:0:0:
256,192,162098,1,8,0:0:0:0:
256,192,162788,1,0,0:0:0:0:
256,192,163133,1,8,0:0:0:0:
256,192,164167,1,0,0:0:0:0:
256,192,164512,1,8,0:0:0:0:
256,192,164857,1,0,0:0:0:0:
256,192,165547,1,0,0:0:0:0:
256,192,165892,1,8,0:0:0:0:
256,192,166581,1,8,0:0:0:0:
256,192,167271,1,8,0:0:0:0:
256,192,167616,1,0,0:0:0:0:
256,192,168305,1,0,0:0:0:0:
256,192,168650,1,8,0:0:0:0:
256,192,169685,1,0,0:0:0:0:
256,192,170030,1,8,0:0:0:0:
256,192,170374,1,8,0:0:0:0:
256,192,171064,1,0,0:0:0:0:
256,192,171409,1,8,0:0:0:0:
256,192,172098,1,8,0:0:0:0:
256,192,172788,1,8,0:0:0:0:
256,192,173133,1,8,0:0:0:0:
256,192,173823,1,0,0:0:0:0:
256,192,174167,1,8,0:0:0:0:
256,192,175202,1,8,0:0:0:0:
256,192,175547,1,8,0:0:0:0:
256,192,176236,1,8,0:0:0:0:
256,192,176581,1,0,0:0:0:0:
256,192,177271,1,0,0:0:0:0:
256,192,177616,1,8,0:0:0:0:
256,192,177961,1,0,0:0:0:0:
256,192,178650,1,0,0:0:0:0:
256,192,179340,1,8,0:0:0:0:
256,192,179685,1,8,0:0:0:0:
256,192,180030,1,0,0:0:0:0:
256,192,180719,1,8,0:0:0:0:
256,192,181754,1,8,0:0:0:0:
256,192,182098,1,0,0:0:0:0:
256,192,182788,1,0,0:0:0:0:
256,192,183133,1,0,0:0:0:0:
256,192,183478,1,8,0:0:0:0:
256,192,184167,1,8,0:0:0:0:
256,192,184857,1,0,0:0:0:0:
256,192,185202,1,8,0:0:0:0:
256,192,185547,1,8,0:0:0:0:
256,192,185892,1,0,0:0:0:0:
256,192,186236,1,8,0:0:0:0:
256,192,187271,1,8,0:0:0:0:
256,192,187616,1,0,0:0:0:0:
256,192,188305,1,8,0:0:0:0:
256,192,188650,1,0,0:0:0:0:
256,192,188995,1,8,0:0:0:0:
256,192,190030,1,0,0:0:0:0:
256,192,190374,1,8,0:0:0:0:
256,192,191064,1,8,0:0:0:0:
256,192,191409,1,0,0:0:0:0:
256,192,191754,1,8,0:0:0:0:
256,192,192788,1,8,0:0:0:0:
256,192,193133,1,0,0:0:0:0:
256,192,193823,1,8,0:0:0:0:
256,192,194167,1,8,0:0:0:0:
256,192,194512,1,8,0:0:0:0:
256,192,195202,1,8,0:0:0:0:
256,192,195892,1,0,0:0:0:0:
256,192,196236,1,8,0:0:0:0:
256,192,196581,1,0,0:0:0:0:
256,192,196926,1,0,0:0:0:0:
256,192,197271,1,8,0:0:0:0:
256,192,198305,1,8,0:0:0:0:
256,192,198650,1,8,0:0:0:0:
