osu file format v14

[General]
AudioFilename: audio.mp3
AudioLeadIn: 0
PreviewTime: 65030
Countdown: 0
SampleSet: Normal
StackLeniency: 0.7
Mode: 1
LetterboxInBreaks: 0
WidescreenStoryboard: 0

[Editor]
Bookmarks: 88300,110369
DistanceSpacing: 0.4
BeatDivisor: 4
GridSize: 32
TimelineZoom: 3.099999

[Metadata]
Title:Pretty Cvnt
TitleUnicode:Pretty Cvnt
Artist:Sewerslvt
ArtistUnicode:Sewerslvt
Creator:Friggy-chan
Version:Inner Oni
Source:
Tags:d3kuu sewer//slvt electronic instrumental atmospheric drum and bass jungle breakcore dnb & d&b n 'n' watamote watashi ga motenai no wa dou kangaete mo omaera ga warui no matter how you think about it it's your fault i'm not popular dou kangaete mo watashi wa warukunai gorillaz busted blue 私がモテないのはどう考えてもお前らが悪い どう考えても私は悪くない
BeatmapID:3324279
BeatmapSetID:1628321

[Difficulty]
HPDrainRate:5
CircleSize:5
OverallDifficulty:6
ApproachRate:5
SliderMultiplier:1.4
SliderTickRate:1

[Events]
//Background and Video events
0,0,"aaaaaaaa.jpg",0,0
//Break Periods
//Storyboard Layer 0 (Background)
//Storyboard Layer 1 (Fail)
//Storyboard Layer 2 (Pass)
//Storyboard Layer 3 (Foreground)
//Storyboard Layer 4 (Overlay)
//Storyboard Sound Samples

[TimingPoints]
30,344.827586206897,4,1,0,40,1,0
30,-133.333333333333,4,1,0,40,0,0
22077,-130.232558139535,4,1,0,42,0,0
23456,-127.272727272727,4,1,0,44,0,0
24836,-124.444444444444,4,1,0,45,0,0
25525,-121.739130434783,4,1,0,47,0,0
26215,-119.148936170213,4,1,0,49,0,0
27594,-116.666666666667,4,1,0,51,0,0
30353,-114.285714285714,4,1,0,52,0,0
31042,-112,4,1,0,54,0,0
31732,-109.803921568627,4,1,0,56,0,0
33111,-107.692307692308,4,1,0,58,0,0
34491,-105.660377358491,4,1,0,60,0,0
35870,-103.703703703704,4,1,0,61,0,0
36560,-101.818181818182,4,1,0,63,0,0
37249,-100,4,1,0,65,0,0
44146,-66.6666666666667,4,1,0,70,0,0
66215,-90.9090909090909,4,1,0,70,0,0
87939,-89.2857142857143,4,1,0,70,0,0
88025,-87.719298245614,4,1,0,70,0,0
88111,-86.2068965517241,4,1,0,70,0,0
88198,-84.7457627118644,4,1,0,70,0,0
88305,-83.3333333333333,4,1,0,70,0,1
109318,-84.9056603773585,4,1,0,70,0,1
109491,-86.5384615384615,4,1,0,70,0,1
109577,-88.2352941176471,4,1,0,70,0,1
109663,-90,4,1,0,70,0,1
109836,-91.8367346938776,4,1,0,70,0,1
110008,-93.75,4,1,0,70,0,1
110180,-95.7446808510638,4,1,0,70,0,1
110267,-97.8260869565217,4,1,0,70,0,1
110353,-100,4,1,0,70,0,1
110374,-100,4,1,0,70,0,0
154491,-90.9090909090909,4,1,0,70,0,0
176215,-89.2857142857143,4,1,0,70,0,0
176301,-87.719298245614,4,1,0,70,0,0
176387,-86.2068965517241,4,1,0,70,0,0
176474,-84.7457627118644,4,1,0,70,0,0
176581,-83.3333333333333,4,1,0,70,0,1
198650,-83.3333333333333,4,1,0,70,0,0

[HitObjects]
256,192,30,5,0,0:0:0:0:
256,192,1409,1,0,0:0:0:0:
256,192,2788,1,8,0:0:0:0:
256,192,4167,1,8,0:0:0:0:
256,192,5547,1,0,0:0:0:0:
256,192,8305,1,0,0:0:0:0:
256,192,9685,1,8,0:0:0:0:
256,192,11064,1,0,0:0:0:0:
256,192,12443,1,0,0:0:0:0:
256,192,13823,1,8,0:0:0:0:
256,192,15202,1,8,0:0:0:0:
256,192,16581,1,0,0:0:0:0:
256,192,19340,1,0,0:0:0:0:
256,192,20719,1,8,0:0:0:0:
256,192,22098,1,0,0:0:0:0:
256,192,23478,1,0,0:0:0:0:
256,192,24857,1,8,0:0:0:0:
256,192,25547,1,0,0:0:0:0:
256,192,26236,1,8,0:0:0:0:
256,192,27616,1,0,0:0:0:0:
256,192,30374,1,8,0:0:0:0:
256,192,31064,1,0,0:0:0:0:
256,192,31754,1,8,0:0:0:0:
256,192,33133,1,0,0:0:0:0:
256,192,34512,1,0,0:0:0:0:
256,192,35892,1,8,0:0:0:0:
256,192,36581,1,0,0:0:0:0:
256,192,37271,1,8,0:0:0:0:
256,192,38823,1,8,0:0:0:0:
256,192,39167,1,8,0:0:0:0:
256,192,39340,1,8,0:0:0:0:
256,192,39857,1,0,0:0:0:0:
256,192,40030,1,0,0:0:0:0:
256,192,40202,1,8,0:0:0:0:
256,192,40374,1,8,0:0:0:0:
256,192,40547,1,0,0:0:0:0:
256,192,40719,1,8,0:0:0:0:
256,192,41581,1,0,0:0:0:0:
256,192,41754,1,0,0:0:0:0:
256,192,41926,1,8,0:0:0:0:
256,192,42098,1,8,0:0:0:0:
256,192,42443,1,8,0:0:0:0:
256,192,42616,1,0,0:0:0:0:
256,192,42788,1,8,0:0:0:0:
256,192,43823,1,0,0:0:0:0:
256,192,44167,1,12,0:0:0:0:
256,192,45374,1,12,0:0:0:0:
256,192,46236,1,12,0:0:0:0:
256,192,46926,1,4,0:0:0:0:
256,192,48133,1,4,0:0:0:0:
256,192,48995,1,12,0:0:0:0:
256,192,49685,1,4,0:0:0:0:
256,192,50892,1,4,0:0:0:0:
256,192,51754,1,4,0:0:0:0:
256,192,52443,1,12,0:0:0:0:
256,192,53650,1,12,0:0:0:0:
256,192,54512,1,4,0:0:0:0:
256,192,55202,1,12,0:0:0:0:
256,192,56409,1,12,0:0:0:0:
256,192,57271,1,12,0:0:0:0:
256,192,57961,1,4,0:0:0:0:
256,192,59167,1,4,0:0:0:0:
256,192,60030,1,12,0:0:0:0:
256,192,60719,1,4,0:0:0:0:
256,192,61926,1,4,0:0:0:0:
256,192,62788,1,4,0:0:0:0:
256,192,63478,1,12,0:0:0:0:
256,192,64685,1,12,0:0:0:0:
256,192,66236,1,0,0:0:0:0:
256,192,66409,1,0,0:0:0:0:
256,192,66581,1,8,0:0:0:0:
256,192,66754,1,0,0:0:0:0:
256,192,66840,1,0,0:0:0:0:
256,192,66926,1,8,0:0:0:0:
256,192,67012,1,8,0:0:0:0:
256,192,67098,1,0,0:0:0:0:
256,192,67185,1,0,0:0:0:0:
256,192,67271,1,8,0:0:0:0:
256,192,67443,1,8,0:0:0:0:
256,192,67530,1,8,0:0:0:0:
256,192,67616,1,0,0:0:0:0:
256,192,67788,1,0,0:0:0:0:
256,192,67961,1,8,0:0:0:0:
256,192,68133,1,0,0:0:0:0:
256,192,68219,1,8,0:0:0:0:
256,192,68305,1,0,0:0:0:0:
256,192,68392,1,8,0:0:0:0:
256,192,68478,1,0,0:0:0:0:
256,192,68564,1,0,0:0:0:0:
256,192,68650,1,8,0:0:0:0:
256,192,68823,1,0,0:0:0:0:
256,192,68909,1,8,0:0:0:0:
256,192,68995,1,0,0:0:0:0:
256,192,69167,1,0,0:0:0:0:
256,192,69340,1,8,0:0:0:0:
256,192,69512,1,8,0:0:0:0:
256,192,69598,1,0,0:0:0:0:
256,192,69685,1,8,0:0:0:0:
256,192,69771,1,8,0:0:0:0:
256,192,69857,1,0,0:0:0:0:
256,192,69943,1,0,0:0:0:0:
256,192,70030,1,8,0:0:0:0:
256,192,70202,1,0,0:0:0:0:
256,192,70374,1,8,0:0:0:0:
256,192,70461,1,8,0:0:0:0:
256,192,70547,1,0,0:0:0:0:
256,192,70633,1,0,0:0:0:0:
256,192,70719,1,8,0:0:0:0:
256,192,70892,1,0,0:0:0:0:
256,192,70978,1,0,0:0:0:0:
256,192,71064,1,8,0:0:0:0:
256,192,71236,1,0,0:0:0:0:
256,192,71323,1,0,0:0:0:0:
256,192,71409,1,8,0:0:0:0:
256,192,71495,1,8,0:0:0:0:
256,192,71581,1,0,0:0:0:0:
256,192,71667,1,8,0:0:0:0:
256,192,71754,1,0,0:0:0:0:
256,192,71926,1,0,0:0:0:0:
256,192,72098,1,8,0:0:0:0:
256,192,72271,1,8,0:0:0:0:
256,192,72357,1,0,0:0:0:0:
256,192,72443,1,8,0:0:0:0:
256,192,72530,1,0,0:0:0:0:
256,192,72616,1,0,0:0:0:0:
256,192,72702,1,0,0:0:0:0:
256,192,72788,1,8,0:0:0:0:
256,192,72961,1,8,0:0:0:0:
256,192,73047,1,0,0:0:0:0:
256,192,73133,1,0,0:0:0:0:
256,192,73305,1,0,0:0:0:0:
256,192,73478,1,8,0:0:0:0:
256,192,73650,1,8,0:0:0:0:
256,192,73736,1,0,0:0:0:0:
256,192,73823,1,0,0:0:0:0:
256,192,73909,1,8,0:0:0:0:
256,192,73995,1,0,0:0:0:0:
256,192,74081,1,0,0:0:0:0:
256,192,74167,1,8,0:0:0:0:
256,192,74340,1,8,0:0:0:0:
256,192,74426,1,8,0:0:0:0:
256,192,74512,1,0,0:0:0:0:
256,192,74685,1,0,0:0:0:0:
256,192,74857,1,8,0:0:0:0:
256,192,75030,1,8,0:0:0:0:
256,192,75116,1,8,0:0:0:0:
256,192,75202,1,8,0:0:0:0:
256,192,75288,1,8,0:0:0:0:
256,192,75374,1,0,0:0:0:0:
256,192,75461,1,0,0:0:0:0:
256,192,75547,1,8,0:0:0:0:
256,192,75719,1,0,0:0:0:0:
256,192,75892,1,8,0:0:0:0:
256,192,75978,1,0,0:0:0:0:
256,192,76064,1,0,0:0:0:0:
256,192,76150,1,0,0:0:0:0:
256,192,76236,1,8,0:0:0:0:
256,192,76409,1,8,0:0:0:0:
256,192,76495,1,0,0:0:0:0:
256,192,76581,1,8,0:0:0:0:
256,192,76754,1,0,0:0:0:0:
256,192,76840,1,0,0:0:0:0:
256,192,76926,1,8,0:0:0:0:
256,192,77012,1,8,0:0:0:0:
256,192,77098,1,0,0:0:0:0:
256,192,77185,1,8,0:0:0:0:
256,192,77271,1,0,0:0:0:0:
256,192,77443,1,0,0:0:0:0:
256,192,77616,1,8,0:0:0:0:
256,192,77788,1,0,0:0:0:0:
256,192,77874,1,8,0:0:0:0:
256,192,77961,1,8,0:0:0:0:
256,192,78047,1,8,0:0:0:0:
256,192,78133,1,0,0:0:0:0:
256,192,78219,1,0,0:0:0:0:
256,192,78305,1,8,0:0:0:0:
256,192,78478,1,0,0:0:0:0:
256,192,78564,1,8,0:0:0:0:
256,192,78650,1,0,0:0:0:0:
256,192,78823,1,0,0:0:0:0:
256,192,78995,1,8,0:0:0:0:
256,192,79167,1,0,0:0:0:0:
256,192,79254,1,0,0:0:0:0:
256,192,79340,1,0,0:0:0:0:
256,192,79426,1,8,0:0:0:0:
256,192,79512,1,0,0:0:0:0:
256,192,79598,1,0,0:0:0:0:
256,192,79685,1,8,0:0:0:0:
256,192,79857,1,0,0:0:0:0:
256,192,79943,1,0,0:0:0:0:
256,192,80030,1,0,0:0:0:0:
256,192,80202,1,0,0:0:0:0:
256,192,80374,1,8,0:0:0:0:
256,192,80547,1,0,0:0:0:0:
256,192,80633,1,8,0:0:0:0:
256,192,80719,1,8,0:0:0:0:
256,192,80805,1,0,0:0:0:0:
256,192,80892,1,0,0:0:0:0:
256,192,80978,1,0,0:0:0:0:
256,192,81064,1,8,0:0:0:0:
256,192,81236,1,0,0:0:0:0:
256,192,81409,1,8,0:0:0:0:
256,192,81495,1,8,0:0:0:0:
256,192,81581,1,0,0:0:0:0:
256,192,81667,1,0,0:0:0:0:
256,192,81754,1,8,0:0:0:0:
256,192,81926,1,0,0:0:0:0:
256,192,82012,1,8,0:0:0:0:
256,192,82098,1,8,0:0:0:0:
256,192,82271,1,0,0:0:0:0:
256,192,82357,1,0,0:0:0:0:
256,192,82443,1,8,0:0:0:0:
256,192,82530,1,0,0:0:0:0:
256,192,82616,1,0,0:0:0:0:
256,192,82702,1,8,0:0:0:0:
256,192,82788,1,0,0:0:0:0:
256,192,82961,1,0,0:0:0:0:
256,192,83133,1,8,0:0:0:0:
256,192,83305,1,8,0:0:0:0:
256,192,83392,1,0,0:0:0:0:
256,192,83478,1,8,0:0:0:0:
256,192,83564,1,0,0:0:0:0:
256,192,83650,1,0,0:0:0:0:
256,192,83736,1,0,0:0:0:0:
256,192,83823,1,8,0:0:0:0:
256,192,83995,1,8,0:0:0:0:
256,192,84081,1,8,0:0:0:0:
256,192,84167,1,0,0:0:0:0:
256,192,84340,1,0,0:0:0:0:
256,192,84512,1,8,0:0:0:0:
256,192,84685,1,8,0:0:0:0:
256,192,84771,1,0,0:0:0:0:
256,192,84857,1,8,0:0:0:0:
256,192,84943,1,8,0:0:0:0:
256,192,85030,1,0,0:0:0:0:
256,192,85116,1,8,0:0:0:0:
256,192,85202,1,8,0:0:0:0:
256,192,85374,1,8,0:0:0:0:
256,192,85461,1,0,0:0:0:0:
256,192,85547,1,0,0:0:0:0:
256,192,85719,1,0,0:0:0:0:
256,192,85892,1,8,0:0:0:0:
256,192,86064,1,8,0:0:0:0:
256,192,86150,1,8,0:0:0:0:
256,192,86236,1,0,0:0:0:0:
256,192,86323,1,0,0:0:0:0:
256,192,86409,1,0,0:0:0:0:
256,192,86495,1,8,0:0:0:0:
256,192,86581,1,8,0:0:0:0:
256,192,86754,1,0,0:0:0:0:
256,192,86926,1,8,0:0:0:0:
256,192,87012,1,8,0:0:0:0:
256,192,87098,1,0,0:0:0:0:
256,192,87185,1,8,0:0:0:0:
256,192,87271,1,8,0:0:0:0:
256,192,87443,1,0,0:0:0:0:
256,192,87530,1,0,0:0:0:0:
256,192,87616,1,8,0:0:0:0:
256,192,87788,1,0,0:0:0:0:
256,192,87961,1,8,0:0:0:0:
256,192,88047,1,8,0:0:0:0:
256,192,88133,1,0,0:0:0:0:
256,192,88219,1,8,0:0:0:0:
256,192,88305,1,0,0:0:0:0:
256,192,88478,1,0,0:0:0:0:
256,192,88650,1,8,0:0:0:0:
256,192,88736,1,8,0:0:0:0:
256,192,88823,1,0,0:0:0:0:
256,192,88909,1,0,0:0:0:0:
256,192,88995,1,8,0:0:0:0:
256,192,89167,1,0,0:0:0:0:
256,192,89340,1,8,0:0:0:0:
256,192,89426,1,0,0:0:0:0:
256,192,89512,1,8,0:0:0:0:
256,192,89685,1,0,0:0:0:0:
256,192,89771,1,8,0:0:0:0:
256,192,89857,1,0,0:0:0:0:
256,192,89943,1,0,0:0:0:0:
256,192,90030,1,8,0:0:0:0:
256,192,90202,1,0,0:0:0:0:
256,192,90374,1,8,0:0:0:0:
256,192,90461,1,8,0:0:0:0:
256,192,90547,1,0,0:0:0:0:
256,192,90719,1,8,0:0:0:0:
256,192,90805,1,0,0:0:0:0:
256,192,90892,1,8,0:0:0:0:
256,192,91064,1,8,0:0:0:0:
256,192,91150,1,8,0:0:0:0:
256,192,91236,1,8,0:0:0:0:
256,192,91323,1,8,0:0:0:0:
256,192,91409,1,0,0:0:0:0:
256,192,91581,1,0,0:0:0:0:
256,192,91754,1,8,0:0:0:0:
256,192,91840,1,8,0:0:0:0:
256,192,91926,1,0,0:0:0:0:
256,192,92012,1,0,0:0:0:0:
256,192,92098,1,8,0:0:0:0:
256,192,92271,1,0,0:0:0:0:
256,192,92443,1,8,0:0:0:0:
256,192,92530,1,8,0:0:0:0:
256,192,92616,1,0,0:0:0:0:
256,192,92788,1,8,0:0:0:0:
256,192,92961,1,0,0:0:0:0:
256,192,93047,1,0,0:0:0:0:
256,192,93133,1,8,0:0:0:0:
256,192,93305,1,0,0:0:0:0:
256,192,93478,1,8,0:0:0:0:
256,192,93564,1,8,0:0:0:0:
256,192,93650,1,0,0:0:0:0:
256,192,93736,1,8,0:0:0:0:
256,192,93823,1,0,0:0:0:0:
256,192,93995,1,0,0:0:0:0:
256,192,94167,1,8,0:0:0:0:
256,192,94340,1,0,0:0:0:0:
256,192,94426,1,0,0:0:0:0:
256,192,94512,1,8,0:0:0:0:
256,192,94598,1,8,0:0:0:0:
256,192,94685,1,0,0:0:0:0:
256,192,94857,1,8,0:0:0:0:
256,192,94943,1,0,0:0:0:0:
256,192,95030,1,8,0:0:0:0:
256,192,95202,1,0,0:0:0:0:
256,192,95288,1,0,0:0:0:0:
256,192,95374,1,8,0:0:0:0:
256,192,95461,1,0,0:0:0:0:
256,192,95547,1,8,0:0:0:0:
256,192,95719,1,0,0:0:0:0:
256,192,95892,1,8,0:0:0:0:
256,192,95978,1,8,0:0:0:0:
256,192,96064,1,0,0:0:0:0:
256,192,96236,1,8,0:0:0:0:
256,192,96409,1,0,0:0:0:0:
256,192,96581,1,0,0:0:0:0:
256,192,96667,1,8,0:0:0:0:
256,192,96754,1,0,0:0:0:0:
256,192,96926,1,8,0:0:0:0:
256,192,97012,1,8,0:0:0:0:
256,192,97098,1,0,0:0:0:0:
256,192,97271,1,8,0:0:0:0:
256,192,97443,1,0,0:0:0:0:
256,192,97530,1,0,0:0:0:0:
256,192,97616,1,8,0:0:0:0:
256,192,97702,1,0,0:0:0:0:
256,192,97788,1,8,0:0:0:0:
256,192,97961,1,0,0:0:0:0:
256,192,98047,1,8,0:0:0:0:
256,192,98133,1,8,0:0:0:0:
256,192,98219,1,8,0:0:0:0:
256,192,98305,1,0,0:0:0:0:
256,192,98478,1,0,0:0:0:0:
256,192,98564,1,0,0:0:0:0:
256,192,98650,1,8,0:0:0:0:
256,192,98823,1,0,0:0:0:0:
256,192,98995,1,8,0:0:0:0:
256,192,99081,1,8,0:0:0:0:
256,192,99167,1,0,0:0:0:0:
256,192,99254,1,0,0:0:0:0:
256,192,99340,1,8,0:0:0:0:
256,192,99512,1,0,0:0:0:0:
256,192,99685,1,8,0:0:0:0:
256,192,99857,1,0,0:0:0:0:
256,192,99943,1,0,0:0:0:0:
256,192,100030,1,8,0:0:0:0:
256,192,100202,1,0,0:0:0:0:
256,192,100374,1,8,0:0:0:0:
256,192,100461,1,0,0:0:0:0:
256,192,100547,1,8,0:0:0:0:
256,192,100633,1,8,0:0:0:0:
256,192,100719,1,0,0:0:0:0:
256,192,100892,1,0,0:0:0:0:
256,192,101064,1,8,0:0:0:0:
256,192,101236,1,0,0:0:0:0:
256,192,101323,5,0,0:0:0:0:
256,192,101409,1,8,0:0:0:0:
256,192,101495,1,8,0:0:0:0:
256,192,101581,1,0,0:0:0:0:
256,192,101754,1,8,0:0:0:0:
256,192,101840,1,0,0:0:0:0:
256,192,101926,1,8,0:0:0:0:
256,192,102098,1,8,0:0:0:0:
256,192,102185,1,8,0:0:0:0:
256,192,102271,1,8,0:0:0:0:
256,192,102357,1,8,0:0:0:0:
256,192,102443,1,0,0:0:0:0:
256,192,102616,1,0,0:0:0:0:
256,192,102788,1,8,0:0:0:0:
256,192,102874,1,8,0:0:0:0:
256,192,102961,1,0,0:0:0:0:
256,192,103047,1,0,0:0:0:0:
256,192,103133,1,8,0:0:0:0:
256,192,103305,1,0,0:0:0:0:
256,192,103478,1,0,0:0:0:0:
256,192,103564,1,0,0:0:0:0:
256,192,103650,1,8,0:0:0:0:
256,192,103736,1,8,0:0:0:0:
256,192,103823,1,0,0:0:0:0:
256,192,103995,1,0,0:0:0:0:
256,192,104081,1,0,0:0:0:0:
256,192,104167,1,8,0:0:0:0:
256,192,104340,1,0,0:0:0:0:
256,192,104512,1,8,0:0:0:0:
256,192,104598,1,8,0:0:0:0:
256,192,104685,1,0,0:0:0:0:
256,192,104771,1,0,0:0:0:0:
256,192,104857,1,8,0:0:0:0:
256,192,105030,1,0,0:0:0:0:
256,192,105202,1,8,0:0:0:0:
256,192,105288,1,0,0:0:0:0:
256,192,105374,1,8,0:0:0:0:
256,192,105461,1,0,0:0:0:0:
256,192,105547,1,8,0:0:0:0:
256,192,105719,1,0,0:0:0:0:
256,192,105892,1,8,0:0:0:0:
256,192,105978,1,0,0:0:0:0:
256,192,106064,1,8,0:0:0:0:
256,192,106150,1,8,0:0:0:0:
256,192,106236,1,0,0:0:0:0:
256,192,106409,1,0,0:0:0:0:
256,192,106581,1,8,0:0:0:0:
256,192,106667,1,0,0:0:0:0:
256,192,106754,1,8,0:0:0:0:
256,192,106926,1,8,0:0:0:0:
256,192,107012,1,8,0:0:0:0:
256,192,107098,1,0,0:0:0:0:
256,192,107185,1,0,0:0:0:0:
256,192,107271,1,8,0:0:0:0:
256,192,107443,1,8,0:0:0:0:
256,192,107616,1,8,0:0:0:0:
256,192,107702,1,8,0:0:0:0:
256,192,107788,1,8,0:0:0:0:
256,192,107874,1,8,0:0:0:0:
256,192,107961,1,0,0:0:0:0:
256,192,108133,1,0,0:0:0:0:
256,192,108305,1,8,0:0:0:0:
256,192,108392,1,8,0:0:0:0:
256,192,108478,1,0,0:0:0:0:
256,192,108564,1,0,0:0:0:0:
256,192,108650,1,8,0:0:0:0:
256,192,108823,1,0,0:0:0:0:
256,192,108995,1,8,0:0:0:0:
256,192,109081,1,8,0:0:0:0:
256,192,109167,1,8,0:0:0:0:
256,192,109254,1,8,0:0:0:0:
256,192,109340,1,0,0:0:0:0:
256,192,109512,1,8,0:0:0:0:
256,192,109598,1,0,0:0:0:0:
256,192,109685,1,8,0:0:0:0:
256,192,109857,1,0,0:0:0:0:
256,192,110030,1,8,0:0:0:0:
256,192,110202,1,0,0:0:0:0:
256,192,110288,1,0,0:0:0:0:
256,192,110374,1,8,0:0:0:0:
256,192,110547,1,0,0:0:0:0:
256,192,110719,1,8,0:0:0:0:
256,192,111236,1,0,0:0:0:0:
256,192,111409,1,0,0:0:0:0:
256,192,111581,1,8,0:0:0:0:
256,192,111926,1,0,0:0:0:0:
256,192,112098,1,0,0:0:0:0:
256,192,112443,1,8,0:0:0:0:
256,192,112616,1,0,0:0:0:0:
256,192,112788,1,0,0:0:0:0:
256,192,113133,1,8,0:0:0:0:
256,192,113305,1,0,0:0:0:0:
256,192,113478,1,8,0:0:0:0:
256,192,113995,1,0,0:0:0:0:
256,192,114167,1,0,0:0:0:0:
256,192,114340,1,8,0:0:0:0:
256,192,114512,1,8,0:0:0:0:
256,192,114685,1,0,0:0:0:0:
256,192,114857,1,8,0:0:0:0:
256,192,115202,1,0,0:0:0:0:
256,192,115374,1,0,0:0:0:0:
256,192,115547,1,8,0:0:0:0:
256,192,115892,1,0,0:0:0:0:
256,192,116064,1,8,0:0:0:0:
256,192,116236,1,0,0:0:0:0:
256,192,116754,1,0,0:0:0:0:
256,192,116926,1,0,0:0:0:0:
256,192,117098,1,8,0:0:0:0:
256,192,117443,1,8,0:0:0:0:
256,192,117616,1,0,0:0:0:0:
256,192,117961,1,0,0:0:0:0:
256,192,118133,1,0,0:0:0:0:
256,192,118305,1,0,0:0:0:0:
256,192,118650,1,8,0:0:0:0:
256,192,118823,1,0,0:0:0:0:
256,192,118995,1,8,0:0:0:0:
256,192,119512,1,0,0:0:0:0:
256,192,119685,1,0,0:0:0:0:
256,192,119857,1,8,0:0:0:0:
256,192,120030,1,8,0:0:0:0:
256,192,120202,1,0,0:0:0:0:
256,192,120374,1,8,0:0:0:0:
256,192,120719,1,8,0:0:0:0:
256,192,120892,1,8,0:0:0:0:
256,192,121064,1,8,0:0:0:0:
256,192,121409,1,8,0:0:0:0:
256,192,121581,1,0,0:0:0:0:
256,192,121754,1,8,0:0:0:0:
256,192,122271,1,0,0:0:0:0:
256,192,122443,1,0,0:0:0:0:
256,192,122616,1,8,0:0:0:0:
256,192,122961,1,0,0:0:0:0:
256,192,123133,1,0,0:0:0:0:
256,192,123478,1,8,0:0:0:0:
256,192,123650,1,8,0:0:0:0:
256,192,123823,1,0,0:0:0:0:
256,192,124167,1,8,0:0:0:0:
256,192,124340,1,8,0:0:0:0:
256,192,124512,1,8,0:0:0:0:
256,192,125030,1,0,0:0:0:0:
256,192,125202,1,0,0:0:0:0:
256,192,125374,1,8,0:0:0:0:
256,192,125547,1,8,0:0:0:0:
256,192,125719,1,0,0:0:0:0:
256,192,125892,1,0,0:0:0:0:
256,192,126236,1,0,0:0:0:0:
256,192,126409,1,0,0:0:0:0:
256,192,126581,1,8,0:0:0:0:
256,192,126926,1,8,0:0:0:0:
256,192,127098,1,0,0:0:0:0:
256,192,127271,1,8,0:0:0:0:
256,192,127788,1,0,0:0:0:0:
256,192,127961,1,0,0:0:0:0:
256,192,128133,1,8,0:0:0:0:
256,192,128478,1,8,0:0:0:0:
256,192,128650,1,0,0:0:0:0:
256,192,128995,1,8,0:0:0:0:
256,192,129167,1,0,0:0:0:0:
256,192,129340,1,8,0:0:0:0:
256,192,129685,1,8,0:0:0:0:
256,192,129857,1,8,0:0:0:0:
256,192,130030,1,0,0:0:0:0:
256,192,130547,1,0,0:0:0:0:
256,192,130719,1,0,0:0:0:0:
256,192,130892,1,8,0:0:0:0:
256,192,131064,1,0,0:0:0:0:
256,192,131236,1,0,0:0:0:0:
256,192,131409,1,8,0:0:0:0:
256,192,131754,1,8,0:0:0:0:
256,192,131926,1,0,0:0:0:0:
256,192,132098,1,8,0:0:0:0:
256,192,132443,1,0,0:0:0:0:
256,192,132616,1,0,0:0:0:0:
256,192,132788,1,8,0:0:0:0:
256,192,133305,1,0,0:0:0:0:
256,192,133478,1,0,0:0:0:0:
256,192,133650,1,8,0:0:0:0:
256,192,133995,1,0,0:0:0:0:
256,192,134167,1,0,0:0:0:0:
256,192,134512,1,8,0:0:0:0:
256,192,134685,1,0,0:0:0:0:
256,192,134857,1,0,0:0:0:0:
256,192,135202,1,0,0:0:0:0:
256,192,135374,1,0,0:0:0:0:
256,192,135547,1,8,0:0:0:0:
256,192,136064,1,8,0:0:0:0:
256,192,136236,1,0,0:0:0:0:
256,192,136409,1,8,0:0:0:0:
256,192,136581,1,8,0:0:0:0:
256,192,136754,1,0,0:0:0:0:
256,192,136926,1,8,0:0:0:0:
256,192,137271,1,8,0:0:0:0:
256,192,137443,1,0,0:0:0:0:
256,192,137616,1,8,0:0:0:0:
256,192,137961,1,0,0:0:0:0:
256,192,138133,1,0,0:0:0:0:
256,192,138305,1,8,0:0:0:0:
256,192,138823,1,0,0:0:0:0:
256,192,138995,1,0,0:0:0:0:
256,192,139167,1,8,0:0:0:0:
256,192,139512,1,0,0:0:0:0:
256,192,139685,1,0,0:0:0:0:
256,192,140030,1,8,0:0:0:0:
256,192,140202,1,0,0:0:0:0:
256,192,140374,1,0,0:0:0:0:
256,192,140719,1,8,0:0:0:0:
256,192,140892,1,0,0:0:0:0:
256,192,141064,1,8,0:0:0:0:
256,192,141581,1,0,0:0:0:0:
256,192,141754,1,0,0:0:0:0:
256,192,141926,1,8,0:0:0:0:
256,192,142098,1,8,0:0:0:0:
256,192,142271,1,0,0:0:0:0:
256,192,142443,1,8,0:0:0:0:
256,192,142788,1,0,0:0:0:0:
256,192,142961,1,0,0:0:0:0:
256,192,143133,1,8,0:0:0:0:
256,192,143478,1,0,0:0:0:0:
256,192,143650,1,0,0:0:0:0:
256,192,143823,1,0,0:0:0:0:
256,192,144340,1,0,0:0:0:0:
256,192,144512,1,0,0:0:0:0:
256,192,144685,1,8,0:0:0:0:
256,192,145030,1,0,0:0:0:0:
256,192,145202,1,0,0:0:0:0:
256,192,145547,1,8,0:0:0:0:
256,192,145719,1,0,0:0:0:0:
256,192,145892,1,0,0:0:0:0:
256,192,146236,1,0,0:0:0:0:
256,192,146409,1,0,0:0:0:0:
256,192,146581,1,0,0:0:0:0:
256,192,147098,1,0,0:0:0:0:
256,192,147271,1,0,0:0:0:0:
256,192,147443,1,8,0:0:0:0:
256,192,147616,1,8,0:0:0:0:
256,192,147788,1,0,0:0:0:0:
256,192,147961,1,8,0:0:0:0:
256,192,148305,1,0,0:0:0:0:
256,192,148478,1,0,0:0:0:0:
256,192,148650,1,8,0:0:0:0:
256,192,148995,1,0,0:0:0:0:
256,192,149167,1,0,0:0:0:0:
256,192,149340,1,0,0:0:0:0:
256,192,149857,1,8,0:0:0:0:
256,192,150030,1,0,0:0:0:0:
256,192,150202,1,8,0:0:0:0:
256,192,150547,1,0,0:0:0:0:
256,192,150719,1,0,0:0:0:0:
256,192,151064,1,8,0:0:0:0:
256,192,151236,1,0,0:0:0:0:
256,192,151409,1,0,0:0:0:0:
256,192,151754,1,8,0:0:0:0:
256,192,151926,1,0,0:0:0:0:
256,192,152098,1,8,0:0:0:0:
256,192,152616,1,0,0:0:0:0:
256,192,152788,1,0,0:0:0:0:
256,192,152961,1,8,0:0:0:0:
256,192,154512,1,0,0:0:0:0:
256,192,154685,1,0,0:0:0:0:
256,192,154857,1,8,0:0:0:0:
256,192,155030,1,0,0:0:0:0:
256,192,155116,1,0,0:0:0:0:
256,192,155202,1,8,0:0:0:0:
256,192,155288,1,8,0:0:0:0:
256,192,155374,1,0,0:0:0:0:
256,192,155461,1,0,0:0:0:0:
256,192,155547,1,8,0:0:0:0:
256,192,155719,1,8,0:0:0:0:
256,192,155805,1,8,0:0:0:0:
256,192,155892,1,0,0:0:0:0:
256,192,156064,1,0,0:0:0:0:
256,192,156236,1,8,0:0:0:0:
256,192,156409,1,0,0:0:0:0:
256,192,156495,1,8,0:0:0:0:
256,192,156581,1,0,0:0:0:0:
256,192,156667,1,8,0:0:0:0:
256,192,156754,1,0,0:0:0:0:
256,192,156840,1,0,0:0:0:0:
256,192,156926,1,8,0:0:0:0:
256,192,157098,1,0,0:0:0:0:
256,192,157185,1,8,0:0:0:0:
256,192,157271,1,0,0:0:0:0:
256,192,157443,1,0,0:0:0:0:
256,192,157616,1,8,0:0:0:0:
256,192,157788,1,8,0:0:0:0:
256,192,157874,1,0,0:0:0:0:
256,192,157961,1,8,0:0:0:0:
256,192,158047,1,8,0:0:0:0:
256,192,158133,1,0,0:0:0:0:
256,192,158219,1,0,0:0:0:0:
256,192,158305,1,8,0:0:0:0:
256,192,158478,1,0,0:0:0:0:
256,192,158650,1,8,0:0:0:0:
256,192,158736,1,8,0:0:0:0:
256,192,158823,1,0,0:0:0:0:
256,192,158909,1,0,0:0:0:0:
256,192,158995,1,8,0:0:0:0:
256,192,159167,1,0,0:0:0:0:
256,192,159254,1,0,0:0:0:0:
256,192,159340,1,8,0:0:0:0:
256,192,159512,1,0,0:0:0:0:
256,192,159598,1,0,0:0:0:0:
256,192,159685,1,8,0:0:0:0:
256,192,159771,1,8,0:0:0:0:
256,192,159857,1,0,0:0:0:0:
256,192,159943,1,8,0:0:0:0:
256,192,160030,1,0,0:0:0:0:
256,192,160202,1,0,0:0:0:0:
256,192,160374,1,8,0:0:0:0:
256,192,160547,1,8,0:0:0:0:
256,192,160633,1,0,0:0:0:0:
256,192,160719,1,8,0:0:0:0:
256,192,160805,1,0,0:0:0:0:
256,192,160892,1,0,0:0:0:0:
256,192,160978,1,0,0:0:0:0:
256,192,161064,1,8,0:0:0:0:
256,192,161236,1,8,0:0:0:0:
256,192,161323,1,0,0:0:0:0:
256,192,161409,1,0,0:0:0:0:
256,192,161581,1,0,0:0:0:0:
256,192,161754,1,8,0:0:0:0:
256,192,161926,1,8,0:0:0:0:
256,192,162012,1,0,0:0:0:0:
256,192,162098,1,0,0:0:0:0:
256,192,162185,1,8,0:0:0:0:
256,192,162271,1,0,0:0:0:0:
256,192,162357,1,0,0:0:0:0:
256,192,162443,1,8,0:0:0:0:
256,192,162616,1,8,0:0:0:0:
256,192,162702,1,8,0:0:0:0:
256,192,162788,1,0,0:0:0:0:
256,192,162961,1,0,0:0:0:0:
256,192,163133,1,8,0:0:0:0:
256,192,163305,1,8,0:0:0:0:
256,192,163392,1,8,0:0:0:0:
256,192,163478,1,8,0:0:0:0:
256,192,163564,1,8,0:0:0:0:
256,192,163650,1,0,0:0:0:0:
256,192,163736,1,0,0:0:0:0:
256,192,163823,1,8,0:0:0:0:
256,192,163995,1,0,0:0:0:0:
256,192,164167,1,8,0:0:0:0:
256,192,164254,1,0,0:0:0:0:
256,192,164340,1,0,0:0:0:0:
256,192,164426,1,0,0:0:0:0:
256,192,164512,1,8,0:0:0:0:
256,192,164685,1,8,0:0:0:0:
256,192,164771,1,0,0:0:0:0:
256,192,164857,1,8,0:0:0:0:
256,192,165030,1,0,0:0:0:0:
256,192,165116,1,0,0:0:0:0:
256,192,165202,1,8,0:0:0:0:
256,192,165288,1,8,0:0:0:0:
256,192,165374,1,0,0:0:0:0:
256,192,165461,1,8,0:0:0:0:
256,192,165547,1,0,0:0:0:0:
256,192,165719,1,0,0:0:0:0:
256,192,165892,1,8,0:0:0:0:
256,192,166064,1,0,0:0:0:0:
256,192,166150,1,8,0:0:0:0:
256,192,166236,1,8,0:0:0:0:
256,192,166323,1,8,0:0:0:0:
256,192,166409,1,0,0:0:0:0:
256,192,166495,1,0,0:0:0:0:
256,192,166581,1,8,0:0:0:0:
256,192,166754,1,0,0:0:0:0:
256,192,166840,1,8,0:0:0:0:
256,192,166926,1,0,0:0:0:0:
256,192,167098,1,0,0:0:0:0:
256,192,167271,1,8,0:0:0:0:
256,192,167443,1,0,0:0:0:0:
256,192,167530,1,0,0:0:0:0:
256,192,167616,1,0,0:0:0:0:
256,192,167702,1,8,0:0:0:0:
256,192,167788,1,0,0:0:0:0:
256,192,167874,1,0,0:0:0:0:
256,192,167961,1,8,0:0:0:0:
256,192,168133,1,0,0:0:0:0:
256,192,168219,1,0,0:0:0:0:
256,192,168305,1,0,0:0:0:0:
256,192,168478,1,0,0:0:0:0:
256,192,168650,1,8,0:0:0:0:
256,192,168823,1,0,0:0:0:0:
256,192,168909,1,8,0:0:0:0:
256,192,168995,1,8,0:0:0:0:
256,192,169081,1,0,0:0:0:0:
256,192,169167,1,0,0:0:0:0:
256,192,169254,1,0,0:0:0:0:
256,192,169340,1,8,0:0:0:0:
256,192,169512,1,0,0:0:0:0:
256,192,169685,1,8,0:0:0:0:
256,192,169771,1,8,0:0:0:0:
256,192,169857,1,0,0:0:0:0:
256,192,169943,1,0,0:0:0:0:
256,192,170030,1,8,0:0:0:0:
256,192,170202,1,0,0:0:0:0:
256,192,170288,1,8,0:0:0:0:
256,192,170374,1,8,0:0:0:0:
256,192,170547,1,0,0:0:0:0:
256,192,170633,1,0,0:0:0:0:
256,192,170719,1,8,0:0:0:0:
256,192,170805,1,0,0:0:0:0:
256,192,170892,1,0,0:0:0:0:
256,192,170978,1,8,0:0:0:0:
256,192,171064,1,0,0:0:0:0:
256,192,171236,1,0,0:0:0:0:
256,192,171409,1,8,0:0:0:0:
256,192,171581,1,8,0:0:0:0:
256,192,171667,1,0,0:0:0:0:
256,192,171754,1,8,0:0:0:0:
256,192,171840,1,0,0:0:0:0:
256,192,171926,1,0,0:0:0:0:
256,192,172012,1,0,0:0:0:0:
256,192,172098,1,8,0:0:0:0:
256,192,172271,1,8,0:0:0:0:
256,192,172357,1,8,0:0:0:0:
256,192,172443,1,0,0:0:0:0:
256,192,172616,1,0,0:0:0:0:
256,192,172788,1,8,0:0:0:0:
256,192,172961,1,8,0:0:0:0:
256,192,173047,1,0,0:0:0:0:
256,192,173133,1,8,0:0:0:0:
256,192,173219,1,8,0:0:0:0:
256,192,173305,1,0,0:0:0:0:
256,192,173392,1,8,0:0:0:0:
256,192,173478,1,8,0:0:0:0:
256,192,173650,1,8,0:0:0:0:
256,192,173736,1,0,0:0:0:0:
256,192,173823,1,0,0:0:0:0:
256,192,173995,1,0,0:0:0:0:
256,192,174167,1,8,0:0:0:0:
256,192,174340,1,8,0:0:0:0:
256,192,174426,1,8,0:0:0:0:
256,192,174512,1,0,0:0:0:0:
256,192,174598,1,0,0:0:0:0:
256,192,174685,1,0,0:0:0:0:
256,192,174771,1,8,0:0:0:0:
256,192,174857,1,8,0:0:0:0:
256,192,175030,1,0,0:0:0:0:
256,192,175202,1,8,0:0:0:0:
256,192,175288,1,8,0:0:0:0:
256,192,175374,1,0,0:0:0:0:
256,192,175461,1,8,0:0:0:0:
256,192,175547,1,8,0:0:0:0:
256,192,175719,1,0,0:0:0:0:
256,192,175805,1,0,0:0:0:0:
256,192,175892,1,8,0:0:0:0:
256,192,176064,1,0,0:0:0:0:
256,192,176236,1,8,0:0:0:0:
256,192,176323,1,8,0:0:0:0:
256,192,176409,1,0,0:0:0:0:
256,192,176495,1,8,0:0:0:0:
256,192,176581,1,0,0:0:0:0:
256,192,176754,1,0,0:0:0:0:
256,192,176926,1,8,0:0:0:0:
256,192,177012,1,8,0:0:0:0:
256,192,177098,1,0,0:0:0:0:
256,192,177185,1,0,0:0:0:0:
256,192,177271,1,8,0:0:0:0:
256,192,177357,1,8,0:0:0:0:
256,192,177443,1,0,0:0:0:0:
256,192,177616,1,8,0:0:0:0:
256,192,177702,1,0,0:0:0:0:
256,192,177788,1,8,0:0:0:0:
256,192,177961,1,0,0:0:0:0:
256,192,178047,1,8,0:0:0:0:
256,192,178133,1,0,0:0:0:0:
256,192,178219,1,0,0:0:0:0:
256,192,178305,1,8,0:0:0:0:
256,192,178392,1,8,0:0:0:0:
256,192,178478,1,0,0:0:0:0:
256,192,178650,1,8,0:0:0:0:
256,192,178736,1,8,0:0:0:0:
256,192,178823,1,0,0:0:0:0:
256,192,178995,1,8,0:0:0:0:
256,192,179081,1,8,0:0:0:0:
256,192,179167,1,0,0:0:0:0:
256,192,179254,1,0,0:0:0:0:
256,192,179340,1,8,0:0:0:0:
256,192,179426,1,8,0:0:0:0:
256,192,179512,1,8,0:0:0:0:
256,192,179598,1,8,0:0:0:0:
256,192,179685,1,0,0:0:0:0:
256,192,179857,1,0,0:0:0:0:
256,192,180030,1,8,0:0:0:0:
256,192,180116,1,8,0:0:0:0:
256,192,180202,1,0,0:0:0:0:
256,192,180288,1,0,0:0:0:0:
256,192,180374,1,8,0:0:0:0:
256,192,180547,1,0,0:0:0:0:
256,192,180719,1,8,0:0:0:0:
256,192,180805,1,8,0:0:0:0:
256,192,180892,1,0,0:0:0:0:
256,192,181064,1,8,0:0:0:0:
256,192,181236,1,0,0:0:0:0:
256,192,181323,1,0,0:0:0:0:
256,192,181409,1,8,0:0:0:0:
256,192,181581,1,0,0:0:0:0:
256,192,181754,1,8,0:0:0:0:
256,192,181840,1,8,0:0:0:0:
256,192,181926,1,0,0:0:0:0:
256,192,182012,1,8,0:0:0:0:
256,192,182098,1,0,0:0:0:0:
256,192,182271,1,0,0:0:0:0:
256,192,182443,1,8,0:0:0:0:
256,192,182616,1,0,0:0:0:0:
256,192,182702,1,0,0:0:0:0:
256,192,182788,1,8,0:0:0:0:
256,192,182874,1,8,0:0:0:0:
256,192,182961,1,0,0:0:0:0:
256,192,183133,1,8,0:0:0:0:
256,192,183219,1,0,0:0:0:0:
256,192,183305,1,8,0:0:0:0:
256,192,183392,1,8,0:0:0:0:
256,192,183478,1,0,0:0:0:0:
256,192,183564,1,0,0:0:0:0:
256,192,183650,1,8,0:0:0:0:
256,192,183736,1,0,0:0:0:0:
256,192,183823,1,8,0:0:0:0:
256,192,183995,1,0,0:0:0:0:
256,192,184167,1,8,0:0:0:0:
256,192,184254,1,8,0:0:0:0:
256,192,184340,1,0,0:0:0:0:
256,192,184512,1,8,0:0:0:0:
256,192,184685,1,0,0:0:0:0:
256,192,184857,1,0,0:0:0:0:
256,192,184943,1,8,0:0:0:0:
256,192,185030,1,0,0:0:0:0:
256,192,185202,1,8,0:0:0:0:
256,192,185288,1,8,0:0:0:0:
256,192,185374,1,0,0:0:0:0:
256,192,185547,1,8,0:0:0:0:
256,192,185719,1,0,0:0:0:0:
256,192,185805,1,0,0:0:0:0:
256,192,185892,1,8,0:0:0:0:
256,192,185978,1,0,0:0:0:0:
256,192,186064,1,8,0:0:0:0:
256,192,186236,1,0,0:0:0:0:
256,192,186323,1,8,0:0:0:0:
256,192,186409,1,8,0:0:0:0:
256,192,186495,1,8,0:0:0:0:
256,192,186581,1,0,0:0:0:0:
256,192,186754,1,0,0:0:0:0:
256,192,186840,1,0,0:0:0:0:
256,192,186926,1,8,0:0:0:0:
256,192,187098,1,0,0:0:0:0:
256,192,187271,1,8,0:0:0:0:
256,192,187357,1,8,0:0:0:0:
256,192,187443,1,0,0:0:0:0:
256,192,187530,1,0,0:0:0:0:
256,192,187616,1,8,0:0:0:0:
256,192,187788,1,0,0:0:0:0:
256,192,187961,1,8,0:0:0:0:
256,192,188047,1,0,0:0:0:0:
256,192,188133,1,0,0:0:0:0:
256,192,188219,1,0,0:0:0:0:
256,192,188305,1,8,0:0:0:0:
256,192,188392,1,8,0:0:0:0:
256,192,188478,1,0,0:0:0:0:
256,192,188650,1,8,0:0:0:0:
256,192,188736,1,0,0:0:0:0:
256,192,188823,1,8,0:0:0:0:
256,192,188909,1,8,0:0:0:0:
256,192,188995,1,0,0:0:0:0:
256,192,189081,1,8,0:0:0:0:
256,192,189167,1,0,0:0:0:0:
256,192,189340,1,8,0:0:0:0:
256,192,189512,1,0,0:0:0:0:
256,192,189598,5,0,0:0:0:0:
256,192,189685,1,8,0:0:0:0:
256,192,189771,1,8,0:0:0:0:
256,192,189857,1,0,0:0:0:0:
256,192,190030,1,8,0:0:0:0:
256,192,190116,1,0,0:0:0:0:
256,192,190202,1,8,0:0:0:0:
256,192,190374,1,8,0:0:0:0:
256,192,190461,1,8,0:0:0:0:
256,192,190547,1,8,0:0:0:0:
256,192,190633,1,8,0:0:0:0:
256,192,190719,1,0,0:0:0:0:
256,192,190892,1,0,0:0:0:0:
256,192,191064,1,8,0:0:0:0:
256,192,191150,1,8,0:0:0:0:
256,192,191236,1,0,0:0:0:0:
256,192,191323,1,0,0:0:0:0:
256,192,191409,1,8,0:0:0:0:
256,192,191581,1,0,0:0:0:0:
256,192,191754,1,0,0:0:0:0:
256,192,191840,1,0,0:0:0:0:
256,192,191926,1,8,0:0:0:0:
256,192,192012,1,8,0:0:0:0:
256,192,192098,1,0,0:0:0:0:
256,192,192271,1,0,0:0:0:0:
256,192,192357,1,0,0:0:0:0:
256,192,192443,1,8,0:0:0:0:
256,192,192616,1,0,0:0:0:0:
256,192,192788,1,8,0:0:0:0:
256,192,192874,1,8,0:0:0:0:
256,192,192961,1,0,0:0:0:0:
256,192,193047,1,0,0:0:0:0:
256,192,193133,1,8,0:0:0:0:
256,192,193305,1,0,0:0:0:0:
256,192,193478,1,8,0:0:0:0:
256,192,193564,1,0,0:0:0:0:
256,192,193650,1,8,0:0:0:0:
256,192,193736,1,0,0:0:0:0:
256,192,193823,1,8,0:0:0:0:
256,192,193909,1,8,0:0:0:0:
256,192,193995,1,0,0:0:0:0:
256,192,194167,1,8,0:0:0:0:
256,192,194254,1,0,0:0:0:0:
256,192,194340,1,8,0:0:0:0:
256,192,194426,1,8,0:0:0:0:
256,192,194512,1,0,0:0:0:0:
256,192,194685,1,0,0:0:0:0:
256,192,194771,1,0,0:0:0:0:
256,192,194857,1,8,0:0:0:0:
256,192,195030,1,0,0:0:0:0:
256,192,195202,1,8,0:0:0:0:
256,192,195288,1,8,0:0:0:0:
256,192,195374,1,0,0:0:0:0:
256,192,195461,1,0,0:0:0:0:
256,192,195547,1,8,0:0:0:0:
256,192,195719,1,8,0:0:0:0:
256,192,195892,1,8,0:0:0:0:
256,192,195978,1,8,0:0:0:0:
256,192,196064,1,8,0:0:0:0:
256,192,196150,1,8,0:0:0:0:
256,192,196236,1,0,0:0:0:0:
256,192,196409,1,0,0:0:0:0:
256,192,196581,1,8,0:0:0:0:
256,192,196667,1,8,0:0:0:0:
256,192,196754,1,0,0:0:0:0:
256,192,196840,1,0,0:0:0:0:
256,192,196926,1,8,0:0:0:0:
256,192,197098,1,0,0:0:0:0:
256,192,197271,1,8,0:0:0:0:
256,192,197357,1,8,0:0:0:0:
256,192,197443,1,8,0:0:0:0:
256,192,197530,1,8,0:0:0:0:
256,192,197616,1,0,0:0:0:0:
256,192,197788,1,8,0:0:0:0:
256,192,197874,1,0,0:0:0:0:
256,192,197961,1,8,0:0:0:0:
256,192,198133,1,0,0:0:0:0:
256,192,198305,1,8,0:0:0:0:
256,192,198478,1,0,0:0:0:0:
256,192,198564,1,0,0:0:0:0:
256,192,198650,1,8,0:0:0:0:
