osu file format v14

[General]
AudioFilename: audio.mp3
AudioLeadIn: 0
PreviewTime: 226956
Countdown: 0
SampleSet: Normal
StackLeniency: 0.5
Mode: 0
LetterboxInBreaks: 0
WidescreenStoryboard: 1

[Editor]
Bookmarks: 73207,73438,73611,73727,73784,103380,151234,304225,304354,304527,304699,304871,305001
DistanceSpacing: 1.4
BeatDivisor: 4
GridSize: 4
TimelineZoom: 1.6

[Metadata]
Title:Newlove
TitleUnicode:Newlove
Artist:Sewerslvt
ArtistUnicode:Sewerslvt
Creator:DTM9 Nowa
Version:Hard
Source:
Tags:Nuvolina fa featured artist dnb drum and bass breakcore trance sewerslut Draining Love Story Electronic instrumental
BeatmapID:2996758
BeatmapSetID:1442626

[Difficulty]
HPDrainRate:4
CircleSize:2.5
OverallDifficulty:6
ApproachRate:7.8
SliderMultiplier:1.4
SliderTickRate:1

[Events]
//Background and Video events
0,0,"newlove.jpg",0,0
//Break Periods
//Storyboard Layer 0 (Background)
//Storyboard Layer 1 (Fail)
//Storyboard Layer 2 (Pass)
//Storyboard Layer 3 (Foreground)
//Storyboard Layer 4 (Overlay)
//Storyboard Sound Samples

[TimingPoints]
44141,461.538461538462,4,1,1,80,1,0
133682,458.015267175573,4,1,1,60,1,0
134598,454.545454545455,4,1,1,60,1,0
136416,447.761194029851,4,1,1,60,1,0
138207,444.444444444445,4,1,1,60,1,0
139984,433.996383363472,4,1,1,65,1,0
141719,433.212996389892,4,1,1,65,1,0
143451,428.571428571429,4,1,1,65,1,0
145165,424.028268551237,4,1,1,65,1,0
146861,421.052631578948,4,1,1,70,1,0
148545,413.793103448277,4,1,1,70,1,0
150200,408.163265306124,4,1,1,70,1,0
151832,406.779661016951,4,1,1,70,1,0
153459,400.000000000002,4,1,1,75,1,0
155059,397.350993377485,4,1,1,75,1,0
156648,393.442622950821,4,1,1,75,1,0
158221,390.243902439026,4,1,1,75,1,0
159781,384.615384615386,4,1,1,80,1,0
161319,380.952380952382,4,1,1,80,1,0
162842,376.175548589343,4,1,1,80,1,0
164346,375.586854460095,4,1,1,80,1,0
165848,372.670807453417,4,1,1,80,1,0
167338,365.853658536586,4,1,1,80,1,0
168801,361.445783132531,4,1,1,80,1,0
170246,359.281437125749,4,1,1,80,1,0
171683,357.142857142858,4,1,1,80,1,0
173111,355.029585798817,4,1,1,80,1,0
174531,346.320346320347,4,1,1,80,1,0
177301,344.827586206898,4,1,1,80,1,0
182818,-100,4,1,1,90,0,0
226955,-100,4,1,1,100,0,0
271093,-250,4,1,1,50,0,0
271136,-333.333333333333,4,1,2,30,0,0
286266,-333.333333333333,4,1,1,30,0,0
286309,-333.333333333333,4,1,2,30,0,0
291611,-1000,4,1,1,50,0,0
291654,-1000,4,1,2,30,0,0
304197,-1000,4,1,2,30,0,0

[Colours]
Combo1 : 0,117,234
Combo2 : 255,159,159
Combo3 : 164,172,251
Combo4 : 243,90,155

[HitObjects]
47,214,73680,5,0,3:3:0:0:
212,289,74141,1,8,1:1:0:0:
198,198,74372,2,0,L|190:148,4,35,0|0|0|0|0,1:1|1:1|1:1|1:1|3:3,0:0:0:0:
212,289,75064,1,8,1:1:0:0:
306,325,75295,1,0,3:3:0:0:
306,325,75410,1,0,3:3:0:0:
306,325,75526,6,0,P|345:320|375:305,1,70,0|0,3:3|1:1,0:0:0:0:
436,191,75987,1,8,1:1:0:0:
501,260,76218,2,0,P|508:276|510:305,4,35,0|0|0|0|0,1:1|1:1|1:1|1:1|3:3,0:0:0:0:
436,191,76910,1,8,1:1:0:0:
348,215,77141,1,0,3:3:0:0:
348,215,77256,1,0,3:3:0:0:
348,215,77371,1,0,3:3:0:0:
235,71,77833,5,8,1:1:0:0:
175,139,78064,2,0,L|171:181,4,35,0|0|0|0|0,1:1|1:1|1:1|1:1|3:3,0:0:0:0:
235,71,78756,1,8,1:1:0:0:
333,91,78987,1,0,3:3:0:0:
333,91,79102,1,0,3:3:0:0:
333,91,79218,6,0,P|357:120|360:164,1,70,0|0,3:3|1:1,0:0:0:0:
305,279,79680,1,8,1:1:0:0:
368,339,79910,1,0,1:1:0:0:
380,326,80025,1,0,1:1:0:0:
388,311,80140,1,8,1:1:0:0:
393,294,80256,1,8,1:1:0:0:
393,276,80371,1,0,3:3:0:0:
284,363,80603,1,8,1:1:0:0:
218,300,80833,1,0,3:3:0:0:
218,300,80948,1,0,3:3:0:0:
218,300,81063,1,0,3:3:0:0:
459,364,81526,5,8,1:1:0:0:
491,279,81756,2,0,L|505:237,4,35,0|0|0|0|0,1:1|1:1|1:1|1:1|3:3,0:0:0:0:
459,364,82449,1,8,1:1:0:0:
403,298,82680,1,0,3:3:0:0:
403,298,82795,1,0,3:3:0:0:
403,298,82911,6,0,L|383:216,1,70,0|0,3:3|1:1,0:0:0:0:
291,148,83372,1,8,1:1:0:0:
364,90,83603,2,0,L|374:49,4,35,0|0|0|0|0,1:1|1:1|1:1|1:1|3:3,0:0:0:0:
291,148,84295,1,8,1:1:0:0:
222,84,84526,1,0,3:3:0:0:
222,84,84641,1,0,3:3:0:0:
222,84,84756,1,0,3:3:0:0:
102,256,85218,5,8,1:1:0:0:
23,201,85449,2,0,P|9:223|4:245,4,35,0|0|0|0|0,1:1|1:1|1:1|1:1|3:3,0:0:0:0:
111,159,86141,1,8,1:1:0:0:
191,230,86372,1,0,3:3:0:0:
191,230,86487,1,0,3:3:0:0:
191,230,86603,6,0,L|197:317,1,70,0|0,3:3|1:1,0:0:0:0:
307,364,87065,1,8,1:1:0:0:
384,313,87295,1,0,1:1:0:0:
385,296,87410,1,0,1:1:0:0:
386,278,87525,1,8,1:1:0:0:
388,261,87641,1,8,1:1:0:0:
389,243,87756,1,0,3:3:0:0:
324,176,87988,1,8,1:1:0:0:
430,131,88218,1,0,3:3:0:0:
430,131,88333,1,0,3:3:0:0:
430,131,88448,1,0,3:3:0:0:
307,364,88910,5,8,1:1:0:0:
384,313,89141,2,0,L|425:323,4,35,0|0|0|0|0,1:1|1:1|1:1|1:1|3:3,0:0:0:0:
307,364,89833,1,8,1:1:0:0:
227,319,90064,1,0,3:3:0:0:
227,319,90179,1,0,3:3:0:0:
227,319,90295,6,0,P|211:282|209:249,1,70,0|0,3:3|1:1,0:0:0:0:
268,150,90756,1,8,1:1:0:0:
181,103,90987,2,0,P|174:119|172:148,4,35,0|0|0|0|0,1:1|1:1|1:1|1:1|3:3,0:0:0:0:
263,55,91679,1,8,1:1:0:0:
278,158,91910,1,0,3:3:0:0:
278,158,92025,1,0,3:3:0:0:
278,158,92140,1,0,3:3:0:0:
161,0,92602,5,8,1:1:0:0:
98,75,92833,2,0,L|108:112,4,35,0|0|0|0|0,1:1|1:1|1:1|1:1|3:3,0:0:0:0:
15,21,93525,1,8,1:1:0:0:
106,84,93756,1,0,3:3:0:0:
106,84,93871,1,0,3:3:0:0:
106,84,93987,6,0,L|86:168,1,70,0|0,3:3|1:1,0:0:0:0:
65,269,94449,1,8,1:1:0:0:
144,312,94679,1,0,1:1:0:0:
153,296,94794,1,0,1:1:0:0:
156,279,94910,1,8,1:1:0:0:
155,262,95025,1,8,1:1:0:0:
151,245,95140,1,0,3:3:0:0:
65,269,95372,1,8,1:1:0:0:
60,364,95602,1,0,3:3:0:0:
60,364,95717,1,0,3:3:0:0:
60,364,95832,1,0,3:3:0:0:
249,303,96295,5,8,1:1:0:0:
277,209,96526,2,0,P|270:194|265:173,4,35,0|0|0|0|0,1:1|1:1|1:1|1:1|3:3,0:0:0:0:
355,267,97218,1,8,1:1:0:0:
422,197,97449,1,0,3:3:0:0:
422,197,97564,1,0,3:3:0:0:
422,197,97680,6,0,P|388:176|355:169,1,70,0|0,3:3|1:1,0:0:0:0:
260,220,98141,1,8,1:1:0:0:
205,140,98372,2,0,P|190:149|172:172,4,35,0|0|8|8|0,1:1|1:1|1:1|1:1|3:3,0:0:0:0:
260,220,99064,1,8,1:1:0:0:
181,273,99295,1,0,3:3:0:0:
181,273,99410,1,0,3:3:0:0:
181,273,99526,6,0,L|93:251,2,70,0|0|8,1:1|1:1|1:1,0:0:0:0:
253,348,100218,1,0,3:3:0:0:
253,348,100333,1,0,3:3:0:0:
253,348,100449,2,0,L|341:370,1,70,0|8,3:3|1:1,0:0:0:0:
424,297,100910,2,0,L|417:236,3,35,8|0|0|0,1:1|0:0|3:3|3:3,0:0:0:0:
410,180,101372,5,0,3:3:0:0:
253,348,101833,1,8,1:1:0:0:
186,285,102064,1,8,1:1:0:0:
116,343,102295,5,0,3:3:0:0:
326,290,102756,1,0,3:3:0:0:
74,180,103218,5,2,3:2:0:0:
74,180,103680,1,10,1:1:0:0:
172,180,103911,2,0,L|189:123,4,35,0|0|0|0|0,1:1|1:1|1:1|1:1|3:3,0:0:0:0:
247,242,104603,1,8,1:1:0:0:
262,348,104834,1,0,3:3:0:0:
262,348,104949,1,0,3:3:0:0:
262,348,105065,6,0,P|301:343|331:328,1,70,0|0,3:3|1:1,0:0:0:0:
415,221,105526,1,8,1:1:0:0:
500,268,105757,2,0,P|507:284|507:325,4,35,0|0|0|0|0,1:1|1:1|1:1|1:1|3:3,0:0:0:0:
415,221,106449,1,8,1:1:0:0:
321,241,106680,1,0,3:3:0:0:
321,241,106795,1,0,3:3:0:0:
321,241,106910,1,2,3:2:0:0:
166,119,107372,5,10,1:1:0:0:
243,161,107603,2,0,L|239:203,4,35,0|0|0|0|0,1:1|1:1|1:1|1:1|3:3,0:0:0:0:
321,116,108295,1,8,1:1:0:0:
326,30,108526,1,0,3:3:0:0:
326,30,108641,1,0,3:3:0:0:
326,30,108757,6,0,P|362:37|392:69,1,70,0|0,3:3|1:1,0:0:0:0:
409,180,109217,1,8,1:1:0:0:
512,180,109449,1,0,1:1:0:0:
512,198,109564,1,0,1:1:0:0:
507,215,109680,1,8,1:1:0:0:
499,230,109795,1,8,1:1:0:0:
487,243,109910,1,0,3:3:0:0:
385,268,110142,1,8,1:1:0:0:
409,180,110372,1,0,3:3:0:0:
409,180,110487,1,0,3:3:0:0:
409,180,110602,1,2,3:2:0:0:
459,364,111065,5,10,1:1:0:0:
376,311,111295,2,0,L|392:270,4,35,0|0|0|0|0,1:1|1:1|1:1|1:1|3:3,0:0:0:0:
286,350,111987,1,8,1:1:0:0:
205,316,112217,1,0,3:3:0:0:
205,316,112333,1,0,3:3:0:0:
205,316,112448,6,0,P|192:285|196:241,1,70,0|0,3:3|1:1,0:0:0:0:
264,148,112911,1,8,1:1:0:0:
335,203,113142,2,0,P|315:225|285:238,4,35,0|0|0|0|0,1:1|1:1|1:1|1:1|3:3,0:0:0:0:
351,112,113834,1,8,1:1:0:0:
264,148,114065,1,0,3:3:0:0:
264,148,114180,1,0,3:3:0:0:
264,148,114295,1,2,3:2:0:0:
69,74,114757,5,10,1:1:0:0:
123,147,114988,2,0,L|166:142,4,35,0|0|0|0|0,1:1|1:1|1:1|1:1|3:3,0:0:0:0:
92,232,115680,1,8,1:1:0:0:
14,288,115911,1,0,3:3:0:0:
14,288,116026,1,0,3:3:0:0:
14,288,116142,6,0,P|45:316|94:324,1,70,0|0,3:3|1:1,0:0:0:0:
203,293,116602,1,8,1:1:0:0:
243,371,116833,1,0,1:1:0:0:
259,363,116948,1,0,1:1:0:0:
273,354,117063,1,8,1:1:0:0:
284,341,117179,1,8,1:1:0:0:
292,325,117294,1,0,3:3:0:0:
278,234,117525,1,8,1:1:0:0:
191,197,117757,1,0,3:3:0:0:
191,197,117872,1,0,3:3:0:0:
191,197,117987,1,2,3:2:0:0:
296,330,118449,5,10,1:1:0:0:
382,359,118680,2,0,L|389:307,4,35,0|0|0|0|0,1:1|1:1|1:1|1:1|3:3,0:0:0:0:
296,330,119372,1,8,1:1:0:0:
224,382,119603,1,0,3:3:0:0:
224,382,119718,1,0,3:3:0:0:
224,382,119834,6,0,P|208:345|209:311,1,70,0|0,3:3|1:1,0:0:0:0:
243,185,120295,1,8,1:1:0:0:
312,126,120526,2,0,P|312:109|308:87,4,35,0|0|0|0|0,1:1|1:1|1:1|1:1|3:3,0:0:0:0:
243,185,121218,1,8,1:1:0:0:
179,128,121449,1,0,3:3:0:0:
179,128,121564,1,0,3:3:0:0:
179,128,121679,1,2,3:2:0:0:
63,269,122141,5,10,1:1:0:0:
143,225,122372,2,0,L|153:262,4,35,0|0|0|0|0,1:1|1:1|1:1|1:1|3:3,0:0:0:0:
234,225,123064,1,8,1:1:0:0:
310,293,123295,1,0,3:3:0:0:
310,293,123410,1,0,3:3:0:0:
310,293,123526,6,0,L|321:380,1,70,0|0,3:3|1:1,0:0:0:0:
438,384,123988,1,8,1:1:0:0:
505,326,124218,1,0,1:1:0:0:
503,309,124333,1,0,1:1:0:0:
501,291,124449,1,8,1:1:0:0:
499,274,124564,1,8,1:1:0:0:
497,256,124679,1,0,3:3:0:0:
414,215,124911,1,8,1:1:0:0:
490,163,125141,1,0,3:3:0:0:
490,163,125256,1,0,3:3:0:0:
490,163,125371,1,2,3:2:0:0:
403,5,125833,5,10,1:1:0:0:
313,21,126065,2,0,P|317:37|324:53,4,35,0|0|0|0|0,1:1|1:1|1:1|1:1|3:3,0:0:0:0:
403,5,126757,1,8,1:1:0:0:
482,80,126987,1,0,3:3:0:0:
482,80,127103,1,0,3:3:0:0:
482,80,127217,6,0,P|482:116|470:151,1,70,0|0,3:3|1:1,0:0:0:0:
376,240,127680,1,8,1:1:0:0:
449,290,127911,2,0,P|459:275|466:247,4,35,0|0|8|8|0,1:1|1:1|1:1|1:1|3:3,0:0:0:0:
376,240,128603,1,8,1:1:0:0:
294,289,128834,1,0,3:3:0:0:
294,289,128949,1,0,3:3:0:0:
294,289,129065,6,0,L|305:366,2,70,0|0|8,1:1|1:1|1:1,0:0:0:0:
189,254,129756,1,0,3:3:0:0:
189,254,129871,1,0,3:3:0:0:
189,254,129987,2,0,L|200:331,1,70,0|8,3:3|1:1,0:0:0:0:
424,297,130449,2,0,L|417:236,3,35,8|0|0|0,1:1|0:0|3:3|3:3,0:0:0:0:
408,182,130910,5,0,3:3:0:0:
195,255,131372,1,8,1:1:0:0:
118,202,131603,1,8,1:1:0:0:
57,270,131834,5,0,3:3:0:0:
257,186,132295,1,0,3:3:0:0:
427,320,132756,6,0,L|433:355,2,35,0|0|0,3:3|3:3|3:3,0:0:0:0:
411,229,133218,1,8,1:1:0:0:
335,339,133449,2,0,L|341:374,2,35,0|0|0,3:3|3:3|3:3,0:0:0:0:
321,244,133911,2,0,L|301:132,2,105,8|8|0,1:1|1:1|3:3,0:0:0:0:
242,302,134825,5,0,3:3:0:0:
154,278,135052,1,8,1:1:0:0:
123,192,135279,2,0,L|131:140,2,35,0|0|0,3:3|3:3|3:3,0:0:0:0:
154,278,135734,2,0,L|132:402,2,105,8|8|0,1:1|1:1|3:3,0:0:0:0:
38,137,136863,5,8,1:1:0:0:
95,65,137087,2,0,L|84:9,2,35,0|0|0,3:3|3:3|3:3,0:0:0:0:
38,137,137535,2,0,L|61:252,1,105,8|8,1:1|1:1,0:0:0:0:
149,346,138207,5,0,3:3:0:0:
167,257,138429,1,0,3:3:0:0:
257,245,138651,1,8,1:1:0:0:
274,156,138873,6,0,L|286:96,2,35,8|0|8,1:1|3:3|1:1,0:0:0:0:
395,219,139429,2,0,L|407:159,2,35,8|0|0,1:1|3:3|0:0,0:0:0:0:
422,313,139873,5,8,1:1:0:0:
422,313,139984,2,0,P|430:335|434:373,2,35,0|0|0,3:3|3:3|3:3,0:0:0:0:
400,224,140417,1,8,1:1:0:0:
336,340,140634,2,0,P|336:360|330:397,2,35,0|0|0,3:3|3:3|3:3,0:0:0:0:
320,242,141068,2,0,P|284:197|212:177,2,105,8|8|0,1:1|1:1|3:3,0:0:0:0:
251,302,141935,5,0,3:3:0:0:
166,268,142152,1,8,1:1:0:0:
145,179,142368,2,0,P|143:161|153:127,2,35,0|0|0,3:3|3:3|3:3,0:0:0:0:
166,268,142802,2,0,P|160:329|140:376,2,105,8|8|0,1:1|1:1|3:3,0:0:0:0:
230,202,143665,5,0,3:3:0:0:
318,223,143879,2,0,P|332:242|342:276,2,35,8|0|0,1:1|0:0|3:3,0:0:0:0:
230,202,144308,1,0,3:3:0:0:
166,268,144522,2,0,P|122:293|44:283,1,105,8|8,1:1|1:1,0:0:0:0:
11,179,145165,5,0,3:3:0:0:
97,206,145377,1,0,3:3:0:0:
164,145,145589,1,8,1:1:0:0:
146,56,145801,6,0,P|131:59|114:69,2,35,8|0|8,1:1|3:3|1:1,0:0:0:0:
270,112,146331,2,0,P|286:107|301:98,2,35,8|0|0,1:1|3:3|0:0,0:0:0:0:
169,149,146755,5,8,1:1:0:0:
169,149,146861,2,0,P|135:171|113:223,1,70,0|0,3:3|3:3,0:0:0:0:
120,286,147282,1,8,1:1:0:0:
197,333,147492,2,0,L|191:390,2,35,0|0|0,3:3|3:3|3:3,0:0:0:0:
283,304,147913,2,0,P|255:258|195:239,2,105,8|8|0,1:1|1:1|3:3,0:0:0:0:
368,336,148751,5,0,3:3:0:0:
426,266,148958,1,8,1:1:0:0:
378,188,149165,2,0,L|409:146,2,35,0|0|0,3:3|3:3|3:3,0:0:0:0:
286,188,149579,2,0,L|246:60,2,105,8|8|0,1:1|1:1|3:3,0:0:0:0:
145,304,150608,5,8,1:1:0:0:
223,349,150812,2,0,L|217:394,2,35,0|0|0,3:3|3:3|3:3,0:0:0:0:
145,304,151220,2,0,L|124:172,1,105,8|0,1:1|3:3,0:0:0:0:
88,71,151832,5,0,3:3:0:0:
192,95,152035,1,0,3:3:0:0:
270,20,152238,1,8,1:1:0:0:
374,44,152442,1,8,1:1:0:0:
374,44,152543,1,0,3:3:0:0:
374,44,152645,2,0,L|377:90,1,35,8|0,1:1|3:3,0:0:0:0:
442,175,152950,2,0,L|489:193,2,35,8|0|0,1:1|3:3|0:0,0:0:0:0:
321,184,153357,5,8,1:1:0:0:
321,184,153459,2,0,P|297:197|281:215,2,35,0|0|0,3:3|3:3|3:3,0:0:0:0:
432,177,153859,1,8,1:1:0:0:
366,262,154059,2,0,P|355:287|354:311,2,35,0|0|0,3:3|3:3|3:3,0:0:0:0:
432,177,154459,2,0,P|448:120|439:53,2,105,8|8|0,1:1|1:1|3:3,0:0:0:0:
264,285,155456,5,8,1:1:0:0:
202,218,155655,2,0,P|204:193|218:165,2,35,0|0|0,3:3|3:3|3:3,0:0:0:0:
169,303,156052,2,0,P|185:346|253:382,2,105,8|8|0,1:1|1:1|3:3,0:0:0:0:
137,105,157041,6,0,P|166:87|190:33,2,70,8|0|0,1:1|3:3|3:3,0:0:0:0:
0,57,157631,1,8,1:1:0:0:
97,17,157828,1,0,0:0:0:0:
97,17,157926,1,0,3:3:0:0:
97,17,158025,1,0,3:3:0:0:
137,107,158221,5,0,3:3:0:0:
234,67,158416,1,0,3:3:0:0:
323,145,158611,5,8,1:1:0:0:
414,116,158806,1,8,1:1:0:0:
414,116,158903,1,8,1:1:0:0:
414,116,159001,2,0,P|417:137|417:162,1,35,8|0,1:1|3:3,0:0:0:0:
296,234,159294,2,0,P|276:226|254:213,2,35,8|0|0,1:1|3:3|3:2,0:0:0:0:
410,256,159684,5,0,3:3:0:0:
410,256,159781,2,0,P|437:300|440:330,1,70,0|0,3:3|3:3,0:0:0:0:
354,384,160165,1,8,1:1:0:0:
269,314,160357,2,0,P|278:280|298:252,1,70,0|0,3:3|3:3,0:0:0:0:
354,384,160742,1,8,1:1:0:0:
170,347,161127,5,8,1:1:0:0:
170,347,161223,1,8,1:1:0:0:
170,347,161319,2,0,P|154:306|161:256,1,70,0|0,3:3|3:3,0:0:0:0:
62,214,161699,1,8,1:1:0:0:
77,126,161890,2,0,P|93:104|112:91,2,35,0|0|0,3:3|3:3|3:3,0:0:0:0:
62,214,162271,2,0,P|117:236|157:285,2,105,8|8|0,1:1|1:1|3:3,0:0:0:0:
236,317,163218,6,0,P|279:312|317:288,2,70,8|0|0,1:1|3:3|3:3,0:0:0:0:
147,268,163782,1,8,1:1:0:0:
261,145,164158,5,0,3:3:0:0:
261,145,164252,1,0,3:3:0:0:
261,145,164346,2,0,P|249:179|242:237,1,70,0|0,3:3|3:3,0:0:0:0:
322,274,164721,1,8,1:1:0:0:
413,226,164909,1,8,1:1:0:0:
413,226,165003,1,0,0:0:0:0:
413,226,165097,2,0,P|406:205|394:183,1,35,8|0,1:1|3:3,0:0:0:0:
255,179,165378,2,0,P|247:194|242:211,2,35,8|0|0,1:1|3:3|3:3,0:0:0:0:
339,117,165754,5,8,1:1:0:0:
339,117,165848,2,0,L|351:27,1,70,0|0,3:3|3:3,0:0:0:0:
255,179,166220,2,0,L|264:248,2,70,8|0|0,1:1|3:3|3:3,0:0:0:0:
179,109,166779,2,0,P|110:112|79:137,1,105,8|0,1:1|3:3,0:0:0:0:
0,253,167338,5,0,3:3:0:0:
213,313,167703,2,0,L|220:383,2,70,8|0|0,1:1|3:3|3:3,0:0:0:0:
154,225,168252,2,0,L|168:117,2,105,8|0|0,1:1|3:3|3:3,0:0:0:0:
299,336,169162,5,8,1:1:0:0:
386,311,169343,1,0,3:3:0:0:
408,222,169523,1,0,3:3:0:0:
356,146,169704,2,0,P|309:132|251:146,1,105,8|0,1:1|3:3,0:0:0:0:
137,231,170246,6,0,P|98:239|58:229,1,70,0|0,3:3|3:3,0:0:0:0:
0,163,170605,1,8,1:1:0:0:
101,133,170784,1,8,1:1:0:0:
101,133,170874,1,8,1:1:0:0:
101,133,170964,1,8,1:1:0:0:
225,218,171234,1,8,1:1:0:0:
225,218,171323,1,0,3:3:0:0:
235,360,171593,1,8,1:1:0:0:
235,360,171683,6,0,P|207:339|192:294,1,70,0|0,3:3|3:3,0:0:0:0:
225,218,172040,1,8,1:1:0:0:
313,195,172218,1,8,1:1:0:0:
385,248,172397,1,0,3:3:0:0:
473,227,172575,2,0,P|499:170|485:107,1,105,8|0,1:1|3:3,0:0:0:0:
390,56,173111,5,0,3:3:0:0:
217,148,173466,2,0,L|225:227,2,70,8|0|0,1:1|3:3|3:3,0:0:0:0:
206,57,173998,1,8,1:1:0:0:
22,180,174442,5,0,0:0:0:0:
22,180,174531,2,0,P|62:196|103:194,1,70,0|0,3:3|3:3,0:0:0:0:
208,145,174877,1,8,1:1:0:0:
305,172,175050,1,0,3:3:0:0:
305,172,175137,1,0,3:3:0:0:
305,172,175223,1,0,3:3:0:0:
326,260,175396,1,8,1:1:0:0:
501,197,175743,5,0,3:3:0:0:
501,197,175829,1,0,3:3:0:0:
501,197,175916,2,0,L|483:279,1,70,0|0,3:3|3:3,0:0:0:0:
360,358,176262,5,8,1:1:0:0:
326,260,176435,1,8,1:1:0:0:
326,260,176522,1,0,0:0:0:0:
326,260,176608,1,8,1:1:0:0:
371,350,176782,2,0,L|364:384,2,35,0|8|0,0:0|1:1|3:3,0:0:0:0:
224,281,177214,5,8,1:1:0:0:
224,281,177301,2,0,P|182:292|156:309,1,70,0|0,3:3|3:3,0:0:0:0:
55,311,177645,2,0,P|24:341|10:369,2,70,8|0|0,1:1|3:3|3:3,0:0:0:0:
159,305,178163,1,8,1:1:0:0:
219,378,178335,2,0,L|261:369,3,35,0|0|0|0,3:3|3:3|3:3|3:3,0:0:0:0:
333,383,178680,6,0,L|354:285,1,70,0|0,3:3|3:3,0:0:0:0:
431,249,179025,2,0,L|452:151,2,70,8|0|0,1:1|3:3|3:3,0:0:0:0:
339,307,179542,1,8,1:1:0:0:
256,262,179714,2,0,L|247:211,4,35,0|0|0|0|0,3:3|3:3|3:3|0:0|3:3,0:0:0:0:
94,95,180404,5,8,1:1:0:0:
22,159,180576,2,0,L|6:217,2,35,0|0|0,3:3|3:3|3:3,0:0:0:0:
94,95,180921,1,8,1:1:0:0:
167,159,181094,2,0,L|173:193,4,35,0|0|0|0|0,3:3|3:3|3:3|3:3|3:3,0:0:0:0:
94,95,182818,5,2,3:2:0:0:
258,164,183162,1,8,1:1:0:0:
258,164,183249,1,0,1:1:0:0:
258,164,183335,2,0,L|266:110,4,35,0|0|0|0|0,1:1|1:1|1:1|1:1|3:3,0:0:0:0:
172,221,183852,1,8,1:1:0:0:
65,199,184024,1,0,1:1:0:0:
65,199,184110,1,0,1:1:0:0:
65,199,184197,2,0,L|81:297,1,70,0|0,3:3|1:1,0:0:0:0:
142,373,184542,5,8,1:1:0:0:
146,354,184628,1,0,1:1:0:0:
149,335,184714,2,0,L|159:278,4,35,0|0|0|0|0,1:1|1:1|1:1|1:1|3:3,0:0:0:0:
258,355,185231,2,0,L|274:257,1,70,8|0,1:1|1:1,0:0:0:0:
283,187,185576,5,0,3:3:0:0:
469,241,185920,1,8,1:1:0:0:
469,241,186007,1,0,0:0:0:0:
469,241,186093,2,0,P|487:233|515:211,4,35,0|0|0|0|0,1:1|1:1|1:1|1:1|3:3,0:0:0:0:
374,196,186610,1,8,1:1:0:0:
397,106,186782,1,0,1:1:0:0:
397,106,186868,1,0,1:1:0:0:
397,106,186955,2,0,P|423:115|460:176,1,70,0|0,3:3|1:1,0:0:0:0:
369,233,187300,5,8,1:1:0:0:
367,214,187386,1,0,1:1:0:0:
374,196,187472,1,0,1:1:0:0:
283,136,187645,5,8,1:1:0:0:
252,159,187731,1,8,1:1:0:0:
237,195,187817,1,0,3:3:0:0:
359,246,187990,2,0,P|357:198|375:162,1,70,8|0,1:1|1:1,0:0:0:0:
458,230,188335,5,0,3:3:0:0:
296,335,188680,1,8,1:1:0:0:
296,335,188767,1,0,0:0:0:0:
296,335,188853,2,0,L|304:389,4,35,0|0|0|0|0,1:1|1:1|1:1|1:1|3:3,0:0:0:0:
201,290,189370,1,8,1:1:0:0:
130,357,189542,1,0,1:1:0:0:
130,357,189628,1,0,1:1:0:0:
130,357,189715,2,0,P|104:318|101:274,1,70,0|0,3:3|1:1,0:0:0:0:
39,222,190059,5,8,1:1:0:0:
39,222,190145,1,0,1:1:0:0:
39,222,190231,2,0,P|54:200|61:171,4,35,0|0|0|0|0,1:1|1:1|1:1|1:1|3:3,0:0:0:0:
138,140,190749,2,0,P|148:173|147:211,1,70,8|0,1:1|1:1,0:0:0:0:
95,296,191094,5,0,3:3:0:0:
256,241,191438,1,8,1:1:0:0:
256,241,191525,1,0,0:0:0:0:
256,241,191611,2,0,P|276:240|310:249,4,35,0|0|0|0|0,1:1|1:1|1:1|1:1|3:3,0:0:0:0:
192,315,192128,1,8,1:1:0:0:
95,296,192300,1,0,1:1:0:0:
95,296,192386,1,0,1:1:0:0:
95,296,192473,2,0,P|66:276|49:246,1,70,0|0,3:3|1:1,0:0:0:0:
128,145,192818,5,8,1:1:0:0:
125,164,192904,1,0,0:0:0:0:
114,179,192990,1,0,1:1:0:0:
9,161,193162,5,8,1:1:0:0:
14,127,193248,1,8,1:1:0:0:
34,99,193334,1,0,3:3:0:0:
142,132,193507,2,0,P|133:179|108:210,1,70,8|0,1:1|1:1,0:0:0:0:
15,111,193853,5,0,3:3:0:0:
212,255,194197,1,8,1:1:0:0:
212,255,194284,1,0,0:0:0:0:
212,255,194370,2,0,L|220:309,4,35,0|0|0|0|0,1:1|1:1|1:1|1:1|3:3,0:0:0:0:
254,162,194887,1,8,1:1:0:0:
349,213,195059,1,0,1:1:0:0:
349,213,195145,1,0,1:1:0:0:
349,213,195232,2,0,L|365:311,1,70,0|0,3:3|1:1,0:0:0:0:
443,354,195577,5,8,1:1:0:0:
458,343,195663,1,0,1:1:0:0:
469,325,195749,2,0,P|474:302|471:268,4,35,0|0|0|0|0,1:1|1:1|1:1|1:1|3:3,0:0:0:0:
360,282,196266,2,0,P|360:249|349:213,1,70,8|0,1:1|1:1,0:0:0:0:
289,126,196611,5,0,3:3:0:0:
206,274,196955,1,8,1:1:0:0:
206,274,197042,1,0,0:0:0:0:
206,274,197128,2,0,P|207:293|219:326,4,35,0|0|0|0|0,1:1|1:1|1:1|1:1|3:3,0:0:0:0:
216,181,197645,1,8,1:1:0:0:
149,118,197817,1,0,1:1:0:0:
149,118,197903,1,0,1:1:0:0:
149,118,197990,2,0,P|123:108|55:132,1,70,0|0,3:3|1:1,0:0:0:0:
84,239,198335,5,8,1:1:0:0:
102,223,198421,1,0,1:1:0:0:
110,200,198507,1,0,1:1:0:0:
0,117,198680,5,8,1:1:0:0:
7,151,198766,1,8,1:1:0:0:
30,180,198852,1,0,3:3:0:0:
149,118,199024,2,0,P|133:72|103:45,1,70,8|0,1:1|1:1,0:0:0:0:
1,108,199370,5,0,3:3:0:0:
203,206,199714,1,8,1:1:0:0:
203,206,199801,1,0,0:0:0:0:
203,206,199887,2,0,P|207:224|195:260,4,35,0|0|0|0|0,1:1|1:1|1:1|1:1|3:3,0:0:0:0:
149,118,200404,1,8,1:1:0:0:
262,120,200576,1,0,1:1:0:0:
262,120,200662,1,0,1:1:0:0:
262,120,200749,2,0,P|286:142|307:197,1,70,0|0,3:3|1:1,0:0:0:0:
375,253,201094,5,8,1:1:0:0:
371,272,201180,1,0,1:1:0:0:
368,291,201266,2,0,L|361:351,4,35,0|0|0|0|0,1:1|1:1|1:1|1:1|3:3,0:0:0:0:
466,240,201783,2,0,L|454:170,1,70,8|0,1:1|1:1,0:0:0:0:
434,72,202128,5,0,3:3:0:0:
368,291,202473,1,8,1:1:0:0:
368,291,202560,1,0,0:0:0:0:
368,291,202645,2,0,L|361:351,4,35,0|0|0|0|0,1:1|1:1|1:1|1:1|3:3,0:0:0:0:
325,203,203162,1,8,1:1:0:0:
239,199,203334,1,0,1:1:0:0:
239,199,203420,1,0,1:1:0:0:
239,199,203507,2,0,P|213:208|176:269,1,70,0|0,3:3|1:1,0:0:0:0:
130,330,203852,5,8,1:1:0:0:
113,320,203938,1,0,1:1:0:0:
103,304,204024,1,0,1:1:0:0:
21,355,204197,5,8,1:1:0:0:
1,322,204283,1,8,1:1:0:0:
0,283,204369,1,0,3:3:0:0:
91,227,204541,2,0,P|103:259|103:294,1,70,8|0,1:1|1:1,0:0:0:0:
0,283,204886,5,2,3:2:0:0:
54,120,205231,1,8,1:1:0:0:
54,120,205318,1,0,0:0:0:0:
54,120,205404,2,0,L|62:66,4,35,0|0|0|0|0,1:1|1:1|1:1|1:1|3:3,0:0:0:0:
97,212,205921,1,8,1:1:0:0:
176,147,206093,1,0,1:1:0:0:
176,147,206179,1,0,1:1:0:0:
176,147,206266,2,0,L|192:49,1,70,0|0,3:3|1:1,0:0:0:0:
285,205,206611,5,8,1:1:0:0:
289,224,206697,1,0,1:1:0:0:
292,243,206783,2,0,L|299:303,4,35,0|0|0|0|0,1:1|1:1|1:1|1:1|3:3,0:0:0:0:
394,266,207300,2,0,L|410:364,1,70,8|0,1:1|1:1,0:0:0:0:
491,379,207645,5,0,3:3:0:0:
466,201,207989,1,8,1:1:0:0:
466,201,208076,1,0,0:0:0:0:
466,201,208162,2,0,L|458:156,4,35,0|0|0|0|0,1:1|1:1|1:1|1:1|3:3,0:0:0:0:
394,266,208679,1,8,1:1:0:0:
313,215,208851,1,0,1:1:0:0:
313,215,208937,1,0,1:1:0:0:
313,215,209024,2,0,P|328:192|396:172,1,70,0|0,3:3|1:1,0:0:0:0:
394,266,209369,5,8,1:1:0:0:
396,283,209455,1,0,1:1:0:0:
399,300,209541,1,0,1:1:0:0:
296,323,209714,5,8,1:1:0:0:
301,352,209800,1,8,1:1:0:0:
304,381,209886,1,0,3:3:0:0:
194,314,210059,2,0,L|210:230,2,70,8|0|0,1:1|1:1|3:3,0:0:0:0:
265,153,210749,5,8,1:1:0:0:
265,153,210836,1,0,0:0:0:0:
265,153,210922,2,0,L|273:99,4,35,0|0|0|0|0,1:1|1:1|1:1|1:1|3:3,0:0:0:0:
199,225,211439,1,8,1:1:0:0:
112,202,211611,1,0,1:1:0:0:
112,202,211697,1,0,1:1:0:0:
112,202,211784,2,0,P|85:169|78:112,1,70,0|0,3:3|1:1,0:0:0:0:
15,66,212128,5,8,1:1:0:0:
19,48,212214,1,0,1:1:0:0:
32,30,212300,2,0,P|42:16|60:4,4,35,0|0|0|0|0,1:1|1:1|1:1|1:1|3:3,0:0:0:0:
77,143,212818,2,0,P|88:110|111:84,1,70,8|0,1:1|1:1,0:0:0:0:
215,57,213163,5,0,3:3:0:0:
335,185,213507,1,8,1:1:0:0:
335,185,213594,1,0,0:0:0:0:
335,185,213680,2,0,L|340:224,4,35,0|0|0|0|0,1:1|1:1|1:1|1:1|3:3,0:0:0:0:
399,124,214197,1,8,1:1:0:0:
495,147,214369,1,0,1:1:0:0:
495,147,214455,1,0,1:1:0:0:
495,147,214542,2,0,P|509:170|499:241,1,70,0|0,3:3|1:1,0:0:0:0:
440,307,214887,5,8,1:1:0:0:
421,309,214973,1,0,0:0:0:0:
403,302,215059,1,0,1:1:0:0:
314,229,215231,5,8,1:1:0:0:
280,215,215317,1,8,1:1:0:0:
243,220,215403,1,0,3:3:0:0:
228,322,215576,2,0,P|265:335|308:329,1,70,8|0,1:1|1:1,0:0:0:0:
403,302,215922,5,0,3:3:0:0:
151,263,216266,1,8,1:1:0:0:
151,263,216353,1,0,0:0:0:0:
151,263,216439,2,0,L|138:309,4,35,0|0|0|0|0,1:1|1:1|1:1|1:1|3:3,0:0:0:0:
87,195,216956,1,8,1:1:0:0:
23,258,217128,1,0,1:1:0:0:
23,258,217214,1,0,1:1:0:0:
23,258,217301,2,0,L|39:356,1,70,0|0,3:3|1:1,0:0:0:0:
136,348,217646,5,8,1:1:0:0:
143,330,217732,1,0,1:1:0:0:
150,312,217818,2,0,L|169:254,4,35,0|0|0|0|0,1:1|1:1|1:1|1:1|3:3,0:0:0:0:
254,355,218335,2,0,L|280:256,1,70,8|0,1:1|1:1,0:0:0:0:
296,184,218680,5,0,3:3:0:0:
174,53,219024,1,8,1:1:0:0:
174,53,219111,1,0,0:0:0:0:
174,53,219197,2,0,P|172:73|182:107,4,35,0|0|0|0|0,1:1|1:1|1:1|1:1|3:3,0:0:0:0:
253,4,219714,1,8,1:1:0:0:
346,53,219886,1,0,1:1:0:0:
346,53,219972,1,0,1:1:0:0:
346,53,220059,2,0,P|359:77|345:147,1,70,0|0,3:3|1:1,0:0:0:0:
285,186,220404,5,8,1:1:0:0:
267,182,220490,1,0,1:1:0:0:
250,178,220576,1,0,1:1:0:0:
236,285,220749,5,8,1:1:0:0:
268,277,220835,1,8,1:1:0:0:
299,270,220921,1,0,3:3:0:0:
392,291,221093,2,0,P|376:334|343:354,1,70,8|0,1:1|1:1,0:0:0:0:
299,270,221439,5,0,3:3:0:0:
500,172,221783,1,8,1:1:0:0:
500,172,221870,1,0,0:0:0:0:
500,172,221956,2,0,L|506:121,4,35,0|0|0|0|0,1:1|1:1|1:1|1:1|3:3,0:0:0:0:
412,211,222473,1,8,1:1:0:0:
331,173,222645,1,0,1:1:0:0:
331,173,222731,1,0,1:1:0:0:
331,173,222818,2,0,L|316:85,1,70,0|0,3:3|1:1,0:0:0:0:
233,36,223162,5,8,1:1:0:0:
166,103,223335,1,0,1:1:0:0:
166,103,223421,1,0,1:1:0:0:
166,103,223507,2,0,L|155:161,2,35,0|0|0,1:1|1:1|3:3,0:0:0:0:
115,14,223852,2,0,P|76:41|65:67,1,70,8|0,1:1|1:1,0:0:0:0:
64,188,224197,6,0,P|63:222|78:273,2,70,0|0|8,3:3|3:3|1:1,0:0:0:0:
159,137,224714,1,0,3:3:0:0:
159,137,224800,1,0,3:3:0:0:
159,137,224887,2,0,P|165:104|186:70,2,70,0|0|8,3:3|3:3|1:1,0:0:0:0:
233,218,225404,1,0,3:3:0:0:
233,218,225490,1,0,3:3:0:0:
233,218,225576,1,0,3:3:0:0:
439,216,225921,5,8,1:1:0:0:
462,304,226093,1,8,1:1:0:0:
384,348,226266,1,0,3:3:0:0:
344,139,226611,1,0,3:3:0:0:
239,337,226955,5,2,3:2:0:0:
68,271,227301,1,10,1:1:0:0:
68,271,227387,1,0,1:1:0:0:
68,271,227473,2,0,L|60:217,4,35,0|0|0|0|0,1:1|1:1|1:1|1:1|3:3,0:0:0:0:
133,341,227989,1,8,1:1:0:0:
239,327,228162,1,0,1:1:0:0:
239,327,228249,1,0,1:1:0:0:
239,327,228335,2,0,P|271:304|291:264,1,70,0|0,3:3|1:1,0:0:0:0:
372,204,228680,5,8,1:1:0:0:
360,191,228766,1,0,1:1:0:0:
350,176,228852,1,0,1:1:0:0:
345,159,228938,1,0,1:1:0:0:
343,142,229024,2,0,L|348:90,2,35,8|8|0,1:1|1:1|3:3,0:0:0:0:
462,59,229369,2,0,L|446:157,1,70,8|0,1:1|1:1,0:0:0:0:
376,211,229713,5,0,3:3:0:0:
239,107,230059,1,8,1:1:0:0:
239,107,230145,1,0,0:0:0:0:
239,107,230231,2,0,L|244:54,4,35,0|0|0|0|0,1:1|1:1|1:1|1:1|3:3,0:0:0:0:
165,175,230749,1,8,1:1:0:0:
73,184,230921,1,0,1:1:0:0:
73,184,231007,1,0,1:1:0:0:
73,184,231093,2,0,P|40:171|18:144,1,70,0|0,3:3|1:1,0:0:0:0:
104,65,231438,5,8,1:1:0:0:
121,73,231524,1,0,1:1:0:0:
133,88,231611,1,0,1:1:0:0:
238,79,231783,5,10,1:1:0:0:
236,113,231869,1,8,1:1:0:0:
218,142,231955,1,0,3:3:0:0:
239,251,232128,2,0,P|271:239|297:215,1,70,8|0,1:1|1:1,0:0:0:0:
218,142,232473,5,2,3:2:0:0:
395,187,232817,1,10,1:1:0:0:
395,187,232904,1,0,1:1:0:0:
395,187,232990,2,0,P|401:167|403:133,4,35,0|0|0|0|0,1:1|1:1|1:1|1:1|3:3,0:0:0:0:
297,215,233507,1,8,1:1:0:0:
227,150,233679,1,0,1:1:0:0:
227,150,233765,1,0,1:1:0:0:
227,150,233852,6,0,P|226:103|247:64,1,70,0|0,3:3|1:1,0:0:0:0:
397,111,234197,1,8,1:1:0:0:
399,128,234283,1,0,1:1:0:0:
399,145,234369,1,0,1:1:0:0:
395,163,234455,1,0,1:1:0:0:
388,179,234542,2,0,P|373:193|359:221,2,35,8|8|0,1:1|1:1|3:3,0:0:0:0:
493,239,234886,2,0,P|477:270|453:295,1,70,8|0,1:1|1:1,0:0:0:0:
338,311,235231,5,0,3:3:0:0:
227,150,235575,1,8,1:1:0:0:
227,150,235662,1,0,0:0:0:0:
227,150,235749,2,0,L|235:96,4,35,0|0|0|0|0,1:1|1:1|1:1|1:1|3:3,0:0:0:0:
136,177,236265,1,8,1:1:0:0:
86,264,236438,1,0,1:1:0:0:
86,264,236525,1,0,1:1:0:0:
86,264,236610,6,0,L|68:353,1,70,2|0,3:2|1:1,0:0:0:0:
174,354,236955,2,0,L|187:285,1,70,8|0,1:1|1:1,0:0:0:0:
298,222,237300,5,10,1:1:0:0:
303,256,237386,1,8,1:1:0:0:
323,284,237473,1,0,3:3:0:0:
426,247,237645,2,0,P|417:200|392:169,1,70,10|0,1:1|1:1,0:0:0:0:
303,256,237990,5,2,3:2:0:0:
370,73,238334,1,10,1:1:0:0:
370,73,238421,1,0,1:1:0:0:
370,73,238507,2,0,L|378:19,4,35,0|0|0|0|0,1:1|1:1|1:1|1:1|3:3,0:0:0:0:
270,118,239024,1,8,1:1:0:0:
184,72,239196,1,0,1:1:0:0:
184,72,239282,1,0,1:1:0:0:
184,72,239369,2,0,L|168:-26,1,70,0|0,1:1|1:1,0:0:0:0:
270,118,239714,5,8,1:1:0:0:
268,135,239800,1,0,1:1:0:0:
265,152,239886,1,0,1:1:0:0:
262,169,239972,1,0,1:1:0:0:
259,187,240059,2,0,L|255:224,2,35,8|8|0,1:1|1:1|3:3,0:0:0:0:
373,132,240403,2,0,L|384:63,1,70,8|0,1:1|1:1,0:0:0:0:
473,10,240748,5,0,3:3:0:0:
449,201,241094,1,8,1:1:0:0:
449,201,241180,1,0,0:0:0:0:
449,201,241266,2,0,P|448:220|436:253,4,35,0|0|0|0|0,1:1|1:1|1:1|1:1|3:3,0:0:0:0:
373,132,241782,1,8,1:1:0:0:
284,175,241955,1,0,1:1:0:0:
284,175,242042,1,0,1:1:0:0:
284,175,242128,2,0,P|270:199|283:270,1,70,0|0,3:3|1:1,0:0:0:0:
366,282,242472,5,8,1:1:0:0:
348,298,242558,1,0,1:1:0:0:
340,321,242644,1,0,1:1:0:0:
426,383,242818,5,10,1:1:0:0:
453,359,242904,1,8,1:1:0:0:
465,324,242990,1,0,3:3:0:0:
367,270,243162,2,0,P|335:296|327:332,1,70,10|0,1:1|1:1,0:0:0:0:
465,324,243507,5,2,3:2:0:0:
444,123,243852,1,10,1:1:0:0:
444,123,243939,1,0,1:1:0:0:
444,123,244025,2,0,L|436:69,4,35,0|0|0|0|0,1:1|1:1|1:1|1:1|3:3,0:0:0:0:
360,182,244542,1,8,1:1:0:0:
269,164,244714,1,0,1:1:0:0:
269,164,244800,1,0,1:1:0:0:
269,164,244887,2,0,P|237:141|217:101,1,70,0|0,3:3|1:1,0:0:0:0:
162,28,245231,5,8,1:1:0:0:
147,37,245318,1,0,1:1:0:0:
134,49,245404,1,0,1:1:0:0:
125,64,245490,1,0,1:1:0:0:
118,80,245576,2,0,L|109:131,2,35,8|8|0,1:1|1:1|3:3,0:0:0:0:
221,115,245921,2,0,L|209:184,1,70,8|0,1:1|1:1,0:0:0:0:
286,255,246266,5,0,3:3:0:0:
318,68,246610,1,8,1:1:0:0:
318,68,246697,1,0,0:0:0:0:
318,68,246783,2,0,L|323:15,4,35,0|0|0|0|0,1:1|1:1|1:1|1:1|3:3,0:0:0:0:
402,122,247300,1,8,1:1:0:0:
486,64,247472,1,0,1:1:0:0:
486,64,247558,1,0,1:1:0:0:
486,64,247645,2,0,P|503:94|503:129,1,70,2|0,3:2|1:1,0:0:0:0:
410,212,247990,2,0,P|374:211|344:194,1,70,8|0,1:1|1:1,0:0:0:0:
257,99,248335,5,10,1:1:0:0:
226,82,248421,1,8,1:1:0:0:
192,82,248507,1,0,3:3:0:0:
119,155,248680,2,0,P|119:189|136:219,1,70,10|0,1:1|1:1,0:0:0:0:
255,220,249025,5,0,3:3:0:0:
94,61,249369,1,10,1:1:0:0:
94,61,249456,1,0,1:1:0:0:
94,61,249542,2,0,L|80:9,4,35,0|0|0|0|0,1:1|1:1|1:1|1:1|3:3,0:0:0:0:
119,148,250059,1,8,1:1:0:0:
60,222,250231,1,0,1:1:0:0:
60,222,250317,1,0,1:1:0:0:
60,222,250404,2,0,L|78:289,1,70,0|0,3:3|1:1,0:0:0:0:
151,358,250750,5,8,1:1:0:0:
163,345,250836,1,0,1:1:0:0:
173,330,250922,1,0,1:1:0:0:
178,313,251008,1,0,1:1:0:0:
180,296,251094,2,0,L|175:244,2,35,8|8|0,1:1|1:1|3:3,0:0:0:0:
286,347,251438,2,0,P|298:315|297:277,1,70,8|0,1:1|1:1,0:0:0:0:
271,174,251783,5,0,3:3:0:0:
426,58,252127,1,8,1:1:0:0:
426,58,252214,1,0,0:0:0:0:
426,58,252300,2,0,L|431:5,4,35,0|0|0|0|0,1:1|1:1|1:1|1:1|3:3,0:0:0:0:
355,123,252817,1,8,1:1:0:0:
434,196,252989,1,0,1:1:0:0:
434,196,253075,1,0,1:1:0:0:
434,196,253162,2,0,L|444:274,1,70,0|0,3:3|1:1,0:0:0:0:
393,349,253507,5,8,1:1:0:0:
376,341,253593,1,0,1:1:0:0:
364,326,253679,1,0,1:1:0:0:
306,215,253852,5,10,1:1:0:0:
285,189,253938,1,8,1:1:0:0:
253,176,254024,1,0,3:3:0:0:
191,262,254196,2,0,P|213:287|245:303,1,70,10|0,1:1|1:1,0:0:0:0:
285,189,254542,5,2,3:2:0:0:
153,60,254887,1,10,1:1:0:0:
153,60,254974,1,0,1:1:0:0:
153,60,255060,2,0,P|147:40|145:6,4,35,0|0|0|0|0,1:1|1:1|1:1|1:1|3:3,0:0:0:0:
242,97,255577,1,8,1:1:0:0:
326,46,255749,1,0,1:1:0:0:
326,46,255835,1,0,1:1:0:0:
326,46,255922,6,0,L|414:61,1,70,0|0,3:3|1:1,0:0:0:0:
461,149,256266,5,8,1:1:0:0:
443,151,256352,1,0,1:1:0:0:
426,154,256438,1,0,1:1:0:0:
409,157,256524,1,0,1:1:0:0:
391,160,256611,2,0,L|342:167,2,35,8|8|0,1:1|1:1|3:3,0:0:0:0:
461,242,256956,2,0,P|462:279|436:330,1,70,8|0,1:1|1:1,0:0:0:0:
345,341,257301,5,0,3:3:0:0:
259,168,257645,1,8,1:1:0:0:
259,168,257732,1,0,0:0:0:0:
259,168,257818,2,0,P|257:150|267:114,4,35,0|0|0|0|0,1:1|1:1|1:1|1:1|3:3,0:0:0:0:
214,247,258335,1,8,1:1:0:0:
130,282,258507,1,0,1:1:0:0:
130,282,258593,1,0,1:1:0:0:
130,282,258680,6,0,L|41:264,1,70,2|0,3:2|1:1,0:0:0:0:
57,166,259024,2,0,L|126:153,1,70,8|0,1:1|1:1,0:0:0:0:
263,175,259369,5,10,1:1:0:0:
287,170,259455,1,8,1:1:0:0:
311,165,259541,1,0,3:3:0:0:
325,78,259714,2,0,L|256:64,1,70,10|0,1:1|1:1,0:0:0:0:
152,42,260060,5,2,3:2:0:0:
48,168,260404,1,10,1:1:0:0:
48,168,260491,1,0,1:1:0:0:
48,168,260577,2,0,L|40:222,4,35,0|0|0|0|0,1:1|1:1|1:1|1:1|3:3,0:0:0:0:
137,133,261094,1,8,1:1:0:0:
231,196,261266,1,0,1:1:0:0:
231,196,261352,1,0,1:1:0:0:
231,196,261439,2,0,P|241:232|227:289,1,70,0|0,3:3|1:1,0:0:0:0:
136,345,261783,5,8,1:1:0:0:
129,328,261869,1,0,1:1:0:0:
126,311,261955,1,0,1:1:0:0:
126,294,262041,1,0,1:1:0:0:
129,276,262128,2,0,L|149:223,2,35,8|8|0,1:1|1:1|3:3,0:0:0:0:
228,365,262473,2,0,P|259:349|305:344,1,70,8|0,1:1|1:1,0:0:0:0:
387,360,262818,5,0,3:3:0:0:
496,194,263162,1,8,1:1:0:0:
496,194,263249,1,0,0:0:0:0:
496,194,263335,2,0,P|507:210|516:237,4,35,0|0|0|0|0,1:1|1:1|1:1|1:1|3:3,0:0:0:0:
400,152,263852,1,8,1:1:0:0:
312,186,264024,1,0,1:1:0:0:
312,186,264110,1,0,1:1:0:0:
312,186,264197,2,0,P|293:206|273:260,1,70,0|0,3:3|1:1,0:0:0:0:
181,301,264542,5,8,1:1:0:0:
177,283,264628,1,0,1:1:0:0:
173,266,264714,1,0,1:1:0:0:
92,331,264886,5,10,1:1:0:0:
84,297,264972,1,8,1:1:0:0:
77,266,265058,1,0,3:3:0:0:
0,206,265231,2,0,L|19:121,1,70,10|0,1:1|1:1,0:0:0:0:
51,41,265577,5,2,3:2:0:0:
229,131,265921,1,10,1:1:0:0:
229,131,266007,1,0,1:1:0:0:
229,131,266093,2,0,L|237:185,4,35,0|0|0|0|0,1:1|1:1|1:1|1:1|3:3,0:0:0:0:
295,65,266612,1,8,1:1:0:0:
386,110,266783,1,0,1:1:0:0:
386,110,266869,1,0,1:1:0:0:
386,110,266955,2,0,P|358:138|315:151,1,70,0|0,3:3|1:1,0:0:0:0:
230,178,267300,5,8,1:1:0:0:
213,172,267386,1,0,1:1:0:0:
198,163,267473,1,0,1:1:0:0:
186,150,267559,1,0,1:1:0:0:
176,136,267645,2,0,L|165:85,2,35,8|8|0,1:1|1:1|3:3,0:0:0:0:
98,229,267991,2,0,L|110:298,1,70,8|0,1:1|1:1,0:0:0:0:
228,364,268335,6,0,P|261:361|311:340,2,70,0|0|8,3:3|3:3|1:1,0:0:0:0:
118,306,268852,1,0,3:3:0:0:
118,306,268938,1,0,3:3:0:0:
118,306,269024,2,0,P|84:308|34:329,2,70,0|0|8,3:3|3:3|1:1,0:0:0:0:
228,364,269542,1,0,3:3:0:0:
228,364,269628,1,0,3:3:0:0:
228,364,269714,1,0,3:3:0:0:
227,165,270059,5,8,1:1:0:0:
325,161,270231,1,8,1:1:0:0:
374,240,270404,1,0,3:3:0:0:
228,364,270749,1,0,3:3:0:0:
325,161,271093,6,0,B|400:115|472:158|508:247|506:309|339:447|373:234|213:376|213:376|234:201|28:287|32:63|191:-47|278:8|346:94|294:169|215:153,2,1120,2|0|0,2:2|0:0|0:0,0:0:0:0:
127,351,286266,6,0,B|71:252|25:360|-37:261|-7:198|49:188|85:207|85:207|100:177|163:146|223:269|111:248|129:336,1,503.999984619141
282,219,291611,6,0,B|304:209|356:210|391:256|327:376|315:249|227:353|227:353|205:236|112:313|150:168|202:161|253:177|252:215|252:215,1,518,2|6,2:2|2:2,0:0:0:0:
