osu file format v14

[General]
AudioFilename: audio.mp3
AudioLeadIn: 0
PreviewTime: 112918
Countdown: 0
SampleSet: Drum
StackLeniency: 0.2
Mode: 0
LetterboxInBreaks: 0
WidescreenStoryboard: 0

[Editor]
Bookmarks: 56448,67742,112918,158095,201859,203271,248447,271036,292212,293624,338800,383977,429506
DistanceSpacing: 0.9
BeatDivisor: 4
GridSize: 4
TimelineZoom: 2.6

[Metadata]
Title:Mr. Kill Myself
TitleUnicode:Mr. Kill Myself
Artist:Sewerslvt
ArtistUnicode:Sewerslvt
Creator:Matrix
Version:Darkness
Source:
Tags:dnb breakcore draining love story drum and bass instrumental sewerslut thekushvanman
BeatmapID:2309955
BeatmapSetID:1105241

[Difficulty]
HPDrainRate:5
CircleSize:5
OverallDifficulty:9
ApproachRate:9
SliderMultiplier:1.8
SliderTickRate:1

[Events]
//Background and Video events
0,0,"I think we can go to the moon.jpg",0,0
//Break Periods
//Storyboard Layer 0 (Background)
//Storyboard Layer 1 (Fail)
//Storyboard Layer 2 (Pass)
//Storyboard Layer 3 (Foreground)
//Storyboard Layer 4 (Overlay)
//Storyboard Sound Samples

[TimingPoints]
56448,352.941176470588,4,2,1,70,1,0
67742,-100,4,3,1,70,0,0
111330,-133.333333333333,4,3,2,70,0,0
111506,-100,4,3,2,70,0,0
158095,-100,4,2,2,70,0,0
203271,-90.9090909090909,4,3,2,85,0,1
248095,-100,4,2,1,85,0,0
248447,-133.333333333333,4,2,1,70,0,0
253565,-133.333333333333,4,2,1,20,0,0
253742,-133.333333333333,4,2,1,70,0,0
259212,-133.333333333333,4,2,1,20,0,0
259389,-133.333333333333,4,2,1,70,0,0
264859,-133.333333333333,4,2,1,20,0,0
265036,-133.333333333333,4,2,1,70,0,0
270506,-133.333333333333,4,2,1,20,0,0
270683,-133.333333333333,4,2,1,70,0,0
271036,-100,4,3,4,70,0,0
293624,-90.9090909090909,4,3,3,80,0,0
338800,-83.3333333333333,4,3,3,85,0,1
379742,-100,4,2,1,85,0,1
380359,-111.111111111111,4,2,1,85,0,1
380800,-117.647058823529,4,2,1,85,0,1
381153,-133.333333333333,4,2,1,85,0,1
383624,-153.846153846154,4,2,1,85,0,1
383977,-153.846153846154,4,2,1,60,0,0
389095,-153.846153846154,4,2,1,20,0,0
389271,-153.846153846154,4,2,1,60,0,0
394742,-153.846153846154,4,2,1,20,0,0
394918,-153.846153846154,4,2,1,60,0,0
399153,-144.927536231884,4,2,1,60,0,0
400389,-144.927536231884,4,2,1,20,0,0
400565,-144.927536231884,4,2,1,60,0,0
404800,-153.846153846154,4,2,1,60,0,0
406036,-153.846153846154,4,2,1,20,0,0
406212,-153.846153846154,4,2,1,60,0,0
411683,-153.846153846154,4,2,1,20,0,0
411859,-153.846153846154,4,2,1,60,0,0
417330,-153.846153846154,4,2,1,20,0,0
417506,-153.846153846154,4,2,1,60,0,0
422977,-153.846153846154,4,2,1,20,0,0
423153,-153.846153846154,4,2,1,60,0,0
428624,-153.846153846154,4,2,1,20,0,0
428800,-153.846153846154,4,2,1,60,0,0

[Colours]
Combo1 : 220,1,1
Combo2 : 207,33,211
Combo3 : 23,23,255
Combo4 : 143,78,188

[HitObjects]
28,247,56448,5,4,0:0:0:0:
28,159,56624,1,0,0:0:0:0:
28,71,56800,1,8,0:0:0:0:
40,63,56889,1,0,0:0:0:0:
52,55,56977,1,0,0:0:0:0:
64,47,57065,1,0,0:0:0:0:
76,39,57153,1,0,0:0:0:0:
88,43,57242,1,0,0:0:0:0:
100,47,57330,1,8,0:0:0:0:
144,123,57506,5,0,0:0:0:0:
148,135,57595,1,0,0:0:0:0:
152,147,57683,2,0,B|201:122|201:122|220:184,1,90,8|0,0:0|0:0,0:0:0:0:
228,208,57948,1,0,0:0:0:0:
232,220,58036,1,0,0:0:0:0:
236,232,58124,1,0,0:0:0:0:
240,244,58212,2,0,B|250:277|250:277|299:252,1,90,8|0,0:0|0:0,0:0:0:0:
344,237,58477,1,0,0:0:0:0:
344,237,58565,2,0,L|356:339,1,90,8|0,0:0|0:0,0:0:0:0:
365,375,58830,2,0,L|401:348,1,45,0|0,0:0|0:0,0:0:0:0:
439,317,59006,2,0,L|391:296,1,45,0|8,0:0|0:0,0:0:0:0:
372,140,59271,6,0,L|486:168,1,90,4|0,0:0|0:0,0:0:0:0:
372,64,59624,2,0,L|258:36,1,90,8|0,0:0|0:0,0:0:0:0:
248,36,59889,1,0,0:0:0:0:
240,48,59977,1,8,0:0:0:0:
232,60,60065,1,0,0:0:0:0:
236,72,60153,1,0,0:0:0:0:
280,152,60330,1,0,0:0:0:0:
288,164,60418,1,0,0:0:0:0:
296,176,60506,1,8,0:0:0:0:
352,244,60683,5,0,0:0:0:0:
360,252,60771,1,0,0:0:0:0:
372,248,60859,1,0,0:0:0:0:
384,244,60948,1,0,0:0:0:0:
396,240,61036,2,0,B|448:220|448:220|456:284,1,90,8|0,0:0|0:0,0:0:0:0:
488,280,61300,2,0,L|496:344,1,45,0|8,0:0|0:0,0:0:0:0:
408,356,61565,1,0,0:0:0:0:
396,352,61653,1,0,0:0:0:0:
384,348,61742,1,0,0:0:0:0:
300,320,61918,1,8,0:0:0:0:
216,352,62095,6,0,B|164:376|164:376|156:328,1,90,4|0,0:0|0:0,0:0:0:0:
69,325,62448,2,0,L|56:236,1,90,8|0,0:0|0:0,0:0:0:0:
60,224,62712,1,0,0:0:0:0:
64,212,62800,1,8,0:0:0:0:
68,200,62889,1,0,0:0:0:0:
72,188,62977,1,0,0:0:0:0:
160,176,63153,1,0,0:0:0:0:
164,164,63241,1,0,0:0:0:0:
168,152,63330,1,8,0:0:0:0:
256,132,63506,6,0,B|272:184|272:184|253:216,1,90,0|0,0:0|0:0,0:0:0:0:
214,239,63771,1,0,0:0:0:0:
214,239,63859,2,0,L|247:300,1,45,8|0,0:0|0:0,0:0:0:0:
278,299,64036,2,0,L|244:360,1,45,0|0,0:0|0:0,0:0:0:0:
240,366,64212,1,8,0:0:0:0:
344,344,64389,1,0,0:0:0:0:
356,340,64477,1,0,0:0:0:0:
368,344,64565,1,0,0:0:0:0:
380,340,64653,1,0,0:0:0:0:
392,344,64742,1,8,0:0:0:0:
480,368,64918,6,0,B|512:336|512:336|476:292,1,90,4|0,0:0|0:0,0:0:0:0:
363,181,65271,2,0,B|331:213|331:213|360:248,1,90,8|0,0:0|0:0,0:0:0:0:
368,256,65536,1,0,0:0:0:0:
376,264,65624,1,0,0:0:0:0:
264,212,65800,2,0,L|152:212,1,90,8|0,0:0|0:0,0:0:0:0:
148,180,66065,1,0,0:0:0:0:
148,180,66153,2,0,B|176:214|176:214|144:246,1,90,8|0,0:0|0:0,0:0:0:0:
56,32,67742,6,0,B|32:24|32:24|48:112,1,90,4|0,0:0|0:0,0:0:0:0:
112,120,68006,1,0,0:0:0:0:
112,120,68095,2,0,L|92:216,1,90,8|0,0:0|0:0,0:0:0:0:
80,276,68359,1,0,0:0:0:0:
80,276,68448,1,2,0:0:0:0:
36,156,68624,1,6,0:0:0:0:
128,48,68800,5,8,0:0:0:0:
132,36,68889,1,0,0:0:0:0:
136,24,68977,2,0,B|140:8|140:8|180:28|180:28|196:80,1,90,2|4,0:0|0:0,0:0:0:0:
192,68,69242,1,0,0:0:0:0:
196,80,69330,1,0,0:0:0:0:
200,92,69418,1,0,0:0:0:0:
204,104,69506,1,10,0:0:0:0:
192,216,69683,1,2,0:0:0:0:
204,212,69771,1,0,0:0:0:0:
216,208,69859,1,0,0:0:0:0:
228,204,69947,1,0,0:0:0:0:
240,200,70036,6,0,B|280:236|280:236|312:212,1,90,6|8,0:0|0:0,0:0:0:0:
380,144,70389,1,0,0:0:0:0:
384,156,70477,1,0,0:0:0:0:
388,168,70565,2,0,L|488:184,1,90,4|0,0:0|0:0,0:0:0:0:
308,214,70918,2,0,L|208:197,1,90,8|0,0:0|0:0,0:0:0:0:
120,184,71271,1,2,0:0:0:0:
24,168,71448,1,6,0:0:0:0:
44,256,71624,1,8,0:0:0:0:
56,258,71712,1,0,0:0:0:0:
68,261,71800,2,0,L|122:271,1,45,2|0,0:0|0:0,0:0:0:0:
112,320,71977,6,0,B|169:330|169:330|197:293,1,90,4|0,0:0|0:0,0:0:0:0:
218,262,72242,1,0,0:0:0:0:
218,262,72330,2,0,B|237:236|237:236|294:245,1,90,10|2,0:0|0:0,0:0:0:0:
384,260,72683,2,0,B|412:264|412:264|434:245,2,45,0|0|6,0:0|0:0|0:0,0:0:0:0:
368,112,73036,1,8,0:0:0:0:
372,124,73124,1,0,0:0:0:0:
376,136,73212,1,0,0:0:0:0:
380,148,73300,1,0,0:0:0:0:
384,160,73389,6,0,B|440:148|440:148|456:112,1,90,4|0,0:0|0:0,0:0:0:0:
344,40,73742,2,0,B|288:52|288:52|272:88,1,90,8|0,0:0|0:0,0:0:0:0:
240,176,74095,1,2,0:0:0:0:
192,88,74271,1,6,0:0:0:0:
160,184,74448,1,10,0:0:0:0:
156,196,74536,1,0,0:0:0:0:
152,208,74624,1,2,0:0:0:0:
148,220,74712,1,0,0:0:0:0:
144,232,74800,6,0,B|132:264|132:264|60:280,1,90,4|0,0:0|0:0,0:0:0:0:
48,288,75065,1,0,0:0:0:0:
48,288,75153,1,10,0:0:0:0:
124,352,75330,1,2,0:0:0:0:
220,324,75506,1,0,0:0:0:0:
232,320,75595,1,0,0:0:0:0:
244,316,75683,1,6,0:0:0:0:
340,288,75859,2,0,L|430:288,1,90,8|0,0:0|0:0,0:0:0:0:
344,369,76212,6,0,B|324:341|324:341|344:273,1,90,4|0,0:0|0:0,0:0:0:0:
448,148,76565,2,0,B|468:176|468:176|448:244,1,90,8|0,0:0|0:0,0:0:0:0:
388,208,76830,1,0,0:0:0:0:
388,208,76918,2,0,L|288:180,1,90,2|6,0:0|0:0,0:0:0:0:
204,156,77271,1,10,0:0:0:0:
200,144,77359,1,0,0:0:0:0:
196,132,77448,1,2,0:0:0:0:
168,36,77624,6,0,L|216:48,1,45,4|0,0:0|0:0,0:0:0:0:
261,28,77800,2,0,B|269:80|269:80|332:98,1,90,0|10,0:0|0:0,0:0:0:0:
400,120,78153,1,2,0:0:0:0:
412,124,78242,1,0,0:0:0:0:
424,128,78330,2,0,L|436:196,1,45,0|0,0:0|0:0,0:0:0:0:
472,222,78506,2,0,B|500:190|500:190|492:144,1,90,6|8,0:0|0:0,0:0:0:0:
487,110,78771,1,0,0:0:0:0:
485,98,78859,1,0,0:0:0:0:
483,86,78948,1,0,0:0:0:0:
500,59,79036,6,0,B|492:31|492:31|400:19,1,90,4|0,0:0|0:0,0:0:0:0:
377,180,79389,2,0,B|385:208|385:208|477:220,1,90,8|0,0:0|0:0,0:0:0:0:
472,222,79653,1,0,0:0:0:0:
472,222,79742,1,2,0:0:0:0:
491,318,79918,1,6,0:0:0:0:
392,308,80095,1,8,0:0:0:0:
378,306,80183,1,0,0:0:0:0:
364,304,80271,1,2,0:0:0:0:
268,328,80448,6,0,B|244:296|244:296|268:232,1,90,4|0,0:0|0:0,0:0:0:0:
276,220,80712,1,0,0:0:0:0:
276,220,80800,1,10,0:0:0:0:
208,140,80977,1,2,0:0:0:0:
204,152,81065,1,0,0:0:0:0:
200,164,81153,2,0,L|180:216,1,45,0|0,0:0|0:0,0:0:0:0:
135,203,81330,2,0,L|144:265,1,45,4|0,0:0|0:0,0:0:0:0:
148,296,81506,1,10,0:0:0:0:
144,308,81595,1,0,0:0:0:0:
140,320,81683,1,0,0:0:0:0:
136,332,81771,1,0,0:0:0:0:
112,348,81859,6,0,L|20:356,1,90,4|0,0:0|0:0,0:0:0:0:
232,288,82212,2,0,L|324:280,1,90,8|0,0:0|0:0,0:0:0:0:
112,348,82565,1,2,0:0:0:0:
232,288,82742,1,6,0:0:0:0:
108,340,82918,1,10,0:0:0:0:
104,332,83006,1,0,0:0:0:0:
100,324,83095,2,0,L|92:234,1,90,2|4,0:0|0:0,0:0:0:0:
140,220,83359,2,0,L|132:136,1,45,0|0,0:0|0:0,0:0:0:0:
134,144,83536,1,0,0:0:0:0:
134,144,83624,1,10,0:0:0:0:
72,48,83800,5,2,0:0:0:0:
84,44,83889,1,0,0:0:0:0:
100,48,83977,1,0,0:0:0:0:
112,44,84066,1,0,0:0:0:0:
128,48,84153,1,6,0:0:0:0:
220,24,84330,1,10,0:0:0:0:
224,36,84418,1,0,0:0:0:0:
228,48,84506,1,0,0:0:0:0:
232,60,84595,1,0,0:0:0:0:
236,72,84683,6,0,B|248:100|248:100|332:112,1,90,4|0,0:0|0:0,0:0:0:0:
476,72,85036,2,0,B|464:44|464:44|380:32,1,90,8|0,0:0|0:0,0:0:0:0:
284,24,85389,1,2,0:0:0:0:
307,107,85565,1,6,0:0:0:0:
330,190,85742,1,10,0:0:0:0:
340,196,85830,1,0,0:0:0:0:
351,202,85918,2,0,L|346:264,1,45,2|0,0:0|0:0,0:0:0:0:
340,296,86095,5,4,0:0:0:0:
352,304,86183,1,0,0:0:0:0:
364,312,86271,1,0,0:0:0:0:
376,320,86359,1,0,0:0:0:0:
388,328,86448,2,0,B|416:348|416:348|428:269,1,90,10|2,0:0|0:0,0:0:0:0:
440,196,86800,1,2,0:0:0:0:
442,181,86889,1,0,0:0:0:0:
444,166,86977,1,6,0:0:0:0:
456,76,87153,1,10,0:0:0:0:
440,68,87242,1,0,0:0:0:0:
424,60,87330,1,0,0:0:0:0:
436,48,87418,1,0,0:0:0:0:
448,36,87506,6,0,L|328:52,1,90,4|0,0:0|0:0,0:0:0:0:
216,152,87859,2,0,L|305:140,1,90,8|0,0:0|0:0,0:0:0:0:
358,47,88212,1,2,0:0:0:0:
305,140,88389,6,0,B|296:200|296:200|256:180,1,90,6|8,0:0|0:0,0:0:0:0:
216,152,88653,1,0,0:0:0:0:
216,152,88742,2,0,B|189:138|189:138|180:196,1,90,2|6,0:0|0:0,0:0:0:0:
178,209,89006,1,0,0:0:0:0:
176,221,89095,1,0,0:0:0:0:
174,233,89183,1,0,0:0:0:0:
172,245,89271,1,8,0:0:0:0:
108,320,89448,1,0,0:0:0:0:
104,308,89536,1,0,0:0:0:0:
100,296,89624,2,0,B|78:287|78:287|42:316,1,45,0|0,0:0|0:0,0:0:0:0:
24,332,89800,2,0,L|40:240,1,90,6|8,0:0|0:0,0:0:0:0:
48,192,90065,2,0,B|52:168|52:168|8:144,2,45,0|0|0,0:0|0:0|0:0,0:0:0:0:
88,116,90330,6,0,B|47:97|47:97|36:48,1,90,4|0,0:0|0:0,0:0:0:0:
82,20,90595,1,0,0:0:0:0:
82,20,90683,2,0,B|123:39|123:39|134:88,1,90,8|0,0:0|0:0,0:0:0:0:
152,180,91036,1,2,0:0:0:0:
172,276,91212,2,0,L|281:295,1,90,6|8,0:0|0:0,0:0:0:0:
280,320,91477,1,0,0:0:0:0:
292,312,91565,1,2,0:0:0:0:
304,304,91653,1,0,0:0:0:0:
316,296,91742,2,0,L|378:307,1,45,4|0,0:0|0:0,0:0:0:0:
380,280,91918,2,0,L|442:291,1,45,0|0,0:0|0:0,0:0:0:0:
455,294,92095,1,10,0:0:0:0:
436,200,92271,5,2,0:0:0:0:
432,188,92359,1,0,0:0:0:0:
428,176,92448,2,0,B|439:157|439:157|474:160,2,45,0|0|6,0:0|0:0|0:0,0:0:0:0:
328,176,92800,1,10,0:0:0:0:
324,164,92889,1,0,0:0:0:0:
320,152,92977,1,0,0:0:0:0:
316,140,93065,1,0,0:0:0:0:
312,128,93153,6,0,B|340:84|340:84|408:92,1,90,4|0,0:0|0:0,0:0:0:0:
240,32,93506,2,0,B|212:76|212:76|144:68,1,90,8|0,0:0|0:0,0:0:0:0:
136,68,93771,1,0,0:0:0:0:
136,68,93859,1,2,0:0:0:0:
36,52,94036,1,6,0:0:0:0:
80,140,94212,1,8,0:0:0:0:
84,152,94300,1,0,0:0:0:0:
88,164,94389,1,2,0:0:0:0:
92,176,94477,1,0,0:0:0:0:
96,188,94565,2,0,L|50:240,1,45,4|0,0:0|0:0,0:0:0:0:
40,263,94742,2,0,L|108:276,1,45,0|0,0:0|0:0,0:0:0:0:
121,302,94918,2,0,B|150:266|150:266|206:276,1,90,10|2,0:0|0:0,0:0:0:0:
288,296,95271,5,0,0:0:0:0:
304,300,95359,1,0,0:0:0:0:
320,304,95448,1,6,0:0:0:0:
416,332,95624,1,8,0:0:0:0:
432,336,95712,1,0,0:0:0:0:
452,340,95800,1,0,0:0:0:0:
468,330,95889,1,0,0:0:0:0:
480,320,95977,6,0,B|476:280|476:280|400:260,1,90,4|0,0:0|0:0,0:0:0:0:
388,256,96242,1,0,0:0:0:0:
388,256,96330,2,0,B|339:243|339:243|335:203,1,90,8|0,0:0|0:0,0:0:0:0:
328,104,96683,1,2,0:0:0:0:
260,176,96859,1,6,0:0:0:0:
248,76,97036,1,8,0:0:0:0:
236,72,97124,1,0,0:0:0:0:
224,68,97212,1,2,0:0:0:0:
212,64,97300,1,0,0:0:0:0:
200,60,97389,6,0,B|208:38|208:38|186:7,1,45,4|0,0:0|0:0,0:0:0:0:
155,45,97565,2,0,L|99:53,1,45,0|0,0:0|0:0,0:0:0:0:
68,58,97742,1,10,0:0:0:0:
20,148,97918,1,2,0:0:0:0:
32,144,98006,1,0,0:0:0:0:
44,140,98095,1,0,0:0:0:0:
56,136,98183,1,0,0:0:0:0:
68,140,98271,1,4,0:0:0:0:
160,176,98448,1,8,0:0:0:0:
172,180,98536,1,0,0:0:0:0:
184,184,98624,2,0,L|240:204,1,45,0|0,0:0|0:0,0:0:0:0:
284,176,98800,6,0,B|244:200|244:200|268:264,1,90,4|0,0:0|0:0,0:0:0:0:
404,284,99153,2,0,B|444:260|444:260|420:196,1,90,8|0,0:0|0:0,0:0:0:0:
376,136,99506,1,2,0:0:0:0:
344,232,99683,1,6,0:0:0:0:
312,324,99859,1,8,0:0:0:0:
308,336,99948,1,0,0:0:0:0:
304,348,100036,1,2,0:0:0:0:
208,348,100212,1,4,0:0:0:0:
204,336,100300,1,0,0:0:0:0:
200,324,100389,2,0,L|180:260,1,45,0|0,0:0|0:0,0:0:0:0:
139,265,100565,6,0,B|123:215|123:215|158:162,1,90,10|2,0:0|0:0,0:0:0:0:
154,170,100830,1,0,0:0:0:0:
162,158,100918,1,0,0:0:0:0:
170,146,101006,1,0,0:0:0:0:
162,134,101095,1,6,0:0:0:0:
112,48,101271,1,10,0:0:0:0:
104,36,101359,1,0,0:0:0:0:
96,24,101448,1,0,0:0:0:0:
88,12,101536,1,0,0:0:0:0:
72,16,101624,6,0,B|40:36|40:36|36:120,1,90,4|0,0:0|0:0,0:0:0:0:
128,256,101977,2,0,B|160:236|160:236|164:152,1,90,8|0,0:0|0:0,0:0:0:0:
64,180,102330,1,2,0:0:0:0:
24,272,102506,1,6,0:0:0:0:
92,348,102683,1,8,0:0:0:0:
104,344,102771,1,0,0:0:0:0:
116,340,102859,1,2,0:0:0:0:
128,336,102948,1,0,0:0:0:0:
140,332,103036,2,0,B|160:328|160:328|188:344,1,45,4|0,0:0|0:0,0:0:0:0:
224,316,103212,2,0,L|292:354,1,45,0|0,0:0|0:0,0:0:0:0:
291,355,103389,1,10,0:0:0:0:
408,356,103565,5,2,0:0:0:0:
408,344,103653,1,0,0:0:0:0:
408,332,103742,2,0,B|408:312|408:312|460:276,1,45,0|0,0:0|0:0,0:0:0:0:
476,304,103918,2,0,B|476:252|476:252|440:224,1,90,6|10,0:0|0:0,0:0:0:0:
408,196,104183,1,0,0:0:0:0:
396,188,104271,1,0,0:0:0:0:
384,180,104359,1,0,0:0:0:0:
372,172,104448,6,0,B|336:144|336:144|384:108,1,90,4|0,0:0|0:0,0:0:0:0:
476,40,104800,2,0,B|512:68|512:68|464:104,1,90,8|0,0:0|0:0,0:0:0:0:
384,56,105153,1,2,0:0:0:0:
292,24,105330,1,6,0:0:0:0:
204,64,105506,1,10,0:0:0:0:
192,56,105595,1,0,0:0:0:0:
180,48,105683,1,2,0:0:0:0:
128,132,105859,1,4,0:0:0:0:
116,124,105948,1,0,0:0:0:0:
104,116,106036,2,0,B|80:104|80:104|40:120,1,45,0|0,0:0|0:0,0:0:0:0:
24,144,106212,6,0,B|64:168|64:168|64:240,1,90,10|2,0:0|0:0,0:0:0:0:
67,265,106477,1,0,0:0:0:0:
67,265,106565,2,0,B|66:293|66:293|99:329,1,45,0|0,0:0|0:0,0:0:0:0:
100,323,106742,1,4,0:0:0:0:
215,323,106918,1,8,0:0:0:0:
229,313,107006,1,0,0:0:0:0:
241,304,107095,2,0,B|252:292|252:292|252:264,1,45,0|0,0:0|0:0,0:0:0:0:
252,212,107271,6,0,B|252:168|252:168|292:144,1,90,4|0,0:0|0:0,0:0:0:0:
452,236,107624,2,0,B|452:279|452:279|412:303,1,90,8|0,0:0|0:0,0:0:0:0:
352,224,107977,1,2,0:0:0:0:
404,140,108153,1,6,0:0:0:0:
456,56,108330,1,10,0:0:0:0:
448,44,108418,1,0,0:0:0:0:
440,32,108506,1,2,0:0:0:0:
425,32,108595,1,0,0:0:0:0:
410,32,108683,2,0,B|386:32|386:32|362:56,1,45,4|0,0:0|0:0,0:0:0:0:
334,48,108859,2,0,B|296:90,1,45,0|0,0:0|0:0,0:0:0:0:
285,103,109036,1,8,0:0:0:0:
226,171,109212,5,2,0:0:0:0:
217,182,109300,1,0,0:0:0:0:
208,193,109389,2,0,B|191:213|191:213|162:137,1,90,0|4,0:0|0:0,0:0:0:0:
138,70,109742,1,10,0:0:0:0:
134,58,109830,1,0,0:0:0:0:
130,46,109918,1,2,0:0:0:0:
126,34,110006,1,0,0:0:0:0:
142,12,110095,6,0,B|190:17|190:17|179:69,1,90,4|0,0:0|0:0,0:0:0:0:
50,196,110448,2,0,B|2:191|2:191|13:139,1,90,8|0,0:0|0:0,0:0:0:0:
101,113,110800,1,2,0:0:0:0:
165,177,110977,1,6,0:0:0:0:
200,259,111153,1,8,0:0:0:0:
201,272,111242,1,0,0:0:0:0:
201,284,111330,2,0,B|203:331|168:373,1,67.5000025749208,2|4,0:0|0:0,0:0:0:0:
28,332,112918,5,4,0:0:0:0:
28,224,113095,1,4,0:0:0:0:
96,308,113271,1,8,0:0:0:0:
96,200,113448,1,2,0:0:0:0:
104,184,113536,1,0,0:0:0:0:
112,168,113624,2,0,B|132:128|132:128|179:190,1,90,0|0,0:0|0:0,0:0:0:0:
172,216,113889,1,0,0:0:0:0:
172,216,113977,2,0,B|260:200,1,90,8|2,0:0|0:0,0:0:0:0:
279,196,114242,1,0,0:0:0:0:
299,192,114330,1,4,0:0:0:0:
358,276,114506,5,0,0:0:0:0:
377,284,114595,1,0,0:0:0:0:
396,292,114683,2,0,L|468:320,1,45,8|0,0:0|0:0,0:0:0:0:
479,325,114859,2,0,L|472:280,1,45,2|0,0:0|0:0,0:0:0:0:
468,261,115036,1,2,0:0:0:0:
465,241,115124,1,0,0:0:0:0:
462,223,115212,1,4,0:0:0:0:
385,170,115389,1,8,0:0:0:0:
388,150,115477,1,0,0:0:0:0:
391,132,115565,2,0,L|400:75,1,45,2|0,0:0|0:0,0:0:0:0:
436,56,115742,6,0,B|408:20|408:20|348:25,1,90,4|0,0:0|0:0,0:0:0:0:
160,64,116095,2,0,B|188:100|188:100|248:95,1,90,8|2,0:0|0:0,0:0:0:0:
263,94,116359,1,0,0:0:0:0:
268,116,116448,1,2,0:0:0:0:
272,136,116536,1,0,0:0:0:0:
276,156,116624,1,4,0:0:0:0:
256,252,116800,1,8,0:0:0:0:
236,248,116888,1,0,0:0:0:0:
216,244,116976,1,2,0:0:0:0:
204,260,117065,1,0,0:0:0:0:
192,276,117153,5,4,0:0:0:0:
142,361,117330,1,4,0:0:0:0:
122,357,117418,1,0,0:0:0:0:
102,353,117506,2,0,L|45:341,1,45,8|0,0:0|0:0,0:0:0:0:
9,332,117683,2,0,L|47:288,1,45,8|0,0:0|0:0,0:0:0:0:
56,272,117859,1,2,0:0:0:0:
52,252,117948,1,0,0:0:0:0:
48,232,118036,1,4,0:0:0:0:
8,140,118212,1,8,0:0:0:0:
16,120,118300,1,0,0:0:0:0:
24,100,118389,1,2,0:0:0:0:
44,92,118477,1,0,0:0:0:0:
64,84,118565,6,0,B|82:115|82:115|155:104,1,90,4|0,0:0|0:0,0:0:0:0:
352,146,118918,2,0,B|334:115|334:115|261:126,1,90,8|2,0:0|0:0,0:0:0:0:
230,134,119183,1,0,0:0:0:0:
230,134,119271,1,0,0:0:0:0:
273,223,119448,1,0,0:0:0:0:
311,314,119624,1,8,0:0:0:0:
327,330,119712,1,0,0:0:0:0:
351,326,119800,1,2,0:0:0:0:
375,322,119889,1,0,0:0:0:0:
399,318,119977,2,0,B|432:313|432:313|392:240,1,90,4|0,0:0|0:0,0:0:0:0:
430,221,120242,1,0,0:0:0:0:
430,221,120330,2,0,L|398:166,1,45,8|0,0:0|0:0,0:0:0:0:
383,140,120506,5,2,0:0:0:0:
289,109,120683,1,2,0:0:0:0:
265,101,120771,1,0,0:0:0:0:
241,93,120859,1,4,0:0:0:0:
173,165,121036,1,8,0:0:0:0:
149,157,121124,1,0,0:0:0:0:
129,149,121213,1,2,0:0:0:0:
125,128,121301,1,0,0:0:0:0:
120,106,121389,6,0,B|107:63|107:63|52:45,1,90,4|0,0:0|0:0,0:0:0:0:
203,81,121742,2,0,B|327:121,1,90,8|2,0:0|0:0,0:0:0:0:
392,136,122095,1,2,0:0:0:0:
396,156,122183,1,0,0:0:0:0:
400,176,122271,1,0,0:0:0:0:
404,196,122359,1,0,0:0:0:0:
408,216,122448,2,0,B|412:240|412:240|368:276,1,45,8|0,0:0|0:0,0:0:0:0:
392,302,122624,2,0,L|328:341,1,45,2|0,0:0|0:0,0:0:0:0:
321,345,122800,5,4,0:0:0:0:
306,242,122977,1,0,0:0:0:0:
302,222,123065,1,0,0:0:0:0:
298,202,123153,2,0,L|247:186,1,45,8|0,0:0|0:0,0:0:0:0:
243,136,123330,2,0,L|192:120,1,45,8|0,0:0|0:0,0:0:0:0:
162,108,123506,1,2,0:0:0:0:
158,88,123594,1,0,0:0:0:0:
154,68,123683,1,0,0:0:0:0:
67,6,123859,1,8,0:0:0:0:
63,26,123947,1,0,0:0:0:0:
59,46,124035,2,0,B|38:52|38:52|45:93,1,45,2|0,0:0|0:0,0:0:0:0:
16,104,124212,6,0,B|40:232,1,90,4|0,0:0|0:0,0:0:0:0:
168,136,124565,2,0,B|192:264,1,90,8|2,0:0|0:0,0:0:0:0:
197,276,124830,1,0,0:0:0:0:
197,276,124918,1,0,0:0:0:0:
216,372,125095,1,0,0:0:0:0:
236,364,125183,1,0,0:0:0:0:
256,356,125271,1,8,0:0:0:0:
348,316,125448,1,2,0:0:0:0:
368,308,125536,1,0,0:0:0:0:
388,300,125624,1,4,0:0:0:0:
392,280,125712,1,0,0:0:0:0:
396,260,125800,1,4,0:0:0:0:
416,252,125889,1,0,0:0:0:0:
436,244,125977,5,8,0:0:0:0:
472,152,126153,1,2,0:0:0:0:
464,132,126242,1,0,0:0:0:0:
456,112,126330,2,0,B|448:94|448:94|420:112,1,45,2|0,0:0|0:0,0:0:0:0:
384,132,126506,2,0,B|362:145|362:145|354:127,1,45,4|0,0:0|0:0,0:0:0:0:
344,108,126683,1,8,0:0:0:0:
336,88,126771,1,0,0:0:0:0:
328,68,126859,1,2,0:0:0:0:
320,48,126948,1,0,0:0:0:0:
312,28,127036,6,0,B|312:72|312:72|270:91,1,90,4|0,0:0|0:0,0:0:0:0:
256,240,127389,2,0,B|256:196|256:196|204:172,1,90,8|2,0:0|0:0,0:0:0:0:
190,240,127653,1,0,0:0:0:0:
190,240,127742,2,0,L|205:328,1,90,2|0,0:0|0:0,0:0:0:0:
217,380,128006,1,0,0:0:0:0:
217,380,128095,1,8,0:0:0:0:
121,353,128271,1,2,0:0:0:0:
97,345,128359,1,0,0:0:0:0:
73,337,128448,1,4,0:0:0:0:
18,254,128624,5,0,0:0:0:0:
30,234,128712,1,0,0:0:0:0:
42,214,128800,2,0,B|54:194|54:194|42:158,1,45,8|0,0:0|0:0,0:0:0:0:
34,142,128977,2,0,B|27:121|27:121|40:98,1,45,8|0,0:0|0:0,0:0:0:0:
50,83,129153,1,2,0:0:0:0:
60,64,129242,1,0,0:0:0:0:
70,45,129330,1,0,0:0:0:0:
159,3,129506,1,0,0:0:0:0:
171,23,129594,1,0,0:0:0:0:
183,43,129682,2,0,B|195:63|195:63|234:69,1,45,2|0,0:0|0:0,0:0:0:0:
265,76,129859,6,0,B|291:80|291:80|247:7,1,90,4|0,0:0|0:0,0:0:0:0:
261,171,130212,2,0,B|235:167|235:167|279:240,1,90,8|2,0:0|0:0,0:0:0:0:
314,309,130565,1,0,0:0:0:0:
326,329,130653,1,0,0:0:0:0:
338,349,130742,1,0,0:0:0:0:
362,353,130830,1,0,0:0:0:0:
386,357,130918,2,0,B|436:361|436:361|415:312,1,90,8|2,0:0|0:0,0:0:0:0:
376,235,131271,5,0,0:0:0:0:
410,141,131448,1,0,0:0:0:0:
418,117,131536,1,0,0:0:0:0:
426,93,131624,1,8,0:0:0:0:
374,8,131800,1,2,0:0:0:0:
349,13,131888,1,0,0:0:0:0:
324,18,131977,2,0,B|262:28|262:28|234:75,1,90,2|4,0:0|0:0,0:0:0:0:
164,104,132330,1,8,0:0:0:0:
172,128,132418,1,0,0:0:0:0:
180,152,132506,1,2,0:0:0:0:
80,156,132683,6,0,B|65:120|65:120|-24:110,1,90,4|0,0:0|0:0,0:0:0:0:
16,264,133036,2,0,B|31:300|31:300|120:310,1,90,8|2,0:0|0:0,0:0:0:0:
132,316,133300,1,0,0:0:0:0:
132,316,133389,1,2,0:0:0:0:
212,372,133565,1,4,0:0:0:0:
220,350,133653,1,0,0:0:0:0:
228,328,133742,2,0,L|292:308,1,45,8|0,0:0|0:0,0:0:0:0:
248,276,133918,2,0,L|272:205,1,45,2|0,0:0|0:0,0:0:0:0:
278,188,134095,5,4,0:0:0:0:
372,212,134271,1,4,0:0:0:0:
364,236,134359,1,0,0:0:0:0:
356,260,134448,1,8,0:0:0:0:
275,199,134624,1,8,0:0:0:0:
184,164,134800,1,2,0:0:0:0:
164,156,134888,1,0,0:0:0:0:
144,148,134976,1,4,0:0:0:0:
140,128,135064,1,0,0:0:0:0:
136,108,135152,1,8,0:0:0:0:
116,100,135241,1,0,0:0:0:0:
96,92,135329,1,2,0:0:0:0:
92,72,135418,1,0,0:0:0:0:
88,52,135506,6,0,B|40:40|40:40|32:-4,1,90,4|0,0:0|0:0,0:0:0:0:
58,199,135859,2,0,B|106:211|106:211|114:255,1,90,8|2,0:0|0:0,0:0:0:0:
134,357,136212,1,0,0:0:0:0:
216,287,136389,1,0,0:0:0:0:
220,311,136477,1,0,0:0:0:0:
224,335,136565,2,0,B|227:354|227:354|280:366,1,45,8|0,0:0|0:0,0:0:0:0:
290,332,136742,2,0,L|348:344,1,45,2|0,0:0|0:0,0:0:0:0:
375,351,136918,5,4,0:0:0:0:
496,364,137095,1,0,0:0:0:0:
484,340,137183,1,0,0:0:0:0:
472,316,137271,1,8,0:0:0:0:
400,244,137448,1,2,0:0:0:0:
412,220,137536,1,0,0:0:0:0:
424,196,137624,2,0,B|432:172|432:172|408:132,1,45,2|0,0:0|0:0,0:0:0:0:
404,128,137800,1,4,0:0:0:0:
296,128,137977,1,8,0:0:0:0:
308,152,138065,1,0,0:0:0:0:
320,176,138153,1,2,0:0:0:0:
308,200,138242,1,0,0:0:0:0:
296,224,138330,6,0,B|276:260|276:260|312:320,1,90,4|0,0:0|0:0,0:0:0:0:
181,196,138683,2,0,B|201:160|201:160|165:100,1,90,8|2,0:0|0:0,0:0:0:0:
162,98,138948,1,0,0:0:0:0:
149,79,139036,1,2,0:0:0:0:
41,79,139212,1,4,0:0:0:0:
29,99,139300,1,0,0:0:0:0:
17,119,139389,1,8,0:0:0:0:
71,211,139565,1,0,0:0:0:0:
95,211,139653,1,0,0:0:0:0:
119,211,139742,2,0,B|139:211|139:211|169:243,1,45,4|0,0:0|0:0,0:0:0:0:
177,257,139918,1,4,0:0:0:0:
244,332,140095,5,8,0:0:0:0:
340,308,140271,1,8,0:0:0:0:
436,280,140448,1,2,0:0:0:0:
448,300,140536,1,0,0:0:0:0:
460,320,140624,1,0,0:0:0:0:
360,212,140800,1,8,0:0:0:0:
336,204,140889,1,0,0:0:0:0:
312,196,140977,1,2,0:0:0:0:
288,188,141065,1,0,0:0:0:0:
264,180,141153,6,0,B|220:164|220:164|200:92,1,90,4|0,0:0|0:0,0:0:0:0:
340,308,141506,2,0,B|384:324|384:324|404:396,1,90,8|2,0:0|0:0,0:0:0:0:
252,360,141859,1,0,0:0:0:0:
228,352,141948,1,0,0:0:0:0:
204,344,142036,2,0,B|184:336|184:336|172:292,1,45,0|0,0:0|0:0,0:0:0:0:
200,268,142212,2,0,B|188:224|188:224|108:192,1,90,8|2,0:0|0:0,0:0:0:0:
124,200,142477,1,0,0:0:0:0:
104,192,142565,1,4,0:0:0:0:
44,112,142742,1,0,0:0:0:0:
68,108,142830,1,0,0:0:0:0:
92,104,142918,1,8,0:0:0:0:
188,84,143095,5,2,0:0:0:0:
200,64,143183,1,0,0:0:0:0:
212,44,143271,1,2,0:0:0:0:
236,40,143359,1,0,0:0:0:0:
260,36,143448,1,4,0:0:0:0:
368,20,143624,1,8,0:0:0:0:
392,16,143713,1,0,0:0:0:0:
416,12,143800,2,0,B|433:10|433:10|460:49,1,45,2|0,0:0|0:0,0:0:0:0:
425,76,143977,6,0,B|449:113|449:113|515:102,1,90,4|0,0:0|0:0,0:0:0:0:
512,262,144330,2,0,B|487:224|487:224|422:236,1,90,8|2,0:0|0:0,0:0:0:0:
344,248,144683,1,2,0:0:0:0:
237,262,144859,1,4,0:0:0:0:
213,265,144948,1,0,0:0:0:0:
189,268,145036,2,0,L|141:241,1,45,8|0,0:0|0:0,0:0:0:0:
117,277,145212,2,0,L|77:314,1,45,2|0,0:0|0:0,0:0:0:0:
46,286,145389,1,0,0:0:0:0:
0,188,145565,5,0,0:0:0:0:
24,185,145654,1,0,0:0:0:0:
48,182,145742,2,0,L|95:208,1,45,8|0,0:0|0:0,0:0:0:0:
120,173,145918,2,0,L|159:135,1,45,8|0,0:0|0:0,0:0:0:0:
191,164,146095,1,2,0:0:0:0:
215,161,146183,1,0,0:0:0:0:
239,158,146271,1,4,0:0:0:0:
348,144,146448,1,8,0:0:0:0:
372,141,146536,1,0,0:0:0:0:
396,138,146624,2,0,B|421:136|421:136|458:172,1,45,2|0,0:0|0:0,0:0:0:0:
460,179,146800,6,0,B|478:200|478:200|453:279,1,90,4|0,0:0|0:0,0:0:0:0:
239,158,147153,2,0,B|221:137|221:137|246:57,1,90,8|2,0:0|0:0,0:0:0:0:
340,32,147506,1,0,0:0:0:0:
340,56,147595,1,0,0:0:0:0:
340,80,147683,1,0,0:0:0:0:
340,104,147771,1,0,0:0:0:0:
364,116,147859,1,8,0:0:0:0:
464,160,148036,5,2,0:0:0:0:
488,172,148124,1,0,0:0:0:0:
512,184,148212,2,0,B|512:224|512:224|448:260,1,90,4|0,0:0|0:0,0:0:0:0:
444,260,148477,1,0,0:0:0:0:
420,272,148565,1,8,0:0:0:0:
324,320,148742,1,2,0:0:0:0:
300,332,148830,1,0,0:0:0:0:
276,344,148918,1,2,0:0:0:0:
252,332,149007,1,0,0:0:0:0:
228,320,149095,1,4,0:0:0:0:
136,264,149271,1,8,0:0:0:0:
112,252,149359,1,0,0:0:0:0:
88,236,149448,2,0,B|72:224|72:224|72:176,1,45,2|0,0:0|0:0,0:0:0:0:
100,180,149624,6,0,B|132:148|132:148|80:96,1,90,4|0,0:0|0:0,0:0:0:0:
48,292,149977,2,0,B|16:324|16:324|68:376,1,90,8|2,0:0|0:0,0:0:0:0:
156,358,150330,2,0,B|192:308|192:308|212:334,1,90,2|0,0:0|0:0,0:0:0:0:
225,355,150595,1,0,0:0:0:0:
225,355,150683,1,8,0:0:0:0:
262,266,150859,1,2,0:0:0:0:
262,266,150947,1,0,0:0:0:0:
262,266,151036,2,0,B|278:288|278:288|332:236,1,90,4|0,0:0|0:0,0:0:0:0:
342,228,151300,1,0,0:0:0:0:
342,228,151389,2,0,B|350:217|350:217|383:257,1,45,8|0,0:0|0:0,0:0:0:0:
394,270,151565,2,0,B|415:293|415:293|423:282,1,45,8|0,0:0|0:0,0:0:0:0:
446,251,151742,2,0,L|507:251,2,45,2|0|0,0:0|0:0|0:0,0:0:0:0:
450,73,152095,5,8,0:0:0:0:
442,97,152183,1,0,0:0:0:0:
434,121,152271,1,2,0:0:0:0:
442,145,152359,1,0,0:0:0:0:
450,169,152448,6,0,B|466:209|466:209|442:257,1,90,4|0,0:0|0:0,0:0:0:0:
343,370,152800,2,0,B|327:330|327:330|351:282,1,90,8|2,0:0|0:0,0:0:0:0:
306,191,153153,1,0,0:0:0:0:
298,171,153242,1,0,0:0:0:0:
290,151,153330,1,0,0:0:0:0:
270,147,153418,1,0,0:0:0:0:
246,143,153506,2,0,B|222:139|222:139|198:99,1,45,8|0,0:0|0:0,0:0:0:0:
198,87,153683,2,0,B|187:69|187:69|163:65,1,45,2|0,0:0|0:0,0:0:0:0:
127,59,153859,5,4,0:0:0:0:
19,49,154036,1,0,0:0:0:0:
23,73,154124,1,0,0:0:0:0:
27,97,154212,1,8,0:0:0:0:
43,205,154389,1,2,0:0:0:0:
47,229,154477,1,0,0:0:0:0:
51,253,154565,1,2,0:0:0:0:
71,257,154653,1,0,0:0:0:0:
91,261,154742,1,4,0:0:0:0:
195,281,154918,1,8,0:0:0:0:
215,285,155007,1,0,0:0:0:0:
235,289,155095,1,2,0:0:0:0:
239,309,155183,1,0,0:0:0:0:
243,329,155271,6,0,B|247:357|247:357|319:373,1,90,4|0,0:0|0:0,0:0:0:0:
431,289,155624,2,0,B|427:261|427:261|355:245,1,90,8|2,0:0|0:0,0:0:0:0:
260,220,155977,1,2,0:0:0:0:
340,148,156153,1,4,0:0:0:0:
368,154,156242,1,0,0:0:0:0:
396,161,156330,1,8,0:0:0:0:
416,56,156506,1,2,0:0:0:0:
388,49,156594,1,0,0:0:0:0:
360,43,156683,5,4,0:0:0:0:
257,80,156859,1,4,0:0:0:0:
178,0,157036,1,8,0:0:0:0:
78,49,157212,1,8,0:0:0:0:
94,161,157389,1,2,0:0:0:0:
94,161,157477,1,0,0:0:0:0:
94,161,157565,1,2,0:0:0:0:
204,180,157742,1,0,0:0:0:0:
412,264,158095,5,2,0:0:0:0:
464,208,158448,5,0,0:0:0:0:
424,144,158624,1,4,0:0:0:0:
352,160,158800,1,8,0:0:0:0:
344,232,158977,1,0,0:0:0:0:
328,228,159065,1,0,0:0:0:0:
312,224,159153,1,0,0:0:0:0:
296,220,159242,1,0,0:0:0:0:
280,216,159330,1,8,0:0:0:0:
208,200,159506,1,0,0:0:0:0:
196,212,159595,1,0,0:0:0:0:
184,224,159683,1,0,0:0:0:0:
200,296,159859,5,8,0:0:0:0:
136,332,160036,1,8,0:0:0:0:
76,292,160212,1,0,0:0:0:0:
80,276,160300,1,0,0:0:0:0:
84,260,160389,1,8,0:0:0:0:
56,196,160565,1,0,0:0:0:0:
60,180,160653,1,0,0:0:0:0:
64,164,160742,1,0,0:0:0:0:
68,148,160830,1,0,0:0:0:0:
72,132,160918,5,2,0:0:0:0:
212,104,161271,1,2,0:0:0:0:
352,80,161977,2,0,B|380:72|380:72|368:132,1,90,2|8,0:0|0:0,0:0:0:0:
352,200,162330,1,0,0:0:0:0:
356,216,162418,1,0,0:0:0:0:
360,232,162506,1,0,0:0:0:0:
364,248,162595,1,0,0:0:0:0:
368,264,162683,1,8,0:0:0:0:
392,332,162859,1,8,0:0:0:0:
320,316,163036,1,0,0:0:0:0:
304,312,163124,1,0,0:0:0:0:
288,308,163212,1,8,0:0:0:0:
220,288,163389,5,0,0:0:0:0:
84,332,163742,2,0,B|141:273|141:273|118:204,1,135,2|0,0:0|0:0,0:0:0:0:
114,193,164095,1,2,0:0:0:0:
52,64,164448,5,8,0:0:0:0:
84,128,164624,1,0,0:0:0:0:
100,124,164713,1,0,0:0:0:0:
116,120,164801,1,0,0:0:0:0:
132,116,164889,1,0,0:0:0:0:
148,112,164977,1,8,0:0:0:0:
208,148,165153,1,0,0:0:0:0:
224,144,165242,1,0,0:0:0:0:
240,140,165330,1,0,0:0:0:0:
256,136,165418,1,0,0:0:0:0:
272,132,165506,5,8,0:0:0:0:
280,60,165683,1,8,0:0:0:0:
348,36,165859,1,0,0:0:0:0:
360,44,165948,1,0,0:0:0:0:
372,52,166036,1,8,0:0:0:0:
396,120,166212,1,0,0:0:0:0:
408,128,166300,1,0,0:0:0:0:
420,136,166389,1,0,0:0:0:0:
432,144,166477,1,0,0:0:0:0:
444,152,166565,5,2,0:0:0:0:
336,248,166918,1,2,0:0:0:0:
476,288,167624,1,2,0:0:0:0:
32,288,169036,5,2,0:0:0:0:
144,196,169389,1,2,0:0:0:0:
112,56,169742,1,2,0:0:0:0:
12,156,170095,5,8,0:0:0:0:
28,152,170183,1,0,0:0:0:0:
44,148,170271,1,0,0:0:0:0:
60,144,170359,1,0,0:0:0:0:
76,140,170448,1,0,0:0:0:0:
92,136,170536,1,0,0:0:0:0:
108,132,170624,1,8,0:0:0:0:
112,56,170800,1,0,0:0:0:0:
128,60,170888,1,0,0:0:0:0:
144,64,170976,1,0,0:0:0:0:
160,68,171064,1,0,0:0:0:0:
176,72,171153,5,8,0:0:0:0:
248,88,171330,1,8,0:0:0:0:
316,64,171506,1,0,0:0:0:0:
320,80,171595,1,0,0:0:0:0:
324,96,171683,1,8,0:0:0:0:
284,156,171859,1,0,0:0:0:0:
288,172,171948,1,0,0:0:0:0:
292,188,172036,1,0,0:0:0:0:
296,204,172124,1,0,0:0:0:0:
300,220,172212,5,2,0:0:0:0:
428,284,172565,1,2,0:0:0:0:
312,368,173271,1,2,0:0:0:0:
188,296,173624,5,0,0:0:0:0:
172,300,173712,1,0,0:0:0:0:
156,304,173800,1,0,0:0:0:0:
140,308,173889,1,0,0:0:0:0:
124,312,173977,1,8,0:0:0:0:
72,364,174153,1,8,0:0:0:0:
4,336,174330,1,0,0:0:0:0:
8,320,174418,1,0,0:0:0:0:
12,304,174506,1,8,0:0:0:0:
28,232,174683,5,4,0:0:0:0:
56,89,175036,2,0,B|120:120|120:120|195:66,1,135,6|0,0:0|0:0,0:0:0:0:
200,60,175389,1,2,0:0:0:0:
256,16,175565,5,4,0:0:0:0:
324,36,175742,1,8,0:0:0:0:
340,104,175918,1,0,0:0:0:0:
344,120,176006,1,0,0:0:0:0:
348,136,176095,1,0,0:0:0:0:
352,152,176183,1,0,0:0:0:0:
356,168,176271,1,8,0:0:0:0:
428,184,176448,1,0,0:0:0:0:
424,200,176536,1,0,0:0:0:0:
420,216,176625,1,0,0:0:0:0:
416,232,176713,1,0,0:0:0:0:
412,248,176800,5,8,0:0:0:0:
344,272,176977,1,8,0:0:0:0:
340,288,177065,1,0,0:0:0:0:
336,304,177153,2,0,L|320:360,2,45,0|0|8,0:0|0:0|0:0,0:0:0:0:
268,276,177506,1,0,0:0:0:0:
264,292,177594,1,0,0:0:0:0:
260,308,177682,2,0,L|244:364,1,45,0|0,0:0|0:0,0:0:0:0:
239,384,177859,5,6,0:0:0:0:
151,272,178212,1,2,0:0:0:0:
27,340,178918,1,2,0:0:0:0:
36,112,180330,5,2,0:0:0:0:
164,44,180683,1,2,0:0:0:0:
156,188,181036,5,2,0:0:0:0:
100,236,181212,1,4,0:0:0:0:
116,308,181389,1,8,0:0:0:0:
188,324,181565,1,0,0:0:0:0:
192,308,181653,1,0,0:0:0:0:
196,292,181742,1,0,0:0:0:0:
212,288,181830,1,0,0:0:0:0:
228,284,181918,1,8,0:0:0:0:
288,324,182095,1,0,0:0:0:0:
304,320,182183,1,0,0:0:0:0:
324,316,182271,1,0,0:0:0:0:
340,312,182359,1,0,0:0:0:0:
356,308,182448,5,8,0:0:0:0:
420,340,182624,1,8,0:0:0:0:
476,296,182800,1,0,0:0:0:0:
472,280,182889,1,0,0:0:0:0:
468,264,182977,1,8,0:0:0:0:
488,196,183153,1,0,0:0:0:0:
484,180,183241,1,0,0:0:0:0:
480,164,183330,1,0,0:0:0:0:
464,160,183418,1,0,0:0:0:0:
448,156,183506,5,2,0:0:0:0:
312,108,183859,1,2,0:0:0:0:
424,16,184565,1,2,0:0:0:0:
312,108,184918,5,0,0:0:0:0:
296,104,185006,1,0,0:0:0:0:
280,100,185095,1,0,0:0:0:0:
264,96,185183,1,0,0:0:0:0:
252,104,185271,1,8,0:0:0:0:
200,152,185448,1,8,0:0:0:0:
148,200,185624,1,0,0:0:0:0:
132,196,185712,1,0,0:0:0:0:
116,192,185800,1,8,0:0:0:0:
48,168,185977,6,0,B|88:244|0:296,1,135,4|0,0:0|0:0,0:0:0:0:
4,320,186330,2,0,B|49:247|138:297,1,135,4|0,0:0|0:0,0:0:0:0:
148,304,186683,1,4,0:0:0:0:
212,336,186859,5,4,0:0:0:0:
228,332,186948,1,0,0:0:0:0:
244,328,187036,1,8,0:0:0:0:
310,356,187212,1,0,0:0:0:0:
326,352,187300,1,0,0:0:0:0:
342,348,187389,1,0,0:0:0:0:
346,332,187477,1,0,0:0:0:0:
350,316,187565,1,8,0:0:0:0:
358,244,187742,1,0,0:0:0:0:
362,228,187830,1,0,0:0:0:0:
366,212,187918,1,0,0:0:0:0:
382,208,188007,1,0,0:0:0:0:
398,204,188095,5,8,0:0:0:0:
470,192,188271,1,8,0:0:0:0:
486,120,188448,1,0,0:0:0:0:
490,104,188536,1,0,0:0:0:0:
494,88,188624,1,8,0:0:0:0:
512,16,188800,1,0,0:0:0:0:
496,20,188889,1,0,0:0:0:0:
480,24,188977,1,0,0:0:0:0:
464,28,189065,1,0,0:0:0:0:
448,32,189153,5,2,0:0:0:0:
308,64,189506,1,2,0:0:0:0:
284,204,190212,1,2,0:0:0:0:
58,7,191624,6,0,B|128:16|128:16|163:96,1,135,0|0,0:0|0:0,0:0:0:0:
164,103,191977,2,0,B|189:162|189:162|259:171,1,135,4|0,0:0|0:0,0:0:0:0:
300,176,192330,1,4,0:0:0:0:
344,120,192506,5,4,0:0:0:0:
416,128,192683,1,8,0:0:0:0:
440,196,192859,1,0,0:0:0:0:
436,212,192948,1,0,0:0:0:0:
432,228,193036,1,0,0:0:0:0:
428,244,193124,1,0,0:0:0:0:
424,260,193212,1,8,0:0:0:0:
434,331,193389,1,0,0:0:0:0:
418,335,193477,1,0,0:0:0:0:
402,339,193565,1,0,0:0:0:0:
386,343,193653,1,0,0:0:0:0:
374,331,193742,5,8,0:0:0:0:
349,263,193918,1,8,0:0:0:0:
333,259,194006,1,0,0:0:0:0:
317,255,194095,1,0,0:0:0:0:
301,251,194183,1,0,0:0:0:0:
285,247,194271,1,8,0:0:0:0:
216,232,194448,1,0,0:0:0:0:
212,248,194536,1,0,0:0:0:0:
208,264,194624,1,0,0:0:0:0:
204,280,194712,1,0,0:0:0:0:
188,288,194800,5,2,0:0:0:0:
60,352,195153,1,2,0:0:0:0:
68,208,195859,1,2,0:0:0:0:
64,52,197271,5,2,0:0:0:0:
200,8,197624,1,2,0:0:0:0:
168,148,197977,1,2,0:0:0:0:
100,132,198153,5,4,0:0:0:0:
64,196,198330,1,8,0:0:0:0:
116,248,198506,1,0,0:0:0:0:
132,244,198595,1,0,0:0:0:0:
148,240,198683,1,0,0:0:0:0:
152,256,198771,1,0,0:0:0:0:
156,272,198859,1,8,0:0:0:0:
172,344,199036,1,0,0:0:0:0:
176,360,199124,1,0,0:0:0:0:
180,376,199212,1,0,0:0:0:0:
196,372,199300,1,0,0:0:0:0:
212,368,199389,5,8,0:0:0:0:
280,348,199565,1,8,0:0:0:0:
348,328,199742,1,0,0:0:0:0:
364,324,199830,1,0,0:0:0:0:
380,320,199918,1,8,0:0:0:0:
444,352,200095,1,0,0:0:0:0:
448,336,200183,1,0,0:0:0:0:
452,320,200271,1,0,0:0:0:0:
456,304,200359,1,0,0:0:0:0:
460,288,200448,5,2,0:0:0:0:
500,148,200800,1,2,0:0:0:0:
360,188,201506,1,2,0:0:0:0:
104,84,203271,5,4,0:0:0:0:
238,137,203448,1,4,0:0:0:0:
104,200,203624,1,8,0:0:0:0:
80,212,203712,1,0,0:0:0:0:
56,224,203800,1,2,0:0:0:0:
32,236,203889,1,0,0:0:0:0:
56,248,203977,1,0,0:0:0:0:
80,260,204065,1,0,0:0:0:0:
104,272,204153,1,4,0:0:0:0:
230,316,204330,6,0,B|266:316|266:316|290:328|290:328|330:328,1,99.0000030212403,8|2,0:0|0:0,0:0:0:0:
390,308,204595,1,0,0:0:0:0:
390,308,204683,2,0,B|390:336|390:336|422:364,1,49.5000015106202,4|0,0:0|0:0,0:0:0:0:
456,310,204859,2,0,B|456:282|456:282|424:254,1,49.5000015106202,4|0,0:0|0:0,0:0:0:0:
388,232,205036,1,8,0:0:0:0:
268,186,205212,5,10,0:0:0:0:
291,163,205300,1,0,0:0:0:0:
314,140,205388,1,2,0:0:0:0:
291,117,205476,1,8,0:0:0:0:
268,94,205565,1,4,0:0:0:0:
124,140,205742,1,8,0:0:0:0:
156,140,205830,1,0,0:0:0:0:
188,140,205918,1,2,0:0:0:0:
314,140,206095,6,0,B|433:140,1,99.0000030212403,4|4,0:0|0:0,0:0:0:0:
463,111,206359,1,0,0:0:0:0:
463,111,206448,2,0,B|422:141|422:141|469:186,1,99.0000030212403,8|2,0:0|0:0,0:0:0:0:
503,219,206712,1,0,0:0:0:0:
503,219,206800,1,2,0:0:0:0:
471,332,206977,1,4,0:0:0:0:
447,324,207065,1,0,0:0:0:0:
423,316,207153,2,0,B|383:304|383:304|327:364,1,99.0000030212403,8|2,0:0|0:0,0:0:0:0:
238,282,207506,5,4,0:0:0:0:
215,259,207594,1,0,0:0:0:0:
192,236,207682,1,4,0:0:0:0:
169,259,207770,1,0,0:0:0:0:
146,282,207859,1,8,0:0:0:0:
192,356,208036,1,0,0:0:0:0:
192,236,208212,1,2,0:0:0:0:
192,208,208300,1,0,0:0:0:0:
192,180,208389,1,4,0:0:0:0:
234,92,208565,2,0,B|191:65|191:65|136:102,1,99.0000030212403,8|2,0:0|0:0,0:0:0:0:
28,44,208918,5,4,0:0:0:0:
36,68,209006,1,0,0:0:0:0:
44,92,209095,2,0,B|52:120|52:120|40:144,1,49.5000015106202,4|0,0:0|0:0,0:0:0:0:
12,192,209271,2,0,B|3:210|3:210|10:238,1,49.5000015106202,8|0,0:0|0:0,0:0:0:0:
27,303,209448,1,2,0:0:0:0:
27,303,209536,2,0,B|45:374|45:374|77:335,1,99.0000030212403,8|8,0:0|0:0,0:0:0:0:
102,304,209800,2,0,B|135:299|135:299|170:322|170:322|210:314,1,99.0000030212403,4|8,0:0|0:0,0:0:0:0:
259,306,210065,1,0,0:0:0:0:
259,306,210153,1,2,0:0:0:0:
369,350,210330,5,4,0:0:0:0:
377,326,210418,1,0,0:0:0:0:
385,302,210506,2,0,B|393:270|393:270|377:234,1,49.5000015106202,4|0,0:0|0:0,0:0:0:0:
362,201,210683,1,8,0:0:0:0:
436,68,210859,5,10,0:0:0:0:
436,68,210947,2,0,B|388:56|388:56|396:116,1,99.0000030212403,0|8,0:0|0:0,0:0:0:0:
412,144,211212,2,0,B|376:124|376:124|296:136,1,99.0000030212403,4|8,0:0|0:0,0:0:0:0:
260,145,211477,1,0,0:0:0:0:
260,145,211565,1,2,0:0:0:0:
148,212,211742,5,4,0:0:0:0:
132,188,211830,1,0,0:0:0:0:
116,164,211918,1,4,0:0:0:0:
88,168,212006,1,0,0:0:0:0:
60,172,212095,1,8,0:0:0:0:
8,292,212271,1,2,0:0:0:0:
8,292,212359,2,0,B|63:380,1,99.0000030212403,8|0,0:0|0:0,0:0:0:0:
124,361,212624,2,0,L|98:318,1,49.5000015106202,4|0,0:0|0:0,0:0:0:0:
152,288,212800,2,0,B|200:291|200:291|183:338,1,99.0000030212403,8|2,0:0|0:0,0:0:0:0:
49,242,213154,5,4,0:0:0:0:
72,219,213242,1,0,0:0:0:0:
95,196,213330,1,0,0:0:0:0:
72,173,213418,1,0,0:0:0:0:
49,150,213506,2,0,B|89:160|89:160|161:126,1,99.0000030212403,8|8,0:0|0:0,0:0:0:0:
133,72,213771,2,0,B|145:24|145:24|197:44,1,99.0000030212403,0|0,0:0|0:0,0:0:0:0:
250,14,214036,2,0,L|321:41,1,49.5000015106202,4|0,0:0|0:0,0:0:0:0:
363,57,214212,1,8,0:0:0:0:
363,57,214300,1,0,0:0:0:0:
363,57,214389,1,2,0:0:0:0:
468,169,214565,6,0,B|452:231|452:231|426:207,1,99.0000030212403,4|4,0:0|0:0,0:0:0:0:
371,176,214830,1,0,0:0:0:0:
371,176,214918,2,0,B|345:152|345:152|329:215,1,99.0000030212403,8|2,0:0|0:0,0:0:0:0:
317,279,215183,1,0,0:0:0:0:
317,279,215271,1,0,0:0:0:0:
180,281,215447,1,4,0:0:0:0:
184,257,215536,1,0,0:0:0:0:
188,233,215624,2,0,B|192:205|192:205|170:184,1,49.5000015106202,8|0,0:0|0:0,0:0:0:0:
127,149,215800,2,0,B|111:134|111:134|115:106,1,49.5000015106202,2|0,0:0|0:0,0:0:0:0:
129,41,215977,5,4,0:0:0:0:
153,25,216065,1,0,0:0:0:0:
177,9,216153,1,0,0:0:0:0:
201,17,216242,1,0,0:0:0:0:
225,25,216330,2,0,L|278:48,1,49.5000015106202,8|0,0:0|0:0,0:0:0:0:
336,54,216506,2,0,L|313:107,1,49.5000015106202,2|0,0:0|0:0,0:0:0:0:
292,160,216683,2,0,B|329:146|329:146|369:190,1,99.0000030212403,2|4,0:0|0:0,0:0:0:0:
456,285,217036,1,8,0:0:0:0:
448,312,217124,1,0,0:0:0:0:
440,336,217212,2,0,L|380:344,1,49.5000015106202,2|0,0:0|0:0,0:0:0:0:
336,312,217389,6,0,B|290:292|290:292|237:324,1,99.0000030212403,4|4,0:0|0:0,0:0:0:0:
197,354,217653,1,0,0:0:0:0:
197,354,217742,2,0,B|155:379|155:379|109:359,1,99.0000030212403,8|2,0:0|0:0,0:0:0:0:
53,327,218006,1,0,0:0:0:0:
53,327,218095,1,2,0:0:0:0:
38,192,218271,1,0,0:0:0:0:
66,196,218360,1,0,0:0:0:0:
94,200,218447,6,0,B|146:208|146:208|194:156,1,99.0000030212403,12|2,0:0|0:0,0:0:0:0:
220,116,218712,1,0,0:0:0:0:
220,116,218800,2,0,L|150:100,1,49.5000015106202,4|0,0:0|0:0,0:0:0:0:
104,94,218977,2,0,L|125:162,2,49.5000015106202,0|0|8,0:0|0:0|0:0,0:0:0:0:
14,12,219330,1,8,0:0:0:0:
140,36,219506,1,2,0:0:0:0:
168,42,219595,1,8,0:0:0:0:
196,49,219683,1,0,0:0:0:0:
323,32,219859,2,0,B|311:64|311:64|354:125,1,99.0000030212403,8|2,0:0|0:0,0:0:0:0:
432,212,220212,5,4,0:0:0:0:
404,216,220300,1,0,0:0:0:0:
376,220,220389,2,0,L|292:232,1,49.5000015106202,0|0,0:0|0:0,0:0:0:0:
304,288,220565,2,0,L|220:276,1,49.5000015106202,8|0,0:0|0:0,0:0:0:0:
192,276,220742,1,10,0:0:0:0:
192,276,220830,2,0,B|164:340|164:340|132:288,1,99.0000030212403,0|8,0:0|0:0,0:0:0:0:
94,278,221095,2,0,B|78:253|78:253|50:317,1,99.0000030212403,4|8,0:0|0:0,0:0:0:0:
136,67,221447,6,0,B|97:34|97:34|65:87,1,99.0000030212403,2|4,0:0|0:0,0:0:0:0:
80,140,221712,1,0,0:0:0:0:
108,136,221800,1,0,0:0:0:0:
136,132,221889,2,0,L|220:120,1,49.5000015106202,0|8,0:0|0:0,0:0:0:0:
209,64,222065,2,0,L|293:76,1,49.5000015106202,0|2,0:0|0:0,0:0:0:0:
320,48,222242,2,0,B|352:112|352:112|384:80,1,99.0000030212403,8|8,0:0|0:0,0:0:0:0:
396,71,222506,1,4,0:0:0:0:
512,173,222683,6,0,B|471:254|471:254|430:213,1,148.50000453186,8|0,0:0|0:0,0:0:0:0:
378,176,223036,1,4,0:0:0:0:
371,201,223124,1,0,0:0:0:0:
364,225,223212,2,0,B|355:253|355:253|302:261,1,49.5000015106202,4|0,0:0|0:0,0:0:0:0:
271,266,223389,2,0,B|251:268|251:268|242:296,1,49.5000015106202,8|0,0:0|0:0,0:0:0:0:
228,361,223565,1,2,0:0:0:0:
228,361,223653,2,0,B|179:371|179:371|129:339,1,99.0000030212403,8|8,0:0|0:0,0:0:0:0:
111,288,223918,2,0,B|80:298|80:298|58:330|58:330|16:340,1,99.0000030212403,4|8,0:0|0:0,0:0:0:0:
36,208,224271,5,2,0:0:0:0:
64,196,224359,1,0,0:0:0:0:
92,184,224447,2,0,B|112:176|112:176|136:128,1,49.5000015106202,4|0,0:0|0:0,0:0:0:0:
148,92,224624,2,0,B|160:66|160:66|180:58,1,49.5000015106202,4|0,0:0|0:0,0:0:0:0:
240,40,224800,1,8,0:0:0:0:
296,148,224977,1,8,0:0:0:0:
324,136,225065,1,0,0:0:0:0:
352,124,225153,2,0,B|383:108|383:108|376:200,1,99.0000030212403,2|4,0:0|0:0,0:0:0:0:
368,300,225506,1,8,0:0:0:0:
340,296,225595,1,0,0:0:0:0:
312,292,225683,1,2,0:0:0:0:
292,312,225771,1,0,0:0:0:0:
272,332,225859,6,0,L|164:320,1,99.0000030212403,4|4,0:0|0:0,0:0:0:0:
116,340,226124,1,0,0:0:0:0:
116,340,226212,2,0,B|140:316|140:316|96:224,1,99.0000030212403,8|2,0:0|0:0,0:0:0:0:
11,164,226565,1,4,0:0:0:0:
138,144,226742,1,0,0:0:0:0:
169,138,226830,1,0,0:0:0:0:
201,132,226918,1,8,0:0:0:0:
328,112,227095,1,2,0:0:0:0:
239,79,227272,5,4,0:0:0:0:
220,105,227360,1,0,0:0:0:0:
201,132,227448,1,0,0:0:0:0:
228,150,227536,1,0,0:0:0:0:
254,169,227624,2,0,L|262:234,1,49.5000015106202,8|0,0:0|0:0,0:0:0:0:
322,231,227800,2,0,L|330:296,1,49.5000015106202,10|0,0:0|0:0,0:0:0:0:
335,344,227977,5,2,0:0:0:0:
388,228,228153,1,4,0:0:0:0:
260,218,228330,1,8,0:0:0:0:
236,234,228419,1,0,0:0:0:0:
212,250,228507,1,2,0:0:0:0:
188,266,228595,1,0,0:0:0:0:
164,282,228683,6,0,B|114:278|114:278|68:336,1,99.0000030212403,4|4,0:0|0:0,0:0:0:0:
111,378,228947,1,0,0:0:0:0:
111,378,229036,2,0,B|161:382|161:382|207:324,1,99.0000030212403,8|2,0:0|0:0,0:0:0:0:
141,209,229389,5,2,0:0:0:0:
16,179,229565,1,4,0:0:0:0:
136,136,229742,1,8,0:0:0:0:
160,128,229830,1,0,0:0:0:0:
184,120,229918,2,0,B|211:112|211:112|232:64,1,49.5000015106202,2|0,0:0|0:0,0:0:0:0:
232,32,230095,1,0,0:0:0:0:
264,24,230183,1,0,0:0:0:0:
296,16,230271,1,0,0:0:0:0:
328,8,230359,1,0,0:0:0:0:
352,0,230447,6,0,L|357:65,1,49.5000015106202,8|0,0:0|0:0,0:0:0:0:
417,70,230624,2,0,L|422:135,1,49.5000015106202,8|0,0:0|0:0,0:0:0:0:
427,183,230800,1,2,0:0:0:0:
439,311,230977,1,0,0:0:0:0:
323,256,231153,2,0,B|321:229|321:229|219:288,1,99.0000030212403,8|2,0:0|0:0,0:0:0:0:
146,328,231506,5,4,0:0:0:0:
136,296,231595,1,0,0:0:0:0:
128,264,231683,2,0,B|120:236|120:236|148:196,1,49.5000015106202,0|0,0:0|0:0,0:0:0:0:
175,172,231859,2,0,L|158:111,1,49.5000015106202,8|0,0:0|0:0,0:0:0:0:
142,62,232036,1,2,0:0:0:0:
142,62,232124,2,0,B|134:34|134:34|218:70,1,99.0000030212403,8|8,0:0|0:0,0:0:0:0:
246,105,232389,2,0,B|265:87|265:87|308:97|308:97|360:82,1,99.0000030212403,0|8,0:0|0:0,0:0:0:0:
397,67,232653,1,0,0:0:0:0:
397,67,232742,1,2,0:0:0:0:
480,164,232918,5,4,0:0:0:0:
472,192,233006,1,0,0:0:0:0:
464,220,233095,2,0,B|472:248|472:248|460:268,1,49.5000015106202,4|0,0:0|0:0,0:0:0:0:
403,232,233271,2,0,L|375:160,1,49.5000015106202,8|0,0:0|0:0,0:0:0:0:
320,191,233447,1,2,0:0:0:0:
320,191,233536,2,0,B|338:240|338:240|274:246,1,99.0000030212403,8|8,0:0|0:0,0:0:0:0:
227,251,233800,1,4,0:0:0:0:
152,160,233977,1,8,0:0:0:0:
144,188,234065,1,0,0:0:0:0:
136,216,234153,1,2,0:0:0:0:
24,280,234330,5,4,0:0:0:0:
32,308,234418,1,0,0:0:0:0:
40,336,234506,2,0,B|68:328|68:328|112:340,1,49.5000015106202,4|0,0:0|0:0,0:0:0:0:
148,312,234683,2,0,L|224:332,1,49.5000015106202,8|0,0:0|0:0,0:0:0:0:
260,344,234859,1,2,0:0:0:0:
260,344,234947,2,0,B|292:352|292:352|268:268,1,99.0000030212403,8|8,0:0|0:0,0:0:0:0:
304,232,235212,1,4,0:0:0:0:
304,232,235300,2,0,B|288:172|288:172|384:248,1,148.50000453186,0|2,0:0|0:0,0:0:0:0:
475,272,235742,5,4,0:0:0:0:
468,304,235830,1,0,0:0:0:0:
460,336,235918,2,0,B|456:352|456:352|400:360,3,49.5000015106202,4|0|8|0,0:0|0:0|0:0|0:0,0:0:0:0:
360,360,236271,1,8,0:0:0:0:
360,360,236359,2,0,B|296:368|296:368|316:304,1,99.0000030212403,0|0,0:0|0:0,0:0:0:0:
324,272,236624,1,4,0:0:0:0:
372,108,236800,6,0,B|413:141|413:141|399:200,1,99.0000030212403,8|2,0:0|0:0,0:0:0:0:
343,208,237065,1,0,0:0:0:0:
343,208,237153,2,0,B|302:175|302:175|316:116,1,99.0000030212403,4|4,0:0|0:0,0:0:0:0:
340,4,237506,1,8,0:0:0:0:
436,88,237683,1,2,0:0:0:0:
312,129,237859,1,0,0:0:0:0:
280,125,237947,1,0,0:0:0:0:
248,121,238036,1,4,0:0:0:0:
216,117,238124,1,0,0:0:0:0:
184,113,238212,6,0,L|192:180,1,49.5000015106202,8|0,0:0|0:0,0:0:0:0:
140,204,238389,2,0,L|148:271,1,49.5000015106202,2|0,0:0|0:0,0:0:0:0:
156,316,238565,1,4,0:0:0:0:
124,312,238653,1,0,0:0:0:0:
92,308,238742,1,4,0:0:0:0:
60,304,238830,1,0,0:0:0:0:
28,300,238918,6,0,L|24:248,1,49.5000015106202,8|0,0:0|0:0,0:0:0:0:
20,188,239095,2,0,B|18:156|18:156|44:136,1,49.5000015106202,2|0,0:0|0:0,0:0:0:0:
80,103,239271,2,0,B|118:74|118:74|197:85,1,99.0000030212403,2|4,0:0|0:0,0:0:0:0:
295,99,239624,1,8,0:0:0:0:
307,75,239712,1,0,0:0:0:0:
319,51,239800,1,2,0:0:0:0:
440,20,239977,5,4,0:0:0:0:
452,44,240065,1,0,0:0:0:0:
464,68,240153,2,0,L|452:136,1,49.5000015106202,4|0,0:0|0:0,0:0:0:0:
404,156,240330,2,0,B|372:152|372:152|408:252,1,99.0000030212403,8|2,0:0|0:0,0:0:0:0:
452,244,240595,2,0,B|474:306|474:306|442:302,1,99.0000030212403,8|0,0:0|0:0,0:0:0:0:
378,292,240859,1,4,0:0:0:0:
252,280,241036,1,8,0:0:0:0:
240,304,241124,1,0,0:0:0:0:
228,328,241212,1,2,0:0:0:0:
102,359,241389,5,4,0:0:0:0:
114,335,241476,1,0,0:0:0:0:
126,311,241565,1,4,0:0:0:0:
110,287,241653,1,0,0:0:0:0:
94,263,241742,2,0,B|78:247|78:247|103:195,1,49.5000015106202,8|0,0:0|0:0,0:0:0:0:
116,164,241918,2,0,B|127:139|127:139|111:123,1,49.5000015106202,8|0,0:0|0:0,0:0:0:0:
63,80,242095,1,2,0:0:0:0:
172,13,242271,1,4,0:0:0:0:
205,136,242447,2,0,B|193:164|193:164|287:127,1,99.0000030212403,8|2,0:0|0:0,0:0:0:0:
408,96,242800,5,4,0:0:0:0:
416,120,242889,1,0,0:0:0:0:
424,144,242977,2,0,B|432:168|432:168|405:208,1,49.5000015106202,0|0,0:0|0:0,0:0:0:0:
354,194,243153,2,0,L|372:244,1,49.5000015106202,8|0,0:0|0:0,0:0:0:0:
395,303,243330,1,2,0:0:0:0:
395,303,243418,2,0,B|412:359|412:359|354:345,1,99.0000030212403,8|8,0:0|0:0,0:0:0:0:
310,338,243683,2,0,B|286:335|286:335|264:346,2,49.5000015106202,0|0|8,0:0|0:0|0:0,0:0:0:0:
185,380,244036,5,2,0:0:0:0:
64,336,244212,1,4,0:0:0:0:
72,312,244300,1,0,0:0:0:0:
80,288,244389,2,0,B|89:255|89:255|134:233,1,49.5000015106202,4|0,0:0|0:0,0:0:0:0:
167,245,244565,2,0,L|152:179,1,49.5000015106202,8|0,0:0|0:0,0:0:0:0:
141,133,244742,1,2,0:0:0:0:
141,133,244830,2,0,B|129:67|129:67|170:90,1,99.0000030212403,8|8,0:0|0:0,0:0:0:0:
212,115,245095,1,4,0:0:0:0:
307,29,245271,5,8,0:0:0:0:
307,29,245359,2,0,B|311:13|311:13|351:33|351:33|367:85,1,99.0000030212403,0|0,0:0|0:0,0:0:0:0:
379,129,245624,1,4,0:0:0:0:
384,153,245712,1,0,0:0:0:0:
390,178,245800,2,0,B|395:201|395:201|432:230,1,49.5000015106202,4|0,0:0|0:0,0:0:0:0:
471,250,245977,2,0,B|491:266|491:266|496:289,1,49.5000015106202,8|0,0:0|0:0,0:0:0:0:
499,359,246153,1,2,0:0:0:0:
499,359,246242,2,0,B|439:335|439:335|391:360,1,99.0000030212403,8|8,0:0|0:0,0:0:0:0:
369,299,246506,2,0,L|313:329,1,49.5000015106202,4|0,0:0|0:0,0:0:0:0:
271,358,246683,2,0,B|211:334|211:334|163:359,1,99.0000030212403,8|2,0:0|0:0,0:0:0:0:
47,352,247036,5,4,0:0:0:0:
31,257,247212,1,4,0:0:0:0:
131,272,247389,5,8,0:0:0:0:
114,177,247565,1,8,0:0:0:0:
214,192,247742,5,10,0:0:0:0:
198,98,247918,1,4,0:0:0:0:
181,3,248095,1,8,0:0:0:0:
214,192,248447,5,2,0:0:0:0:
214,192,248800,1,2,0:0:0:0:
449,324,251271,5,2,0:0:0:0:
360,261,251624,1,2,0:0:0:0:
54,172,252330,2,0,B|70:143|59:107|59:107|95:127|175:164|225:54|225:54|204:102|205:170|299:208|343:118|297:86,1,506.250019311906,2|0,0:0|0:0,0:0:0:0:
283,72,253742,1,2,0:0:0:0:
374,128,254095,1,2,0:0:0:0:
472,31,256918,6,0,B|465:83|465:83|457:97|457:97|444:190,1,135.000005149842,2|2,0:0|0:0,0:0:0:0:
410,342,257977,2,0,B|379:357|271:353|259:236|272:213|303:222|304:211|291:205|283:200|351:202|343:207|327:212|325:222|358:234|365:258|299:336|266:321|226:271|226:271|205:313|151:302,1,506.250019311906,2|0,0:0|0:0,0:0:0:0:
132,298,259389,1,2,0:0:0:0:
23,353,259742,1,2,0:0:0:0:
278,37,262565,5,2,0:0:0:0:
278,37,262918,1,2,0:0:0:0:
445,70,263624,2,0,B|489:101|445:191|351:153|350:85|371:37|371:37|321:147|241:110|205:90|205:90|216:126|200:155,1,506.250019311906,2|0,0:0|0:0,0:0:0:0:
189,178,265036,1,2,0:0:0:0:
100,115,265389,1,2,0:0:0:0:
109,365,268212,6,0,B|102:310|102:310|88:286|88:286|80:211,1,135.000005149842,2|2,0:0|0:0,0:0:0:0:
66,103,269271,2,0,B|128:105|118:50|118:50|147:82|177:110|241:76|237:29|237:29|248:76|246:116|246:116|266:83|298:57|365:76|365:130|351:167,1,506.250019311906,2|0,0:0|0:0,0:0:0:0:
353,168,270683,1,2,0:0:0:0:
212,213,271036,5,4,0:0:0:0:
116,245,271212,1,0,0:0:0:0:
148,341,271389,1,8,0:0:0:0:
247,313,271565,1,0,0:0:0:0:
247,313,271653,1,0,0:0:0:0:
247,313,271742,1,0,0:0:0:0:
148,341,271918,2,0,B|115:326|115:326|35:362,2,90,8|0|4,0:0|0:0|0:0,0:0:0:0:
116,245,272447,5,4,0:0:0:0:
212,213,272624,1,0,0:0:0:0:
216,201,272712,1,0,0:0:0:0:
220,189,272800,1,8,0:0:0:0:
243,94,272977,1,0,0:0:0:0:
339,66,273153,1,0,0:0:0:0:
323,166,273330,2,0,B|371:150|371:150|431:182,2,90,8|0|4,0:0|0:0|0:0,0:0:0:0:
243,94,273859,6,0,L|174:35,1,90,4|0,0:0|0:0,0:0:0:0:
147,130,274212,2,0,L|130:218,1,90,8|0,0:0|0:0,0:0:0:0:
123,270,274477,1,0,0:0:0:0:
123,270,274565,1,0,0:0:0:0:
219,238,274742,2,0,B|269:220|269:220|319:246,2,90,8|0|4,0:0|0:0|0:0,0:0:0:0:
195,334,275271,5,4,0:0:0:0:
299,322,275447,1,0,0:0:0:0:
299,322,275536,1,0,0:0:0:0:
299,322,275624,2,0,L|203:322,1,90,8|0,0:0|0:0,0:0:0:0:
311,222,275977,1,4,0:0:0:0:
207,234,276153,2,0,L|303:234,2,90,8|0|8,0:0|0:0|0:0,0:0:0:0:
255,66,276683,5,4,0:0:0:0:
255,66,276771,1,0,0:0:0:0:
255,66,276859,2,0,L|255:130,1,45,0|0,0:0|0:0,0:0:0:0:
207,142,277036,2,0,L|335:142,1,90,8|0,0:0|0:0,0:0:0:0:
383,106,277389,1,4,0:0:0:0:
383,206,277565,2,0,B|383:242|383:242|371:262|371:262|371:326,2,90,8|0|4,0:0|0:0|0:0,0:0:0:0:
439,290,278095,5,4,0:0:0:0:
315,210,278271,1,0,0:0:0:0:
311,222,278359,1,0,0:0:0:0:
307,234,278447,1,8,0:0:0:0:
275,330,278624,1,0,0:0:0:0:
239,234,278800,1,4,0:0:0:0:
207,330,278977,2,0,B|167:330|167:330|111:366,2,90,8|0|4,0:0|0:0|0:0,0:0:0:0:
63,294,279506,6,0,B|35:258|35:258|75:210,1,90,4|0,0:0|0:0,0:0:0:0:
143,158,279859,2,0,B|171:194|171:194|131:242,1,90,8|0,0:0|0:0,0:0:0:0:
119,258,280124,1,0,0:0:0:0:
119,258,280212,1,4,0:0:0:0:
63,166,280389,2,0,B|35:130|35:130|75:82,1,90,8|0,0:0|0:0,0:0:0:0:
131,22,280742,5,4,0:0:0:0:
135,34,280830,1,0,0:0:0:0:
139,46,280918,1,4,0:0:0:0:
231,82,281095,1,0,0:0:0:0:
323,114,281271,2,0,L|413:114,1,90,8|0,0:0|0:0,0:0:0:0:
239,174,281624,1,4,0:0:0:0:
331,206,281800,2,0,L|421:206,2,90,8|0|8,0:0|0:0|0:0,0:0:0:0:
443,346,282330,6,0,B|471:314|471:314|443:250,1,90,4|0,0:0|0:0,0:0:0:0:
421,206,282683,2,0,L|381:114,1,90,8|0,0:0|0:0,0:0:0:0:
371,90,282947,1,0,0:0:0:0:
371,90,283036,1,0,0:0:0:0:
169,23,283212,2,0,B|141:55|141:55|169:119,1,90,8|0,0:0|0:0,0:0:0:0:
271,147,283565,1,4,0:0:0:0:
271,147,283653,1,0,0:0:0:0:
271,147,283742,6,0,L|271:57,1,90,4|0,0:0|0:0,0:0:0:0:
182,202,284095,2,0,B|148:173|148:173|86:202,1,90,8|0,0:0|0:0,0:0:0:0:
73,212,284359,1,0,0:0:0:0:
73,212,284447,1,0,0:0:0:0:
125,351,284624,2,0,L|137:245,1,90,8|0,0:0|0:0,0:0:0:0:
155,103,284977,1,4,0:0:0:0:
309,162,285153,6,0,L|202:150,1,90,4|0,0:0|0:0,0:0:0:0:
155,103,285506,2,0,L|208:30,1,90,8|0,0:0|0:0,0:0:0:0:
231,2,285771,1,0,0:0:0:0:
231,2,285859,1,0,0:0:0:0:
338,86,286036,2,0,L|302:3,2,90,8|0|4,0:0|0:0|0:0,0:0:0:0:
398,192,286565,5,4,0:0:0:0:
406,288,286742,1,0,0:0:0:0:
406,304,286830,1,0,0:0:0:0:
406,320,286918,1,8,0:0:0:0:
302,168,287095,1,0,0:0:0:0:
310,264,287271,1,4,0:0:0:0:
206,144,287447,1,8,0:0:0:0:
214,240,287624,6,0,B|173:229|173:229|183:312,1,90,0|8,0:0|0:0,0:0:0:0:
86,314,287977,2,0,B|91:361|91:361|50:351,1,90,4|0,0:0|0:0,0:0:0:0:
2,337,288242,1,0,0:0:0:0:
2,337,288330,2,0,L|68:267,1,90,8|0,0:0|0:0,0:0:0:0:
92,247,288595,1,0,0:0:0:0:
92,247,288683,1,4,0:0:0:0:
27,174,288859,2,0,L|93:104,1,90,8|0,0:0|0:0,0:0:0:0:
179,150,289212,1,4,0:0:0:0:
191,158,289300,1,0,0:0:0:0:
203,166,289389,6,0,B|231:130|231:130|295:130,1,90,4|0,0:0|0:0,0:0:0:0:
279,226,289742,1,8,0:0:0:0:
367,182,289918,1,0,0:0:0:0:
367,170,290006,1,0,0:0:0:0:
367,158,290095,1,4,0:0:0:0:
439,50,290271,2,0,B|411:86|411:86|347:86,1,90,8|0,0:0|0:0,0:0:0:0:
451,158,290624,1,4,0:0:0:0:
451,170,290712,1,0,0:0:0:0:
451,181,290800,6,0,L|451:277,1,90,4|0,0:0|0:0,0:0:0:0:
367,214,291153,2,0,B|366:258|366:258|315:298,1,90,8|0,0:0|0:0,0:0:0:0:
255,350,291506,1,4,0:0:0:0:
143,214,291683,2,0,B|143:258|143:258|179:286,2,90,8|0|8,0:0|0:0|0:0,0:0:0:0:
256,192,293271,5,0,0:0:0:0:
37,16,293624,5,4,0:0:0:0:
163,36,293800,1,0,0:0:0:0:
18,143,293977,1,8,0:0:0:0:
144,163,294153,1,0,0:0:0:0:
167,186,294242,1,0,0:0:0:0:
181,215,294330,1,2,0:0:0:0:
183,248,294418,1,0,0:0:0:0:
174,280,294506,2,0,P|189:316|224:338,1,49.5000015106202,8|0,0:0|0:0,0:0:0:0:
220,340,294683,1,2,0:0:0:0:
249,353,294771,1,0,0:0:0:0:
282,356,294859,1,0,0:0:0:0:
314,347,294947,1,0,0:0:0:0:
340,328,295036,6,0,B|392:306|458:345,1,99.0000030212403,4|4,0:0|0:0,0:0:0:0:
492,371,295300,1,0,0:0:0:0:
492,371,295389,1,8,0:0:0:0:
438,218,295565,1,2,0:0:0:0:
406,226,295653,1,0,0:0:0:0:
373,222,295742,1,0,0:0:0:0:
344,208,295830,1,0,0:0:0:0:
321,184,295918,2,0,L|255:217,1,49.5000015106202,8|0,0:0|0:0,0:0:0:0:
307,119,296095,2,0,L|233:118,1,49.5000015106202,8|8,0:0|0:0,0:0:0:0:
333,58,296271,2,0,L|269:20,1,49.5000015106202,8|8,0:0|0:0,0:0:0:0:
226,35,296447,6,0,B|197:19|197:19|206:93,1,99.0000030212403,4|4,0:0|0:0,0:0:0:0:
221,212,296800,2,0,B|228:277|228:277|199:261,1,99.0000030212403,8|0,0:0|0:0,0:0:0:0:
168,252,297065,1,0,0:0:0:0:
135,255,297153,1,2,0:0:0:0:
106,270,297242,1,0,0:0:0:0:
85,295,297330,2,0,P|77:324|84:361,1,49.5000015106202,8|0,0:0|0:0,0:0:0:0:
16,360,297506,2,0,P|36:316|22:263,1,99.0000030212403,2|2,0:0|0:0,0:0:0:0:
3,141,297859,6,0,B|23:77|23:77|53:115,1,99.0000030212403,4|0,0:0|0:0,0:0:0:0:
80,157,298124,1,0,0:0:0:0:
80,157,298212,1,8,0:0:0:0:
177,61,298389,1,2,0:0:0:0:
176,93,298477,1,0,0:0:0:0:
189,123,298565,1,0,0:0:0:0:
213,145,298653,1,0,0:0:0:0:
244,155,298742,2,0,P|273:157|309:129,1,49.5000015106202,8|0,0:0|0:0,0:0:0:0:
333,96,298918,2,0,P|334:66|305:31,1,49.5000015106202,8|8,0:0|0:0,0:0:0:0:
275,4,299095,2,0,P|245:3|210:32,1,49.5000015106202,8|8,0:0|0:0,0:0:0:0:
257,80,299271,6,0,L|349:151,1,99.0000030212403,4|0,0:0|0:0,0:0:0:0:
493,0,299624,2,0,P|444:3|407:34,1,99.0000030212403,8|0,0:0|0:0,0:0:0:0:
394,66,299889,1,0,0:0:0:0:
392,99,299977,1,2,0:0:0:0:
400,130,300065,1,0,0:0:0:0:
418,158,300153,2,0,P|430:180|430:221,1,49.5000015106202,8|0,0:0|0:0,0:0:0:0:
433,236,300330,1,2,0:0:0:0:
424,268,300418,1,0,0:0:0:0:
405,295,300506,1,0,0:0:0:0:
378,314,300595,1,0,0:0:0:0:
346,323,300683,6,0,P|300:320|229:348,1,99.0000030212403,4|0,0:0|0:0,0:0:0:0:
200,372,300947,1,0,0:0:0:0:
200,372,301036,1,8,0:0:0:0:
48,339,301212,1,2,0:0:0:0:
56,307,301300,1,0,0:0:0:0:
48,275,301389,1,0,0:0:0:0:
56,243,301477,1,0,0:0:0:0:
48,211,301565,2,0,L|48:155,1,49.5000015106202,12|0,0:0|0:0,0:0:0:0:
8,114,301742,2,0,L|8:58,1,49.5000015106202,12|4,0:0|0:0,0:0:0:0:
19,34,301918,1,0,0:0:0:0:
45,14,302006,1,0,0:0:0:0:
77,12,302095,6,0,B|127:12|127:12|111:95,1,99.0000030212403,4|0,0:0|0:0,0:0:0:0:
48,162,302447,2,0,B|-1:162|-1:162|8:114,1,99.0000030212403,8|0,0:0|0:0,0:0:0:0:
36,97,302712,1,0,0:0:0:0:
69,94,302800,1,2,0:0:0:0:
100,103,302889,1,0,0:0:0:0:
125,124,302977,2,0,P|143:143|158:196,1,49.5000015106202,8|0,0:0|0:0,0:0:0:0:
182,221,303153,6,0,P|191:190|237:142,1,99.0000030212403,0|0,0:0|0:0,0:0:0:0:
300,121,303418,1,0,0:0:0:0:
300,121,303506,1,4,0:0:0:0:
408,48,303683,1,0,0:0:0:0:
388,36,303771,1,0,0:0:0:0:
368,24,303859,1,8,0:0:0:0:
408,148,304036,1,2,0:0:0:0:
428,136,304124,1,0,0:0:0:0:
448,124,304212,2,0,B|472:110|472:110|512:124,2,49.5000015106202,0|0|8,0:0|0:0|0:0,0:0:0:0:
336,200,304565,5,2,0:0:0:0:
315,225,304653,1,2,0:0:0:0:
309,257,304742,1,2,0:0:0:0:
319,288,304830,1,2,0:0:0:0:
343,310,304918,2,0,L|480:336,1,99.0000030212403,4|0,0:0|0:0,0:0:0:0:
272,360,305271,2,0,L|135:333,1,99.0000030212403,8|0,0:0|0:0,0:0:0:0:
142,336,305536,1,0,0:0:0:0:
109,341,305624,1,2,0:0:0:0:
80,355,305712,1,0,0:0:0:0:
56,378,305800,1,8,0:0:0:0:
2,261,305977,2,0,B|35:281|35:281|107:246,1,99.0000030212403,2|0,0:0|0:0,0:0:0:0:
149,226,306242,1,0,0:0:0:0:
149,226,306330,1,4,0:0:0:0:
100,104,306506,5,0,0:0:0:0:
120,116,306595,1,0,0:0:0:0:
140,128,306683,1,8,0:0:0:0:
89,4,306859,1,2,0:0:0:0:
69,16,306948,1,0,0:0:0:0:
49,28,307036,2,0,B|31:39|31:39|24:73,1,49.5000015106202,0|0,0:0|0:0,0:0:0:0:
35,126,307212,2,0,L|21:194,1,49.5000015106202,8|0,0:0|0:0,0:0:0:0:
40,232,307389,1,8,0:0:0:0:
48,264,307477,1,8,0:0:0:0:
56,296,307565,1,8,0:0:0:0:
64,328,307653,1,8,0:0:0:0:
72,360,307742,6,0,B|112:304|112:304|144:352,1,99.0000030212403,4|0,0:0|0:0,0:0:0:0:
232,240,308095,2,0,B|192:296|192:296|160:248,1,99.0000030212403,8|0,0:0|0:0,0:0:0:0:
164,239,308359,1,0,0:0:0:0:
167,207,308447,1,2,0:0:0:0:
181,177,308536,1,0,0:0:0:0:
206,156,308624,2,0,P|237:141|280:146,1,49.5000015106202,8|0,0:0|0:0,0:0:0:0:
314,154,308800,2,0,P|360:201|356:267,1,99.0000030212403,2|0,0:0|0:0,0:0:0:0:
350,297,309065,1,0,0:0:0:0:
350,297,309153,1,4,0:0:0:0:
480,304,309330,5,0,0:0:0:0:
464,320,309418,1,0,0:0:0:0:
448,336,309506,1,8,0:0:0:0:
448,200,309683,1,2,0:0:0:0:
464,216,309771,1,0,0:0:0:0:
480,232,309859,2,0,L|488:168,1,49.5000015106202,0|0,0:0|0:0,0:0:0:0:
456,128,310036,2,0,L|464:64,1,49.5000015106202,8|0,0:0|0:0,0:0:0:0:
432,24,310212,1,8,0:0:0:0:
400,40,310300,1,8,0:0:0:0:
368,56,310389,1,8,0:0:0:0:
336,72,310477,1,8,0:0:0:0:
304,88,310565,6,0,L|200:64,1,99.0000030212403,4|0,0:0|0:0,0:0:0:0:
351,177,310918,2,0,L|455:201,1,99.0000030212403,8|0,0:0|0:0,0:0:0:0:
494,254,311183,1,0,0:0:0:0:
494,254,311271,2,0,L|430:268,1,49.5000015106202,2|0,0:0|0:0,0:0:0:0:
418,322,311447,2,0,L|486:339,2,49.5000015106202,8|0|0,0:0|0:0|0:0,0:0:0:0:
290,342,311800,5,0,0:0:0:0:
306,326,311889,1,0,0:0:0:0:
322,310,311977,1,4,0:0:0:0:
234,262,312153,1,0,0:0:0:0:
219,244,312242,1,0,0:0:0:0:
204,227,312330,1,8,0:0:0:0:
160,336,312506,1,2,0:0:0:0:
136,336,312595,1,0,0:0:0:0:
112,336,312683,1,0,0:0:0:0:
88,336,312771,1,0,0:0:0:0:
64,336,312859,2,0,L|80:288,1,49.5000015106202,12|0,0:0|0:0,0:0:0:0:
26,251,313036,2,0,L|42:203,1,49.5000015106202,12|0,0:0|0:0,0:0:0:0:
61,143,313212,1,0,0:0:0:0:
237,185,313389,6,0,B|192:204|192:204|107:168,1,99.0000030212403,4|0,0:0|0:0,0:0:0:0:
90,18,313742,2,0,B|135:-1|135:-1|181:18,1,99.0000030212403,8|0,0:0|0:0,0:0:0:0:
210,34,314006,1,0,0:0:0:0:
242,38,314095,1,2,0:0:0:0:
274,29,314183,1,0,0:0:0:0:
300,8,314271,2,0,L|360:35,1,49.5000015106202,8|0,0:0|0:0,0:0:0:0:
403,54,314447,2,0,B|429:67|429:67|355:95,1,99.0000030212403,2|0,0:0|0:0,0:0:0:0:
256,104,314800,5,4,0:0:0:0:
256,216,314977,1,0,0:0:0:0:
256,244,315065,1,0,0:0:0:0:
256,272,315153,1,8,0:0:0:0:
206,155,315330,1,2,0:0:0:0:
231,129,315418,1,0,0:0:0:0:
256,104,315506,1,0,0:0:0:0:
282,129,315595,1,0,0:0:0:0:
307,155,315683,1,8,0:0:0:0:
307,333,315859,1,2,0:0:0:0:
282,359,315947,1,2,0:0:0:0:
256,384,316035,1,2,0:0:0:0:
231,359,316124,1,2,0:0:0:0:
206,332,316212,6,0,B|174:296|174:296|110:318,1,99.0000030212403,4|0,0:0|0:0,0:0:0:0:
4,356,316565,1,8,0:0:0:0:
60,246,316742,1,0,0:0:0:0:
64,213,316830,1,0,0:0:0:0:
58,181,316918,1,2,0:0:0:0:
42,152,317006,1,0,0:0:0:0:
18,130,317095,2,0,L|68:112,1,49.5000015106202,8|0,0:0|0:0,0:0:0:0:
68,49,317271,2,0,L|120:58,1,49.5000015106202,2|0,0:0|0:0,0:0:0:0:
147,114,317447,2,0,L|193:87,1,49.5000015106202,0|0,0:0|0:0,0:0:0:0:
244,54,317624,5,4,0:0:0:0:
359,26,317800,1,0,0:0:0:0:
391,31,317889,1,0,0:0:0:0:
416,52,317977,1,8,0:0:0:0:
362,219,318153,1,2,0:0:0:0:
329,224,318242,1,0,0:0:0:0:
298,215,318330,1,0,0:0:0:0:
272,195,318418,1,0,0:0:0:0:
258,165,318506,1,12,0:0:0:0:
448,160,318683,5,8,0:0:0:0:
452,192,318771,1,8,0:0:0:0:
456,224,318859,1,8,0:0:0:0:
460,256,318947,1,8,0:0:0:0:
464,288,319036,2,0,B|470:336|470:336|404:324,1,99.0000030212403,4|0,0:0|0:0,0:0:0:0:
328,235,319389,2,0,B|278:225|278:225|284:273,1,99.0000030212403,8|0,0:0|0:0,0:0:0:0:
156,293,319742,1,2,0:0:0:0:
69,197,319918,1,8,0:0:0:0:
97,203,320006,1,0,0:0:0:0:
125,209,320095,2,0,B|175:219|175:219|169:171,1,99.0000030212403,2|0,0:0|0:0,0:0:0:0:
151,34,320447,5,4,0:0:0:0:
58,104,320624,1,0,0:0:0:0:
66,128,320712,1,0,0:0:0:0:
74,152,320800,2,0,B|82:176|82:176|50:232,1,49.5000015106202,8|0,0:0|0:0,0:0:0:0:
38,253,320977,1,2,0:0:0:0:
43,277,321065,1,0,0:0:0:0:
48,302,321153,2,0,B|53:326|53:326|108:359,1,49.5000015106202,0|0,0:0|0:0,0:0:0:0:
137,324,321330,2,0,L|197:355,1,49.5000015106202,8|0,0:0|0:0,0:0:0:0:
213,353,321506,1,8,0:0:0:0:
245,348,321595,1,8,0:0:0:0:
274,333,321683,1,8,0:0:0:0:
297,309,321771,1,8,0:0:0:0:
309,279,321859,5,4,0:0:0:0:
206,201,322036,1,0,0:0:0:0:
333,185,322212,1,8,0:0:0:0:
228,108,322389,1,0,0:0:0:0:
240,84,322477,1,0,0:0:0:0:
252,60,322565,2,0,B|262:43|262:43|301:79,1,49.5000015106202,2|0,0:0|0:0,0:0:0:0:
341,34,322742,2,0,L|401:86,1,49.5000015106202,8|0,0:0|0:0,0:0:0:0:
401,89,322918,1,2,0:0:0:0:
415,119,323006,1,0,0:0:0:0:
420,151,323095,1,0,0:0:0:0:
413,184,323183,1,0,0:0:0:0:
397,212,323271,5,4,0:0:0:0:
464,312,323447,1,0,0:0:0:0:
440,332,323536,1,0,0:0:0:0:
416,352,323624,2,0,B|395:369|395:369|355:339,1,49.5000015106202,8|0,0:0|0:0,0:0:0:0:
311,340,323800,2,0,B|270:308|270:308|217:349,1,99.0000030212403,2|0,0:0|0:0,0:0:0:0:
172,353,324065,1,0,0:0:0:0:
172,353,324153,2,0,B|150:368|150:368|111:339,1,49.5000015106202,8|0,0:0|0:0,0:0:0:0:
76,319,324330,2,0,B|50:319|50:319|7:348,2,49.5000015106202,8|0|0,0:0|0:0|0:0,0:0:0:0:
228,242,324683,6,0,B|251:215|251:215|183:201,1,99.0000030212403,4|0,0:0|0:0,0:0:0:0:
62,174,325036,2,0,B|0:161|0:161|22:134,1,99.0000030212403,8|0,0:0|0:0,0:0:0:0:
84,111,325300,1,0,0:0:0:0:
84,111,325389,2,0,L|138:48,1,49.5000015106202,2|0,0:0|0:0,0:0:0:0:
158,25,325565,1,8,0:0:0:0:
264,104,325742,5,2,0:0:0:0:
208,216,325918,1,0,0:0:0:0:
232,200,326006,1,0,0:0:0:0:
256,184,326095,1,4,0:0:0:0:
248,336,326271,1,0,0:0:0:0:
224,320,326359,1,0,0:0:0:0:
200,304,326447,2,0,L|272:288,1,49.5000015106202,8|0,0:0|0:0,0:0:0:0:
288,241,326624,2,0,L|358:263,1,49.5000015106202,2|0,0:0|0:0,0:0:0:0:
376,304,326800,2,0,L|438:264,1,49.5000015106202,0|0,0:0|0:0,0:0:0:0:
472,240,326977,1,8,0:0:0:0:
432,120,327153,5,2,0:0:0:0:
400,128,327242,1,2,0:0:0:0:
368,123,327330,1,2,0:0:0:0:
340,105,327418,1,2,0:0:0:0:
324,77,327506,6,0,B|312:56|312:56|196:77,1,99.0000030212403,4|0,0:0|0:0,0:0:0:0:
111,94,327859,2,0,B|143:89|143:89|106:195,1,99.0000030212403,8|0,0:0|0:0,0:0:0:0:
69,270,328212,1,2,0:0:0:0:
199,263,328389,1,8,0:0:0:0:
173,251,328477,1,0,0:0:0:0:
147,238,328565,1,2,0:0:0:0:
276,173,328742,1,0,0:0:0:0:
274,202,328830,1,0,0:0:0:0:
272,230,328918,1,4,0:0:0:0:
397,167,329095,1,0,0:0:0:0:
372,155,329183,1,0,0:0:0:0:
346,142,329271,5,8,0:0:0:0:
465,94,329447,1,2,0:0:0:0:
512,213,329624,1,0,0:0:0:0:
393,261,329800,1,8,0:0:0:0:
465,94,329977,1,8,0:0:0:0:
429,100,330065,1,8,0:0:0:0:
393,96,330153,1,8,0:0:0:0:
361,79,330242,1,8,0:0:0:0:
335,53,330330,6,0,B|322:27|322:27|296:97,1,99.0000030212403,4|0,0:0|0:0,0:0:0:0:
249,212,330683,2,0,B|224:277|224:277|211:251,1,99.0000030212403,8|0,0:0|0:0,0:0:0:0:
179,199,330947,1,0,0:0:0:0:
179,199,331036,1,2,0:0:0:0:
264,344,331212,1,8,0:0:0:0:
276,316,331300,1,0,0:0:0:0:
288,288,331389,2,0,B|305:241|305:241|391:276,1,99.0000030212403,2|0,0:0|0:0,0:0:0:0:
469,308,331742,5,4,0:0:0:0:
320,368,331918,1,0,0:0:0:0:
292,356,332006,1,0,0:0:0:0:
264,344,332095,2,0,B|240:336|240:336|200:360,1,49.5000015106202,8|0,0:0|0:0,0:0:0:0:
164,380,332271,2,0,B|143:392|143:392|119:384,1,49.5000015106202,2|0,0:0|0:0,0:0:0:0:
92,324,332447,2,0,L|28:304,2,49.5000015106202,0|0|8,0:0|0:0|0:0,0:0:0:0:
88,128,332800,6,0,B|53:165|53:165|69:226,1,99.0000030212403,0|0,0:0|0:0,0:0:0:0:
128,230,333065,1,8,0:0:0:0:
128,230,333153,2,0,B|162:192|162:192|146:131,1,99.0000030212403,4|0,0:0|0:0,0:0:0:0:
8,4,333506,2,0,L|120:48,1,99.0000030212403,8|0,0:0|0:0,0:0:0:0:
164,68,333771,1,0,0:0:0:0:
164,68,333859,1,2,0:0:0:0:
296,60,334036,1,0,0:0:0:0:
308,40,334124,1,0,0:0:0:0:
320,20,334212,2,0,L|336:104,1,49.5000015106202,8|0,0:0|0:0,0:0:0:0:
388,94,334389,2,0,L|372:178,1,49.5000015106202,0|0,0:0|0:0,0:0:0:0:
364,205,334565,5,4,0:0:0:0:
444,304,334742,1,0,0:0:0:0:
472,292,334830,1,0,0:0:0:0:
500,280,334918,1,8,0:0:0:0:
340,296,335095,2,0,B|328:344|328:344|392:396,1,99.0000030212403,2|0,0:0|0:0,0:0:0:0:
276,232,335447,1,0,0:0:0:0:
251,210,335536,1,0,0:0:0:0:
218,208,335624,2,0,L|192:144,1,49.5000015106202,8|0,0:0|0:0,0:0:0:0:
176,104,335800,1,0,0:0:0:0:
253,30,335977,6,0,P|284:67|286:115,1,99.0000030212403,4|0,0:0|0:0,0:0:0:0:
102,176,336330,2,0,P|70:138|68:90,1,99.0000030212403,0|8,0:0|0:0,0:0:0:0:
176,104,336683,1,2,0:0:0:0:
193,131,336771,1,0,0:0:0:0:
202,163,336859,1,0,0:0:0:0:
199,196,336947,1,0,0:0:0:0:
187,226,337036,2,0,P|177:243|112:277,1,49.5000015106202,8|0,0:0|0:0,0:0:0:0:
97,290,337212,1,0,0:0:0:0:
70,190,337389,5,4,0:0:0:0:
217,322,337653,1,4,0:0:0:0:
29,384,337918,1,4,0:0:0:0:
258,128,338271,5,4,0:0:0:0:
359,55,338447,2,0,L|348:124,1,49.5000015106202,2|2,0:0|0:0,0:0:0:0:
407,136,338624,2,0,L|420:204,1,49.5000015106202,2|2,0:0|0:0,0:0:0:0:
430,251,338800,5,4,0:0:0:0:
440,292,338889,1,0,0:0:0:0:
400,280,338977,1,0,0:0:0:0:
360,268,339065,1,0,0:0:0:0:
320,256,339153,1,8,0:0:0:0:
245,169,339330,1,0,0:0:0:0:
235,129,339418,1,8,0:0:0:0:
205,279,339595,1,8,0:0:0:0:
175,308,339683,1,12,0:0:0:0:
66,375,339859,1,2,0:0:0:0:
66,375,339947,2,0,B|7:337|7:337|58:319,1,107.999996704102,8|0,0:0|0:0,0:0:0:0:
72,307,340212,5,4,0:0:0:0:
96,280,340300,1,0,0:0:0:0:
110,248,340389,1,0,0:0:0:0:
112,212,340477,1,0,0:0:0:0:
102,178,340565,1,8,0:0:0:0:
59,58,340742,1,8,0:0:0:0:
59,58,340830,2,0,P|126:54|180:100,1,107.999996704102,8|8,0:0|0:0,0:0:0:0:
208,117,341095,1,4,0:0:0:0:
250,246,341271,1,0,0:0:0:0:
250,246,341359,2,0,B|236:236|236:236|268:206|268:206|323:208,1,107.999996704102,8|0,0:0|0:0,0:0:0:0:
350,206,341624,5,4,0:0:0:0:
383,191,341712,1,0,0:0:0:0:
407,165,341800,1,0,0:0:0:0:
420,131,341889,1,0,0:0:0:0:
419,96,341977,1,8,0:0:0:0:
292,70,342153,1,0,0:0:0:0:
262,41,342241,1,8,0:0:0:0:
147,170,342418,1,0,0:0:0:0:
182,169,342506,1,4,0:0:0:0:
216,182,342595,1,0,0:0:0:0:
242,206,342683,2,0,B|267:232|267:232|373:201,1,107.999996704102,8|0,0:0|0:0,0:0:0:0:
453,302,343036,5,4,0:0:0:0:
462,261,343125,1,0,0:0:0:0:
422,273,343213,1,0,0:0:0:0:
382,285,343301,1,0,0:0:0:0:
342,297,343389,1,8,0:0:0:0:
220,340,343565,1,8,0:0:0:0:
180,352,343653,1,0,0:0:0:0:
140,364,343742,2,0,B|96:376|96:376|114:317,1,107.999996704102,2|0,0:0|0:0,0:0:0:0:
152,192,344095,1,2,0:0:0:0:
148,156,344184,1,2,0:0:0:0:
133,123,344272,1,2,0:0:0:0:
107,98,344360,1,2,0:0:0:0:
58,110,344447,5,4,0:0:0:0:
32,65,344536,1,0,0:0:0:0:
66,26,344624,1,0,0:0:0:0:
113,47,344712,1,0,0:0:0:0:
107,98,344800,1,8,0:0:0:0:
152,192,344977,1,0,0:0:0:0:
152,192,345065,2,0,B|171:228|171:228|205:144,1,107.999996704102,8|0,0:0|0:0,0:0:0:0:
211,133,345330,1,8,0:0:0:0:
237,109,345418,1,0,0:0:0:0:
272,98,345506,1,10,0:0:0:0:
395,138,345683,1,2,0:0:0:0:
296,220,345859,5,4,0:0:0:0:
308,252,345947,1,0,0:0:0:0:
320,284,346036,1,0,0:0:0:0:
332,316,346124,1,0,0:0:0:0:
344,348,346212,2,0,B|352:368|352:368|392:308,1,53.9999983520508,8|0,0:0|0:0,0:0:0:0:
407,288,346389,1,0,0:0:0:0:
407,288,346477,2,0,P|428:348|489:326,1,107.999996704102,8|8,0:0|0:0,0:0:0:0:
508,300,346742,1,12,0:0:0:0:
448,192,346918,1,8,0:0:0:0:
448,192,347006,2,0,B|414:206|414:206|391:196|391:196|330:217,1,107.999996704102,0|0,0:0|0:0,0:0:0:0:
314,224,347271,5,4,0:0:0:0:
287,249,347359,1,0,0:0:0:0:
271,281,347447,1,0,0:0:0:0:
266,316,347536,1,0,0:0:0:0:
274,351,347624,2,0,B|258:369|258:369|212:360,1,53.9999983520508,8|0,0:0|0:0,0:0:0:0:
169,349,347800,1,0,0:0:0:0:
169,349,347889,2,0,B|138:360|138:360|97:327|97:327|49:342,1,107.999996704102,8|8,0:0|0:0,0:0:0:0:
12,348,348153,1,12,0:0:0:0:
24,312,348242,1,0,0:0:0:0:
36,276,348330,2,0,B|47:240|47:240|152:208,1,107.999996704102,8|0,0:0|0:0,0:0:0:0:
214,143,348683,5,4,0:0:0:0:
204,184,348772,1,0,0:0:0:0:
244,172,348860,1,0,0:0:0:0:
284,160,348948,1,0,0:0:0:0:
324,148,349036,2,0,B|346:142|346:142|332:185,1,53.9999983520508,8|0,0:0|0:0,0:0:0:0:
316,235,349212,1,2,0:0:0:0:
316,235,349300,2,0,B|304:273|304:273|416:242,1,107.999996704102,8|8,0:0|0:0,0:0:0:0:
433,238,349565,1,4,0:0:0:0:
448,111,349742,1,2,0:0:0:0:
435,77,349830,1,2,0:0:0:0:
413,49,349918,1,2,0:0:0:0:
382,31,350006,1,2,0:0:0:0:
347,24,350095,6,0,B|292:41|292:41|229:61,1,107.999996704102,4|0,0:0|0:0,0:0:0:0:
185,78,350359,1,0,0:0:0:0:
185,78,350447,2,0,B|143:93|143:93|235:123,1,107.999996704102,8|0,0:0|0:0,0:0:0:0:
268,137,350712,1,8,0:0:0:0:
268,137,350801,1,0,0:0:0:0:
392,172,350977,1,12,0:0:0:0:
381,206,351065,1,0,0:0:0:0:
352,228,351153,1,8,0:0:0:0:
225,256,351330,1,2,0:0:0:0:
99,288,351507,5,4,0:0:0:0:
91,332,351595,1,0,0:0:0:0:
83,376,351684,1,0,0:0:0:0:
126,362,351772,1,0,0:0:0:0:
169,348,351859,2,0,L|182:279,1,53.9999983520508,8|0,0:0|0:0,0:0:0:0:
193,233,352036,1,2,0:0:0:0:
193,233,352124,2,0,B|220:262|220:262|245:156,1,107.999996704102,8|8,0:0|0:0,0:0:0:0:
247,131,352389,2,0,B|262:64|262:64|289:94,1,107.999996704102,12|10,0:0|0:0,0:0:0:0:
339,142,352653,1,2,0:0:0:0:
339,142,352742,1,2,0:0:0:0:
417,244,352918,6,0,P|459:208|468:132,1,107.999996704102,4|0,0:0|0:0,0:0:0:0:
462,97,353183,1,0,0:0:0:0:
462,97,353271,1,8,0:0:0:0:
339,142,353447,1,2,0:0:0:0:
339,142,353536,2,0,B|312:169|312:169|277:70,1,107.999996704102,8|8,0:0|0:0,0:0:0:0:
251,50,353800,2,0,B|230:31|230:31|210:47,1,53.9999983520508,4|0,0:0|0:0,0:0:0:0:
145,46,353977,2,0,B|116:71|116:71|155:172,1,107.999996704102,10|0,0:0|0:0,0:0:0:0:
188,256,354330,5,4,0:0:0:0:
196,290,354418,1,0,0:0:0:0:
187,325,354506,1,0,0:0:0:0:
164,352,354595,1,0,0:0:0:0:
131,365,354683,2,0,P|100:368|32:348,1,53.9999983520508,8|0,0:0|0:0,0:0:0:0:
52,292,354859,1,2,0:0:0:0:
52,292,354947,2,0,P|112:304|176:276,1,107.999996704102,8|0,0:0|0:0,0:0:0:0:
188,256,355212,1,4,0:0:0:0:
28,264,355389,5,2,0:0:0:0:
20,230,355477,1,2,0:0:0:0:
29,195,355565,1,2,0:0:0:0:
52,168,355654,1,2,0:0:0:0:
86,158,355742,5,4,0:0:0:0:
133,146,355831,1,0,0:0:0:0:
139,98,355919,1,0,0:0:0:0:
94,78,356007,1,0,0:0:0:0:
61,114,356095,2,0,B|45:109|45:109|30:72,1,53.9999983520508,8|0,0:0|0:0,0:0:0:0:
8,16,356271,1,2,0:0:0:0:
8,16,356359,2,0,B|52:16|52:16|76:4|76:4|124:4,1,107.999996704102,8|8,0:0|0:0,0:0:0:0:
176,4,356624,1,8,0:0:0:0:
208,20,356712,1,0,0:0:0:0:
240,36,356800,1,10,0:0:0:0:
312,144,356977,5,2,0:0:0:0:
400,50,357153,1,4,0:0:0:0:
432,34,357241,1,0,0:0:0:0:
464,18,357330,2,0,L|464:82,1,53.9999983520508,2|0,0:0|0:0,0:0:0:0:
428,126,357506,2,0,B|428:156|428:156|458:186,1,53.9999983520508,10|0,0:0|0:0,0:0:0:0:
500,215,357683,1,0,0:0:0:0:
500,215,357771,2,0,B|499:254|499:254|439:322,1,107.999996704102,10|8,0:0|0:0,0:0:0:0:
406,350,358036,1,4,0:0:0:0:
281,332,358212,1,8,0:0:0:0:
281,332,358300,2,0,B|300:311|300:311|206:323,1,107.999996704102,2|0,0:0|0:0,0:0:0:0:
184,325,358565,5,4,0:0:0:0:
149,315,358653,1,0,0:0:0:0:
121,294,358742,1,0,0:0:0:0:
103,263,358830,1,0,0:0:0:0:
97,228,358918,2,0,L|60:277,1,53.9999983520508,8|0,0:0|0:0,0:0:0:0:
22,321,359095,1,0,0:0:0:0:
22,321,359183,2,0,P|22:257|-10:193,1,107.999996704102,8|0,0:0|0:0,0:0:0:0:
9,152,359447,2,0,B|25:130|25:130|72:126,2,53.9999983520508,12|0|10,0:0|0:0|0:0,0:0:0:0:
165,117,359800,1,2,0:0:0:0:
207,239,359977,5,4,0:0:0:0:
222,281,360065,1,0,0:0:0:0:
237,323,360154,1,0,0:0:0:0:
267,289,360242,1,4,0:0:0:0:
297,255,360330,2,0,L|273:188,1,53.9999983520508,8|0,0:0|0:0,0:0:0:0:
257,147,360506,1,0,0:0:0:0:
257,147,360595,2,0,B|294:167|294:167|385:115,1,107.999996704102,8|0,0:0|0:0,0:0:0:0:
405,99,360859,1,4,0:0:0:0:
505,181,361036,1,2,0:0:0:0:
475,200,361124,1,2,0:0:0:0:
454,229,361212,1,2,0:0:0:0:
445,264,361300,1,2,0:0:0:0:
449,299,361389,5,4,0:0:0:0:
409,287,361477,1,0,0:0:0:0:
369,275,361565,1,0,0:0:0:0:
329,263,361653,1,0,0:0:0:0:
339,304,361742,1,8,0:0:0:0:
256,173,361918,1,2,0:0:0:0:
214,158,362007,1,8,0:0:0:0:
371,153,362183,1,2,0:0:0:0:
404,124,362272,1,12,0:0:0:0:
456,8,362447,1,8,0:0:0:0:
456,8,362536,2,0,B|472:22|472:22|376:35,1,107.999996704102,0|0,0:0|0:0,0:0:0:0:
351,42,362800,5,6,0:0:0:0:
323,64,362889,1,2,0:0:0:0:
306,96,362977,1,2,0:0:0:0:
304,131,363065,1,2,0:0:0:0:
317,165,363153,1,10,0:0:0:0:
399,271,363330,1,0,0:0:0:0:
399,271,363418,2,0,B|418:292|418:292|311:286,1,107.999996704102,8|8,0:0|0:0,0:0:0:0:
273,284,363683,1,4,0:0:0:0:
163,219,363859,5,8,0:0:0:0:
137,175,363948,1,8,0:0:0:0:
171,137,364036,1,8,0:0:0:0:
217,158,364124,1,8,0:0:0:0:
212,208,364212,2,0,B|206:262|206:262|127:291,1,107.999996704102,4|0,0:0|0:0,0:0:0:0:
45,155,364565,2,0,B|51:101|51:101|130:72,1,107.999996704102,8|0,0:0|0:0,0:0:0:0:
167,69,364830,1,10,0:0:0:0:
167,69,364918,1,2,0:0:0:0:
297,35,365095,1,12,0:0:0:0:
297,35,365183,1,0,0:0:0:0:
297,35,365271,2,0,B|303:88|303:88|359:55,1,107.999996704102,8|0,0:0|0:0,0:0:0:0:
479,3,365624,5,4,0:0:0:0:
506,155,365800,1,2,0:0:0:0:
482,131,365889,1,0,0:0:0:0:
458,107,365977,1,8,0:0:0:0:
426,251,366153,1,2,0:0:0:0:
458,241,366242,1,0,0:0:0:0:
491,233,366330,2,0,L|426:179,1,53.9999983520508,2|0,0:0|0:0,0:0:0:0:
402,155,366506,2,0,B|375:133|375:133|321:151,1,53.9999983520508,4|0,0:0|0:0,0:0:0:0:
322,150,366683,1,8,0:0:0:0:
288,162,366771,1,8,0:0:0:0:
254,174,366859,1,8,0:0:0:0:
220,186,366947,1,8,0:0:0:0:
193,228,367036,5,4,0:0:0:0:
144,214,367125,1,0,0:0:0:0:
141,165,367213,1,0,0:0:0:0:
189,147,367301,1,0,0:0:0:0:
220,186,367389,1,8,0:0:0:0:
106,310,367565,1,2,0:0:0:0:
106,310,367653,2,0,B|97:279|97:279|199:309,1,107.999996704102,8|8,0:0|0:0,0:0:0:0:
239,324,367918,1,0,0:0:0:0:
239,324,368006,1,0,0:0:0:0:
239,324,368095,1,8,0:0:0:0:
363,359,368271,1,0,0:0:0:0:
448,264,368447,5,4,0:0:0:0:
456,232,368536,1,0,0:0:0:0:
464,200,368624,2,0,B|469:171|469:171|434:177,1,53.9999983520508,0|0,0:0|0:0,0:0:0:0:
380,181,368800,2,0,B|362:166|362:166|371:132,1,53.9999983520508,8|0,0:0|0:0,0:0:0:0:
384,72,368977,1,0,0:0:0:0:
384,72,369065,2,0,B|353:86|353:86|263:20,1,107.999996704102,8|8,0:0|0:0,0:0:0:0:
241,2,369330,1,0,0:0:0:0:
120,40,369506,1,10,0:0:0:0:
112,72,369595,1,2,0:0:0:0:
104,104,369683,1,2,0:0:0:0:
16,200,369859,5,4,0:0:0:0:
51,206,369947,1,0,0:0:0:0:
81,225,370036,1,0,0:0:0:0:
102,254,370124,1,0,0:0:0:0:
110,289,370212,2,0,B|126:313|126:313|164:288,1,53.9999983520508,8|0,0:0|0:0,0:0:0:0:
209,281,370389,2,0,L|219:335,2,53.9999983520508,0|8|0,0:0|0:0|0:0,0:0:0:0:
188,152,370742,1,4,0:0:0:0:
223,147,370830,1,0,0:0:0:0:
257,158,370918,2,0,P|280:171|304:260,1,107.999996704102,10|0,0:0|0:0,0:0:0:0:
416,320,371271,5,4,0:0:0:0:
416,288,371359,1,0,0:0:0:0:
416,256,371447,2,0,B|415:225|415:225|440:200,1,53.9999983520508,0|0,0:0|0:0,0:0:0:0:
480,160,371624,2,0,B|496:142|496:142|496:112,1,53.9999983520508,8|0,0:0|0:0,0:0:0:0:
496,48,371800,1,0,0:0:0:0:
496,48,371889,2,0,B|512:64|512:64|416:88,1,107.999996704102,8|0,0:0|0:0,0:0:0:0:
368,96,372153,1,6,0:0:0:0:
238,130,372330,1,2,0:0:0:0:
248,172,372419,1,2,0:0:0:0:
208,160,372507,1,2,0:0:0:0:
168,148,372595,1,2,0:0:0:0:
128,136,372683,6,0,B|87:123|87:123|125:228,1,107.999996704102,4|0,0:0|0:0,0:0:0:0:
136,247,372947,1,0,0:0:0:0:
136,247,373036,2,0,B|158:308|158:308|117:295,1,107.999996704102,8|0,0:0|0:0,0:0:0:0:
59,276,373300,1,8,0:0:0:0:
59,276,373389,1,0,0:0:0:0:
8,160,373565,1,8,0:0:0:0:
24,128,373653,1,0,0:0:0:0:
40,96,373742,1,0,0:0:0:0:
168,64,373918,1,0,0:0:0:0:
296,36,374095,5,6,0:0:0:0:
336,44,374183,1,2,0:0:0:0:
376,52,374271,1,2,0:0:0:0:
416,60,374359,1,2,0:0:0:0:
456,68,374447,2,0,L|474:132,1,53.9999983520508,8|0,0:0|0:0,0:0:0:0:
472,188,374624,1,0,0:0:0:0:
472,188,374712,2,0,B|429:175|429:175|455:264,1,107.999996704102,8|8,0:0|0:0,0:0:0:0:
464,300,374977,2,0,B|481:360|481:360|438:347,1,107.999996704102,0|10,0:0|0:0,0:0:0:0:
380,330,375241,1,2,0:0:0:0:
380,330,375330,1,2,0:0:0:0:
256,297,375506,6,0,B|219:305|219:305|199:332|199:332|139:345,1,107.999996704102,4|0,0:0|0:0,0:0:0:0:
102,355,375771,1,0,0:0:0:0:
102,355,375859,1,8,0:0:0:0:
29,253,376035,1,0,0:0:0:0:
29,253,376124,2,0,B|41:279|41:279|110:190,1,107.999996704102,8|8,0:0|0:0,0:0:0:0:
154,214,376389,2,0,L|198:150,1,53.9999983520508,4|0,0:0|0:0,0:0:0:0:
220,116,376565,2,0,B|247:84|247:84|269:170,1,107.999996704102,10|0,0:0|0:0,0:0:0:0:
288,275,376918,5,4,0:0:0:0:
319,292,377006,1,0,0:0:0:0:
355,293,377095,1,0,0:0:0:0:
387,277,377183,1,0,0:0:0:0:
408,249,377271,2,0,L|387:168,1,53.9999983520508,8|0,0:0|0:0,0:0:0:0:
342,165,377447,1,0,0:0:0:0:
342,165,377535,2,0,B|333:133|333:133|349:110,1,53.9999983520508,8|0,0:0|0:0,0:0:0:0:
411,3,377800,1,10,0:0:0:0:
277,3,377977,5,10,0:0:0:0:
306,35,378066,1,10,0:0:0:0:
265,44,378154,1,10,0:0:0:0:
225,54,378242,1,10,0:0:0:0:
184,64,378330,5,4,0:0:0:0:
180,88,378418,1,0,0:0:0:0:
176,112,378506,2,0,B|168:140|168:140|136:152,1,53.9999983520508,0|0,0:0|0:0,0:0:0:0:
84,172,378683,2,0,B|60:180|60:180|52:208,1,53.9999983520508,8|0,0:0|0:0,0:0:0:0:
28,272,378859,1,0,0:0:0:0:
28,272,378947,2,0,B|97:261|129:332,1,107.999996704102,8|8,0:0|0:0,0:0:0:0:
144,376,379212,1,0,0:0:0:0:
216,240,379389,2,0,B|226:282|226:282|217:301|217:301|228:353,1,107.999996704102,8|0,0:0|0:0,0:0:0:0:
408,272,379742,5,4,0:0:0:0:
412,256,379830,1,0,0:0:0:0:
416,240,379918,2,0,L|432:176,1,45,0|0,0:0|0:0,0:0:0:0:
404,160,380095,2,0,L|420:96,1,45,8|0,0:0|0:0,0:0:0:0:
428,76,380271,1,2,0:0:0:0:
428,76,380359,2,0,B|371:100|328:44,1,80.9999975280763,8|8,0:0|0:0,0:0:0:0:
320,32,380624,1,2,0:0:0:0:
228,40,380800,2,0,P|212:32|188:31,2,38.2500007295609,8|0|0,0:0|0:0|0:0,0:0:0:0:
52,97,381153,6,0,L|64:188,1,67.5000025749208,4|0,0:0|0:0,0:0:0:0:
139,143,381506,2,0,L|151:234,1,67.5000025749208,8|0,0:0|0:0,0:0:0:0:
166,296,381859,1,2,0:0:0:0:
166,296,381947,1,2,0:0:0:0:
166,296,382036,1,2,0:0:0:0:
266,282,382212,2,0,B|287:277|287:277|346:326,1,67.5000025749208,2|0,0:0|0:0,0:0:0:0:
356,336,382477,1,0,0:0:0:0:
356,336,382565,1,4,0:0:0:0:
429,161,382918,5,4,0:0:0:0:
485,112,383095,2,0,B|455:82|408:88,1,67.5000025749208,6|0,0:0|0:0,0:0:0:0:
256,40,383624,6,0,L|256:143,1,87.749995983124,6|0,0:0|0:0,0:0:0:0:
256,192,383977,1,6,0:0:0:0:
10,65,386800,6,0,B|80:40|107:107,1,116.999994644165,2|2,0:0|0:0,0:0:0:0:
28,290,387859,2,0,B|64:292|85:241|85:241|77:284|96:337|165:341|176:270|164:236|164:236|210:249|219:305|219:305|257:262|296:274,1,438.74997991562,2|0,0:0|0:0,0:0:0:0:
314,269,389271,1,2,0:0:0:0:
408,372,389624,1,2,0:0:0:0:
256,192,390153,12,0,392095,0:0:0:0:
79,10,392447,5,2,0:0:0:0:
169,64,392800,1,2,0:0:0:0:
13,143,393506,2,0,B|-31:174|12:264|106:226|107:158|86:110|86:110|102:147|134:180|176:170|224:150|224:150|228:198,1,438.74997991562,2|0,0:0|0:0,0:0:0:0:
229,214,394918,1,2,0:0:0:0:
323,260,395271,1,2,0:0:0:0:
298,206,398095,6,0,B|365:189|406:251,1,116.999994644165,2|2,0:0|0:0,0:0:0:0:
487,175,399153,2,0,B|459:157|463:127|463:127|376:175|364:58|354:25|410:9|474:26|455:79|435:108|402:130|339:127|328:78|328:78|313:115|269:103,1,465.750000710678,2|0,0:0|0:0,0:0:0:0:
252,97,400565,1,2,0:0:0:0:
160,32,400918,1,2,0:0:0:0:
256,192,401271,12,0,403389,0:0:0:0:
440,358,403742,5,2,0:0:0:0:
449,253,404095,1,2,0:0:0:0:
429,139,404800,2,0,B|398:136|358:169|348:224|348:224|353:169|320:68|293:53|229:85|211:127|231:175|294:208,1,438.74997991562,2|0,0:0|0:0,0:0:0:0:
284,227,406212,2,0,B|263:290|193:280,1,116.999994644165,2|2,0:0|0:0,0:0:0:0:
273,310,409389,5,2,0:0:0:0:
169,291,409742,1,2,0:0:0:0:
23,294,410447,2,0,B|67:283|58:235|58:235|84:263|97:276|138:271|155:260|166:218|166:218|173:258|171:293|171:293|189:264|217:241|277:258|277:305|270:332,1,438.74997991562,2|0,0:0|0:0,0:0:0:0:
266,335,411859,1,2,0:0:0:0:
369,313,412212,1,2,0:0:0:0:
256,192,412565,12,0,414683,0:0:0:0:
55,263,415036,5,2,0:0:0:0:
148,215,415389,1,2,0:0:0:0:
57,159,416095,2,0,B|9:135|-10:87|7:45|71:13|98:28|131:129|126:184|126:184|136:129|176:96|207:99,1,438.74997991562,2|0,0:0|0:0,0:0:0:0:
230,97,417506,1,2,0:0:0:0:
333,115,417859,1,2,0:0:0:0:
304,384,420683,5,2,0:0:0:0:
393,327,421036,1,2,0:0:0:0:
503,341,421742,2,0,B|497:293|438:276|410:299|392:328|392:328|394:293|386:253|386:253|375:295|358:306|317:311|304:298|278:270|278:270|287:318|248:337,1,438.74997991562,2|0,0:0|0:0,0:0:0:0:
233,345,423153,1,2,0:0:0:0:
160,268,423506,1,2,0:0:0:0:
256,192,423683,12,0,425977,0:0:0:0:
195,62,426330,5,2,0:0:0:0:
90,29,426683,1,2,0:0:0:0:
41,128,427389,2,0,B|-3:159|40:249|134:211|135:143|114:95|114:95|130:132|162:165|204:155|252:135|252:135|256:183,1,438.74997991562,2|0,0:0|0:0,0:0:0:0:
256,192,428800,2,0,B|306:148|391:185,2,116.999994644165,2|2|0,0:0|0:0|0:0,0:0:0:0:
