osu file format v14

[General]
AudioFilename: audio.mp3
AudioLeadIn: 0
PreviewTime: 56801
Countdown: 0
SampleSet: Normal
StackLeniency: 0.7
Mode: 1
LetterboxInBreaks: 0
WidescreenStoryboard: 1

[Editor]
DistanceSpacing: 1
BeatDivisor: 8
GridSize: 32
TimelineZoom: 2

[Metadata]
Title:Cyberia lyr3
TitleUnicode:Cyberia lyr3
Artist:Sewerslvt
ArtistUnicode:Sewerslvt
Creator:Horiiizon
Version:Muzukashii
Source:
Tags:breakcore gabber atmospheric drum and bass dnb n & experimental lyr1+2=3 electronic instrumental featured artist fa osu! hardcore serial experiments lain favicon faviconrecords vol. volume 1 シリアルエクスペリメンツレイン
BeatmapID:3077318
BeatmapSetID:1501870

[Difficulty]
HPDrainRate:6
CircleSize:5
OverallDifficulty:5
ApproachRate:5
SliderMultiplier:1.4
SliderTickRate:1

[Events]
//Background and Video events
0,0,"daniele-levis-pelusi-ktjuhp9JxFA-unsplash.jpg",0,0
//Break Periods
//Storyboard Layer 0 (Background)
//Storyboard Layer 1 (Fail)
//Storyboard Layer 2 (Pass)
//Storyboard Layer 3 (Foreground)
//Storyboard Layer 4 (Overlay)
//Storyboard Sound Samples

[TimingPoints]
19339,300,4,1,0,70,1,0
19339,-133.333333333333,4,1,0,70,0,0
38501,-100,4,1,0,80,0,0
48101,-90.9090909090909,4,1,0,90,0,0
49901,-111.111111111111,4,1,0,70,0,0
52939,-100,4,1,0,70,0,0
54139,-90.9090909090909,4,1,0,70,0,0
55339,-83.3333333333333,4,1,0,70,0,0
56539,-125,4,1,0,0,0,0
57701,-10,4,1,0,90,0,0
57739,-83.3333333333333,4,1,0,90,0,1
66101,-99.9999999999999,4,1,0,80,0,1
66139,-100,4,1,0,80,0,0
67301,-83.429207397501,4,1,0,90,0,0
67339,-83.3333333333333,4,1,0,90,0,1
75701,-83.3333333333333,4,1,0,70,0,1
75739,-111.111111111111,4,1,0,70,0,0
76901,-90.9090909090909,4,1,0,90,0,0
78701,-111.111111111111,4,1,0,70,0,0
81739,-100,4,1,0,70,0,0
82939,-90.9090909090909,4,1,0,70,0,0
84139,-83.3333333333333,4,1,0,70,0,0
85301,-83.1117021276596,4,1,0,90,0,0
86351,-100,4,1,0,70,0,0
88039,-100,4,1,0,70,0,0
88901,-90.9090909090909,4,1,0,90,0,0
88939,-83.3333333333333,4,1,0,90,0,1
94901,-83.3333333333333,4,1,0,80,0,1
94939,-99.9999999999999,4,1,0,80,0,0
96101,-83.429207397501,4,1,0,90,0,0
96139,-83.3333333333333,4,1,0,90,0,1
104239,-83.3333333333333,4,1,0,90,0,0
104464,-125,4,1,0,0,0,0
105701,-100,4,1,0,80,0,0
124939,-100,4,1,0,80,0,0
134501,-90.9090909090909,4,1,0,90,0,0
136301,-111.111111111111,4,1,0,70,0,0
139339,-100,4,1,0,70,0,0
140539,-90.9090909090909,4,1,0,70,0,0
141739,-83.3333333333333,4,1,0,70,0,0
142901,-83.1117021276596,4,1,0,90,0,0
146501,-83.3333333333333,4,1,0,90,0,0
146539,-83.3333333333333,4,1,0,90,0,1
152501,-83.3333333333333,4,1,0,80,0,1
152539,-99.9999999999999,4,1,0,80,0,0
153701,-83.429207397501,4,1,0,90,0,0
153739,-83.3333333333333,4,1,0,90,0,1
162101,-83.3333333333333,4,1,0,70,0,1
162139,-99.9999999999999,4,1,0,70,0,0
163301,-83.3333333333333,4,1,0,90,0,0
163339,-83.3333333333333,4,1,0,90,0,1
171701,-83.3333333333333,4,1,0,80,0,1
171739,-99.9999999999999,4,1,0,80,0,0
172901,-83.429207397501,4,1,0,90,0,0
172939,-83.3333333333333,4,1,0,90,0,1
181039,-83.3333333333333,4,1,0,90,0,0
181339,-125,4,1,0,0,0,0
182501,-100,4,1,0,80,0,0
201701,-100,4,1,0,70,0,0
211301,-100,4,1,0,50,0,0
211601,-100,4,1,0,40,0,0
211901,-100,4,1,0,30,0,0

[HitObjects]
210,140,19339,5,8,0:0:0:0:
210,140,19639,1,8,0:0:0:0:
210,140,19789,1,0,0:0:0:0:
196,160,20089,1,0,0:0:0:0:
196,160,20239,1,0,0:0:0:0:
186,86,20539,1,0,0:0:0:0:
206,159,20839,1,8,0:0:0:0:
205,159,20989,1,0,0:0:0:0:
184,113,21289,1,0,0:0:0:0:
184,105,21439,1,0,0:0:0:0:
181,84,21739,1,8,0:0:0:0:
176,109,22039,1,8,0:0:0:0:
176,109,22189,1,0,0:0:0:0:
197,82,22489,1,0,0:0:0:0:
197,82,22639,1,8,0:0:0:0:
200,88,22939,1,0,0:0:0:0:
196,97,23389,1,0,0:0:0:0:
193,90,23689,1,0,0:0:0:0:
183,72,23839,1,8,0:0:0:0:
210,140,24139,1,8,0:0:0:0:
210,140,24439,1,8,0:0:0:0:
210,140,24589,1,0,0:0:0:0:
196,160,24889,1,0,0:0:0:0:
196,160,25039,1,0,0:0:0:0:
186,86,25339,1,0,0:0:0:0:
206,159,25639,1,8,0:0:0:0:
205,159,25789,1,0,0:0:0:0:
184,113,26089,1,0,0:0:0:0:
184,105,26239,1,0,0:0:0:0:
181,84,26539,1,8,0:0:0:0:
176,109,26839,1,8,0:0:0:0:
176,109,26989,1,0,0:0:0:0:
197,82,27289,1,0,0:0:0:0:
197,82,27439,1,8,0:0:0:0:
200,88,27739,1,0,0:0:0:0:
196,97,28189,1,0,0:0:0:0:
193,90,28489,1,0,0:0:0:0:
183,72,28639,1,8,0:0:0:0:
210,140,28939,1,8,0:0:0:0:
210,140,29239,1,8,0:0:0:0:
210,140,29389,1,0,0:0:0:0:
196,160,29689,1,0,0:0:0:0:
196,160,29839,1,0,0:0:0:0:
186,86,30139,1,0,0:0:0:0:
206,159,30439,1,8,0:0:0:0:
205,159,30589,1,0,0:0:0:0:
184,113,30889,1,0,0:0:0:0:
184,105,31039,1,0,0:0:0:0:
181,84,31339,1,8,0:0:0:0:
176,109,31639,1,8,0:0:0:0:
176,109,31789,1,0,0:0:0:0:
197,82,32089,1,0,0:0:0:0:
197,82,32239,1,8,0:0:0:0:
200,88,32539,1,0,0:0:0:0:
196,97,32989,1,0,0:0:0:0:
193,90,33289,1,0,0:0:0:0:
183,72,33439,1,8,0:0:0:0:
210,140,33739,1,8,0:0:0:0:
210,140,34039,1,8,0:0:0:0:
210,140,34189,1,0,0:0:0:0:
196,160,34489,1,0,0:0:0:0:
196,160,34639,1,0,0:0:0:0:
186,86,34939,1,0,0:0:0:0:
206,159,35239,1,8,0:0:0:0:
205,159,35389,1,0,0:0:0:0:
184,113,35689,1,0,0:0:0:0:
184,105,35839,1,0,0:0:0:0:
181,84,36139,1,8,0:0:0:0:
176,109,36439,1,8,0:0:0:0:
176,109,36589,1,0,0:0:0:0:
197,82,36889,1,0,0:0:0:0:
197,82,37039,1,8,0:0:0:0:
182,97,37339,5,8,0:0:0:0:
196,97,37789,1,8,0:0:0:0:
183,72,38239,1,8,0:0:0:0:
171,95,38539,1,0,0:0:0:0:
206,132,38839,1,8,0:0:0:0:
206,132,38989,1,0,0:0:0:0:
209,123,39139,1,8,0:0:0:0:
198,161,39289,1,0,0:0:0:0:
207,117,39439,1,0,0:0:0:0:
207,116,39514,1,0,0:0:0:0:
207,116,39589,1,0,0:0:0:0:
182,96,39739,1,0,0:0:0:0:
207,144,39889,1,8,0:0:0:0:
195,106,40339,1,8,0:0:0:0:
214,160,40489,1,0,0:0:0:0:
194,117,40639,1,8,0:0:0:0:
193,117,40714,1,8,0:0:0:0:
185,79,40789,1,8,0:0:0:0:
168,81,40939,1,0,0:0:0:0:
179,62,41239,1,8,0:0:0:0:
240,152,41389,1,0,0:0:0:0:
208,185,41539,1,0,0:0:0:0:
192,128,41689,1,8,0:0:0:0:
176,68,41839,1,0,0:0:0:0:
182,96,42139,1,0,0:0:0:0:
219,109,42289,1,8,0:0:0:0:
177,80,42439,1,8,0:0:0:0:
177,80,42514,1,8,0:0:0:0:
188,135,42589,1,8,0:0:0:0:
191,113,42739,1,0,0:0:0:0:
189,77,42964,1,8,0:0:0:0:
168,81,43339,1,0,0:0:0:0:
176,149,43639,1,8,0:0:0:0:
240,152,43789,1,0,0:0:0:0:
229,142,43939,1,8,0:0:0:0:
198,161,44089,1,0,0:0:0:0:
194,142,44539,1,0,0:0:0:0:
219,109,44689,1,8,0:0:0:0:
204,88,44839,1,0,0:0:0:0:
204,88,44989,1,8,0:0:0:0:
181,106,45064,1,8,0:0:0:0:
197,91,45139,1,8,0:0:0:0:
196,101,45289,1,8,0:0:0:0:
178,126,45439,1,0,0:0:0:0:
203,136,45514,1,0,0:0:0:0:
196,117,45589,1,0,0:0:0:0:
171,95,45739,1,0,0:0:0:0:
196,110,46039,1,8,0:0:0:0:
240,152,46189,1,0,0:0:0:0:
183,117,46339,1,0,0:0:0:0:
163,53,46489,1,8,0:0:0:0:
182,83,46639,1,0,0:0:0:0:
174,110,46939,1,0,0:0:0:0:
180,76,47089,1,0,0:0:0:0:
202,76,47239,1,8,0:0:0:0:
193,137,47314,1,8,0:0:0:0:
204,88,47389,1,8,0:0:0:0:
154,69,47539,1,0,0:0:0:0:
178,126,47764,1,8,0:0:0:0:
171,95,48139,1,12,0:0:0:0:
226,94,48289,1,8,0:0:0:0:
214,92,48364,1,8,0:0:0:0:
215,92,48439,1,8,0:0:0:0:
198,118,48589,1,0,0:0:0:0:
178,68,48739,1,8,0:0:0:0:
198,161,48889,1,0,0:0:0:0:
204,88,49039,1,8,0:0:0:0:
193,110,49114,1,8,0:0:0:0:
191,110,49189,1,8,0:0:0:0:
176,195,49339,1,0,0:0:0:0:
178,68,49489,1,8,0:0:0:0:
210,155,49939,1,0,0:0:0:0:
220,134,50239,5,0,0:0:0:0:
239,88,50539,1,8,0:0:0:0:
239,88,50839,1,8,0:0:0:0:
239,88,51139,1,0,0:0:0:0:
240,99,51439,1,0,0:0:0:0:
240,99,51739,1,8,0:0:0:0:
136,103,52039,1,8,0:0:0:0:
110,100,52339,1,0,0:0:0:0:
122,108,52639,1,0,0:0:0:0:
205,129,52939,1,0,0:0:0:0:
205,129,53089,1,0,0:0:0:0:
205,129,53239,1,0,0:0:0:0:
205,129,53389,1,0,0:0:0:0:
205,129,53539,1,0,0:0:0:0:
205,129,53689,1,0,0:0:0:0:
205,129,53839,1,0,0:0:0:0:
205,129,54139,1,8,0:0:0:0:
205,129,54289,1,8,0:0:0:0:
205,129,54439,1,8,0:0:0:0:
205,129,54589,1,8,0:0:0:0:
205,129,54739,1,8,0:0:0:0:
205,129,54889,1,8,0:0:0:0:
205,129,55039,1,8,0:0:0:0:
216,132,55339,1,0,0:0:0:0:
205,134,55489,1,0,0:0:0:0:
203,134,55639,1,0,0:0:0:0:
198,140,55789,1,0,0:0:0:0:
205,142,55939,1,0,0:0:0:0:
205,149,56089,1,0,0:0:0:0:
205,157,56239,1,0,0:0:0:0:
203,160,56389,1,0,0:0:0:0:
231,105,57739,1,4,0:0:0:0:
231,105,58039,1,4,0:0:0:0:
202,122,58339,1,4,0:0:0:0:
213,125,58639,1,4,0:0:0:0:
214,126,58939,1,4,0:0:0:0:
214,126,59239,1,4,0:0:0:0:
213,125,59539,1,4,0:0:0:0:
214,126,59839,1,4,0:0:0:0:
214,126,59989,1,4,0:0:0:0:
216,130,60139,1,8,0:0:0:0:
209,118,60439,1,4,0:0:0:0:
203,110,60739,1,4,0:0:0:0:
215,120,61039,1,4,0:0:0:0:
226,130,61339,1,4,0:0:0:0:
228,132,61639,1,4,0:0:0:0:
234,135,61939,1,4,0:0:0:0:
240,128,62239,1,4,0:0:0:0:
240,128,62389,1,4,0:0:0:0:
231,105,62839,1,4,0:0:0:0:
202,122,63139,1,4,0:0:0:0:
213,125,63439,1,4,0:0:0:0:
214,126,63739,1,4,0:0:0:0:
214,126,64039,1,4,0:0:0:0:
213,125,64339,1,4,0:0:0:0:
214,126,64639,1,4,0:0:0:0:
214,126,64789,1,4,0:0:0:0:
216,130,64939,1,8,0:0:0:0:
209,118,65239,1,4,0:0:0:0:
203,110,65539,1,4,0:0:0:0:
215,120,65839,1,4,0:0:0:0:
211,156,66139,1,8,0:0:0:0:
203,94,66289,1,0,0:0:0:0:
215,142,66439,1,8,0:0:0:0:
217,143,66514,1,8,0:0:0:0:
237,170,66589,1,8,0:0:0:0:
151,109,67039,1,8,0:0:0:0:
231,105,67339,1,4,0:0:0:0:
231,105,67639,1,4,0:0:0:0:
202,122,67939,1,4,0:0:0:0:
213,125,68239,1,4,0:0:0:0:
214,126,68539,1,4,0:0:0:0:
214,126,68839,1,4,0:0:0:0:
213,125,69139,1,4,0:0:0:0:
214,126,69439,1,4,0:0:0:0:
214,126,69589,1,4,0:0:0:0:
216,130,69739,1,8,0:0:0:0:
209,118,70039,1,4,0:0:0:0:
203,110,70339,1,4,0:0:0:0:
215,120,70639,1,4,0:0:0:0:
226,130,70939,1,4,0:0:0:0:
228,132,71239,1,4,0:0:0:0:
234,135,71539,1,4,0:0:0:0:
240,128,71839,1,4,0:0:0:0:
240,128,71989,1,4,0:0:0:0:
231,105,72439,1,4,0:0:0:0:
202,122,72739,1,4,0:0:0:0:
213,125,73039,1,4,0:0:0:0:
214,126,73339,1,4,0:0:0:0:
214,126,73639,1,4,0:0:0:0:
213,125,73939,1,4,0:0:0:0:
214,126,74239,1,4,0:0:0:0:
214,126,74389,1,4,0:0:0:0:
216,130,74539,1,8,0:0:0:0:
209,118,74839,1,4,0:0:0:0:
203,110,75139,1,4,0:0:0:0:
215,120,75439,1,4,0:0:0:0:
201,148,75739,1,8,0:0:0:0:
201,148,75889,1,8,0:0:0:0:
197,125,76039,1,0,0:0:0:0:
204,126,76189,1,0,0:0:0:0:
202,118,76264,1,0,0:0:0:0:
187,150,76339,1,0,0:0:0:0:
208,104,76489,1,8,0:0:0:0:
186,120,76639,1,0,0:0:0:0:
171,95,76939,1,12,0:0:0:0:
226,94,77089,1,8,0:0:0:0:
214,92,77164,1,8,0:0:0:0:
215,92,77239,1,8,0:0:0:0:
198,118,77389,1,0,0:0:0:0:
178,68,77539,1,8,0:0:0:0:
198,161,77689,1,0,0:0:0:0:
204,88,77839,1,8,0:0:0:0:
193,110,77914,1,8,0:0:0:0:
191,110,77989,1,8,0:0:0:0:
176,195,78139,1,0,0:0:0:0:
178,68,78289,1,8,0:0:0:0:
175,74,78739,1,0,0:0:0:0:
182,104,79039,1,0,0:0:0:0:
239,88,79339,1,8,0:0:0:0:
239,88,79639,1,8,0:0:0:0:
239,88,79939,1,0,0:0:0:0:
240,99,80239,1,0,0:0:0:0:
240,99,80539,1,8,0:0:0:0:
136,103,80839,1,8,0:0:0:0:
110,100,81139,1,0,0:0:0:0:
122,108,81439,1,0,0:0:0:0:
205,129,81739,1,0,0:0:0:0:
205,129,81889,1,0,0:0:0:0:
205,129,82039,1,0,0:0:0:0:
205,129,82189,1,0,0:0:0:0:
205,129,82339,1,0,0:0:0:0:
205,129,82489,1,0,0:0:0:0:
205,129,82639,1,0,0:0:0:0:
205,129,82939,1,8,0:0:0:0:
205,129,83089,1,8,0:0:0:0:
205,129,83239,1,8,0:0:0:0:
205,129,83389,1,8,0:0:0:0:
205,129,83539,1,8,0:0:0:0:
205,129,83689,1,8,0:0:0:0:
205,129,83839,1,8,0:0:0:0:
216,132,84139,1,0,0:0:0:0:
205,134,84289,1,0,0:0:0:0:
203,134,84439,1,0,0:0:0:0:
198,140,84589,1,0,0:0:0:0:
205,142,84739,1,0,0:0:0:0:
205,149,84889,1,0,0:0:0:0:
205,157,85039,1,0,0:0:0:0:
203,160,85189,1,0,0:0:0:0:
226,132,85339,1,0,0:0:0:0:
188,52,85789,1,8,0:0:0:0:
185,69,85939,1,8,0:0:0:0:
203,74,86089,1,8,0:0:0:0:
204,74,86164,1,8,0:0:0:0:
191,122,86239,1,8,0:0:0:0:
204,126,88039,1,0,0:0:0:0:
204,126,88189,1,8,0:0:0:0:
204,126,88264,1,8,0:0:0:0:
188,142,88339,1,8,0:0:0:0:
191,108,88639,1,8,0:0:0:0:
231,105,88939,1,4,0:0:0:0:
231,105,89239,1,4,0:0:0:0:
202,122,89539,1,4,0:0:0:0:
213,125,89839,1,4,0:0:0:0:
214,126,90139,1,4,0:0:0:0:
214,126,90439,1,4,0:0:0:0:
213,125,90739,1,4,0:0:0:0:
214,126,91039,1,4,0:0:0:0:
214,126,91189,1,4,0:0:0:0:
209,118,91639,1,4,0:0:0:0:
203,110,91939,1,4,0:0:0:0:
215,120,92239,1,4,0:0:0:0:
226,130,92539,1,4,0:0:0:0:
228,132,92839,1,4,0:0:0:0:
234,135,93139,1,4,0:0:0:0:
240,128,93439,1,4,0:0:0:0:
240,128,93589,1,4,0:0:0:0:
225,136,93739,1,8,0:0:0:0:
231,105,94039,1,4,0:0:0:0:
202,122,94339,1,4,0:0:0:0:
213,125,94639,1,4,0:0:0:0:
211,156,94939,1,8,0:0:0:0:
203,94,95089,1,0,0:0:0:0:
215,142,95239,1,8,0:0:0:0:
217,143,95314,1,8,0:0:0:0:
197,222,95389,1,8,0:0:0:0:
259,159,95839,1,8,0:0:0:0:
176,131,96139,1,4,0:0:0:0:
176,131,96439,1,4,0:0:0:0:
176,131,96739,1,4,0:0:0:0:
176,131,97039,1,4,0:0:0:0:
176,131,97339,1,4,0:0:0:0:
176,131,97639,1,4,0:0:0:0:
176,131,97939,1,4,0:0:0:0:
176,131,98239,1,4,0:0:0:0:
176,131,98389,1,4,0:0:0:0:
182,108,98539,1,8,0:0:0:0:
206,108,98839,1,4,0:0:0:0:
189,99,99139,1,4,0:0:0:0:
189,99,99439,1,4,0:0:0:0:
189,99,99739,1,4,0:0:0:0:
189,99,100039,1,4,0:0:0:0:
189,99,100339,1,4,0:0:0:0:
189,99,100639,1,4,0:0:0:0:
189,99,100789,1,4,0:0:0:0:
186,120,101239,1,4,0:0:0:0:
190,121,101539,1,4,0:0:0:0:
191,122,101839,1,4,0:0:0:0:
191,122,102139,1,4,0:0:0:0:
190,121,102439,1,4,0:0:0:0:
191,122,102739,1,4,0:0:0:0:
191,122,103039,1,4,0:0:0:0:
191,122,103189,1,4,0:0:0:0:
191,93,103339,1,8,0:0:0:0:
186,126,103639,1,4,0:0:0:0:
176,140,103939,1,4,0:0:0:0:
182,149,104239,1,4,0:0:0:0:
215,132,105739,1,0,0:0:0:0:
215,132,106039,1,0,0:0:0:0:
215,132,106339,1,0,0:0:0:0:
215,132,106639,1,0,0:0:0:0:
215,132,106939,1,0,0:0:0:0:
215,132,107239,1,0,0:0:0:0:
215,132,107539,1,0,0:0:0:0:
203,100,107839,1,0,0:0:0:0:
195,97,107989,1,0,0:0:0:0:
201,98,108139,1,8,0:0:0:0:
201,98,108289,1,8,0:0:0:0:
202,120,108439,1,0,0:0:0:0:
205,121,108739,1,0,0:0:0:0:
217,127,109039,1,0,0:0:0:0:
218,127,109339,1,0,0:0:0:0:
196,117,109639,1,0,0:0:0:0:
189,121,109939,1,0,0:0:0:0:
193,127,110239,1,8,0:0:0:0:
189,105,110389,1,8,0:0:0:0:
195,103,110539,1,8,0:0:0:0:
199,239,110839,1,0,0:0:0:0:
183,149,111139,1,0,0:0:0:0:
183,149,111439,1,0,0:0:0:0:
183,149,111739,1,0,0:0:0:0:
183,149,112039,1,0,0:0:0:0:
173,88,112339,1,0,0:0:0:0:
200,113,112639,1,0,0:0:0:0:
187,93,112789,1,8,0:0:0:0:
187,93,112939,1,8,0:0:0:0:
187,93,113089,1,8,0:0:0:0:
186,91,113239,1,0,0:0:0:0:
186,124,113539,1,0,0:0:0:0:
186,124,113839,1,0,0:0:0:0:
203,94,114139,1,0,0:0:0:0:
203,94,114439,1,0,0:0:0:0:
203,94,114739,1,0,0:0:0:0:
208,137,115039,1,8,0:0:0:0:
208,137,115189,1,8,0:0:0:0:
235,111,115339,1,8,0:0:0:0:
221,143,115639,1,0,0:0:0:0:
222,143,115939,1,0,0:0:0:0:
222,143,116239,1,0,0:0:0:0:
221,143,116539,1,0,0:0:0:0:
203,108,116839,1,0,0:0:0:0:
203,108,117139,1,0,0:0:0:0:
214,115,117439,1,0,0:0:0:0:
219,153,117589,1,0,0:0:0:0:
213,115,117739,1,8,0:0:0:0:
213,115,117889,1,8,0:0:0:0:
192,157,118039,1,0,0:0:0:0:
205,121,118339,1,0,0:0:0:0:
217,127,118639,1,0,0:0:0:0:
218,127,118939,1,0,0:0:0:0:
196,117,119239,1,0,0:0:0:0:
189,121,119539,1,0,0:0:0:0:
193,127,119839,1,8,0:0:0:0:
189,105,119989,1,8,0:0:0:0:
205,188,120139,1,8,0:0:0:0:
199,239,120439,1,0,0:0:0:0:
183,149,120739,1,0,0:0:0:0:
183,149,121039,1,0,0:0:0:0:
183,149,121339,1,0,0:0:0:0:
205,138,121639,1,0,0:0:0:0:
173,88,121939,1,0,0:0:0:0:
200,113,122239,1,0,0:0:0:0:
187,93,122389,1,8,0:0:0:0:
187,93,122539,1,8,0:0:0:0:
187,93,122689,1,8,0:0:0:0:
186,91,122839,1,0,0:0:0:0:
186,124,123139,1,0,0:0:0:0:
186,124,123439,1,0,0:0:0:0:
171,95,124939,1,0,0:0:0:0:
206,132,125239,1,8,0:0:0:0:
206,132,125389,1,0,0:0:0:0:
209,123,125539,1,8,0:0:0:0:
198,161,125689,1,0,0:0:0:0:
207,117,125839,1,0,0:0:0:0:
207,116,125914,1,0,0:0:0:0:
207,116,125989,1,0,0:0:0:0:
182,96,126139,1,0,0:0:0:0:
207,144,126289,1,8,0:0:0:0:
195,106,126739,1,8,0:0:0:0:
214,160,126889,1,0,0:0:0:0:
194,117,127039,1,8,0:0:0:0:
193,117,127114,1,8,0:0:0:0:
185,79,127189,1,8,0:0:0:0:
168,81,127339,1,0,0:0:0:0:
179,62,127639,1,8,0:0:0:0:
240,152,127789,1,0,0:0:0:0:
208,185,127939,1,0,0:0:0:0:
192,128,128089,1,8,0:0:0:0:
176,68,128239,1,0,0:0:0:0:
182,96,128539,1,0,0:0:0:0:
219,109,128689,1,8,0:0:0:0:
177,80,128839,1,8,0:0:0:0:
177,80,128914,1,8,0:0:0:0:
188,135,128989,1,8,0:0:0:0:
191,113,129139,1,0,0:0:0:0:
178,126,129364,1,8,0:0:0:0:
168,81,129739,1,0,0:0:0:0:
176,149,130039,1,8,0:0:0:0:
240,152,130189,1,0,0:0:0:0:
229,142,130339,1,8,0:0:0:0:
198,161,130489,1,0,0:0:0:0:
194,142,130939,1,0,0:0:0:0:
219,109,131089,1,8,0:0:0:0:
204,88,131239,1,0,0:0:0:0:
204,88,131389,1,8,0:0:0:0:
181,106,131464,1,8,0:0:0:0:
197,91,131539,1,8,0:0:0:0:
196,101,131689,1,8,0:0:0:0:
178,126,131839,1,0,0:0:0:0:
203,136,131914,1,0,0:0:0:0:
196,117,131989,1,0,0:0:0:0:
171,95,132139,1,0,0:0:0:0:
196,110,132439,1,8,0:0:0:0:
240,152,132589,1,0,0:0:0:0:
183,117,132739,1,0,0:0:0:0:
163,53,132889,1,8,0:0:0:0:
182,83,133039,1,0,0:0:0:0:
174,110,133339,1,0,0:0:0:0:
180,76,133489,5,0,0:0:0:0:
202,76,133639,1,8,0:0:0:0:
193,137,133714,1,8,0:0:0:0:
204,88,133789,1,8,0:0:0:0:
154,69,133939,1,0,0:0:0:0:
178,126,134164,1,8,0:0:0:0:
171,95,134539,5,12,0:0:0:0:
226,94,134689,1,8,0:0:0:0:
214,92,134764,1,8,0:0:0:0:
215,92,134839,1,8,0:0:0:0:
198,118,134989,1,0,0:0:0:0:
178,68,135139,1,8,0:0:0:0:
198,161,135289,1,0,0:0:0:0:
204,88,135439,1,8,0:0:0:0:
193,110,135514,1,8,0:0:0:0:
191,110,135589,1,8,0:0:0:0:
176,195,135739,1,0,0:0:0:0:
178,68,135889,1,8,0:0:0:0:
210,155,136339,1,0,0:0:0:0:
220,134,136639,5,0,0:0:0:0:
239,88,136939,1,8,0:0:0:0:
239,88,137239,1,8,0:0:0:0:
239,88,137539,1,0,0:0:0:0:
240,99,137839,1,0,0:0:0:0:
240,99,138139,1,8,0:0:0:0:
136,103,138439,1,8,0:0:0:0:
110,100,138739,1,0,0:0:0:0:
122,108,139039,1,0,0:0:0:0:
205,129,139339,1,0,0:0:0:0:
205,129,139489,1,0,0:0:0:0:
205,129,139639,1,0,0:0:0:0:
205,129,139789,1,0,0:0:0:0:
205,129,139939,1,0,0:0:0:0:
205,129,140089,1,0,0:0:0:0:
205,129,140239,1,0,0:0:0:0:
205,129,140539,1,8,0:0:0:0:
205,129,140689,1,8,0:0:0:0:
205,129,140839,1,8,0:0:0:0:
205,129,140989,1,8,0:0:0:0:
205,129,141139,1,8,0:0:0:0:
205,129,141289,1,8,0:0:0:0:
205,129,141439,1,8,0:0:0:0:
216,132,141739,1,0,0:0:0:0:
205,134,141889,1,0,0:0:0:0:
203,134,142039,1,0,0:0:0:0:
198,140,142189,1,0,0:0:0:0:
205,142,142339,1,0,0:0:0:0:
205,149,142489,1,0,0:0:0:0:
205,157,142639,1,0,0:0:0:0:
203,160,142789,1,0,0:0:0:0:
151,173,142939,1,0,0:0:0:0:
188,52,143389,1,8,0:0:0:0:
185,69,143539,1,8,0:0:0:0:
203,74,143689,1,8,0:0:0:0:
204,74,143764,1,8,0:0:0:0:
191,122,143839,1,8,0:0:0:0:
176,137,145639,1,0,0:0:0:0:
172,131,145864,1,8,0:0:0:0:
231,105,146539,1,4,0:0:0:0:
231,105,146839,1,4,0:0:0:0:
202,122,147139,1,4,0:0:0:0:
213,125,147439,1,4,0:0:0:0:
214,126,147739,1,4,0:0:0:0:
214,126,148039,1,4,0:0:0:0:
213,125,148339,1,4,0:0:0:0:
214,126,148639,1,4,0:0:0:0:
214,126,148789,1,4,0:0:0:0:
209,118,149239,1,4,0:0:0:0:
203,110,149539,1,4,0:0:0:0:
215,120,149839,1,4,0:0:0:0:
226,130,150139,1,4,0:0:0:0:
228,132,150439,1,4,0:0:0:0:
234,135,150739,1,4,0:0:0:0:
240,128,151039,1,4,0:0:0:0:
240,128,151189,1,4,0:0:0:0:
225,136,151339,1,8,0:0:0:0:
231,105,151639,1,4,0:0:0:0:
202,122,151939,1,4,0:0:0:0:
213,125,152239,1,4,0:0:0:0:
211,156,152539,1,8,0:0:0:0:
203,94,152689,1,0,0:0:0:0:
215,142,152839,1,8,0:0:0:0:
217,143,152914,1,8,0:0:0:0:
197,222,152989,1,8,0:0:0:0:
259,159,153439,1,8,0:0:0:0:
176,131,153739,1,4,0:0:0:0:
176,131,154039,1,4,0:0:0:0:
176,131,154339,1,4,0:0:0:0:
176,131,154639,1,4,0:0:0:0:
176,131,154939,1,4,0:0:0:0:
176,131,155239,1,4,0:0:0:0:
176,131,155539,1,4,0:0:0:0:
176,131,155839,1,4,0:0:0:0:
176,131,155989,1,4,0:0:0:0:
182,108,156139,1,8,0:0:0:0:
206,108,156439,1,4,0:0:0:0:
189,99,156739,1,4,0:0:0:0:
189,99,157039,1,4,0:0:0:0:
189,99,157339,1,4,0:0:0:0:
189,99,157639,1,4,0:0:0:0:
189,99,157939,1,4,0:0:0:0:
189,99,158239,1,4,0:0:0:0:
189,99,158389,1,4,0:0:0:0:
186,120,158839,1,4,0:0:0:0:
190,121,159139,1,4,0:0:0:0:
191,122,159439,1,4,0:0:0:0:
191,122,159739,1,4,0:0:0:0:
190,121,160039,1,4,0:0:0:0:
191,122,160339,1,4,0:0:0:0:
191,122,160639,1,4,0:0:0:0:
191,122,160789,1,4,0:0:0:0:
191,93,160939,1,8,0:0:0:0:
186,126,161239,1,4,0:0:0:0:
176,140,161539,1,4,0:0:0:0:
182,149,161839,1,4,0:0:0:0:
201,148,162139,1,8,0:0:0:0:
201,148,162289,1,8,0:0:0:0:
197,125,162439,1,0,0:0:0:0:
204,126,162589,1,0,0:0:0:0:
202,118,162664,1,0,0:0:0:0:
187,150,162739,1,0,0:0:0:0:
208,104,162889,1,8,0:0:0:0:
186,120,163039,1,0,0:0:0:0:
231,105,163339,1,4,0:0:0:0:
231,105,163639,1,4,0:0:0:0:
202,122,163939,1,4,0:0:0:0:
213,125,164239,1,4,0:0:0:0:
214,126,164539,1,4,0:0:0:0:
214,126,164839,1,4,0:0:0:0:
213,125,165139,1,4,0:0:0:0:
214,126,165439,1,4,0:0:0:0:
214,126,165589,1,4,0:0:0:0:
197,91,165739,1,8,0:0:0:0:
209,118,166039,1,4,0:0:0:0:
203,110,166339,1,4,0:0:0:0:
215,120,166639,1,4,0:0:0:0:
226,130,166939,1,4,0:0:0:0:
228,132,167239,1,4,0:0:0:0:
234,135,167539,1,4,0:0:0:0:
240,128,167839,1,4,0:0:0:0:
240,128,167989,1,4,0:0:0:0:
231,105,168439,1,4,0:0:0:0:
202,122,168739,1,4,0:0:0:0:
213,125,169039,1,4,0:0:0:0:
202,122,169339,1,4,0:0:0:0:
202,122,169639,1,4,0:0:0:0:
197,122,169939,1,4,0:0:0:0:
197,123,170239,1,4,0:0:0:0:
230,130,170389,1,4,0:0:0:0:
171,102,170539,1,8,0:0:0:0:
220,122,170839,1,4,0:0:0:0:
220,122,171139,1,4,0:0:0:0:
220,122,171439,1,4,0:0:0:0:
211,156,171739,1,8,0:0:0:0:
203,94,171889,1,0,0:0:0:0:
215,142,172039,1,8,0:0:0:0:
217,143,172114,1,8,0:0:0:0:
197,222,172189,1,8,0:0:0:0:
259,159,172639,1,8,0:0:0:0:
176,131,172939,1,4,0:0:0:0:
176,131,173239,1,4,0:0:0:0:
176,131,173539,1,4,0:0:0:0:
176,131,173839,1,4,0:0:0:0:
176,131,174139,1,4,0:0:0:0:
176,131,174439,1,4,0:0:0:0:
176,131,174739,1,4,0:0:0:0:
176,131,175039,1,4,0:0:0:0:
176,131,175189,1,4,0:0:0:0:
182,108,175339,1,8,0:0:0:0:
206,108,175639,1,4,0:0:0:0:
189,99,175939,1,4,0:0:0:0:
189,99,176239,1,4,0:0:0:0:
189,99,176539,1,4,0:0:0:0:
189,99,176839,1,4,0:0:0:0:
189,99,177139,1,4,0:0:0:0:
189,99,177439,1,4,0:0:0:0:
189,99,177589,1,4,0:0:0:0:
186,120,178039,1,4,0:0:0:0:
190,121,178339,1,4,0:0:0:0:
191,122,178639,1,4,0:0:0:0:
191,122,178939,1,4,0:0:0:0:
190,121,179239,1,4,0:0:0:0:
191,122,179539,1,4,0:0:0:0:
191,122,179839,1,4,0:0:0:0:
191,122,179989,1,4,0:0:0:0:
191,93,180139,1,8,0:0:0:0:
186,126,180439,1,4,0:0:0:0:
176,140,180739,1,4,0:0:0:0:
182,149,181039,1,4,0:0:0:0:
215,132,182539,1,0,0:0:0:0:
215,132,182839,1,0,0:0:0:0:
215,132,183139,1,0,0:0:0:0:
215,132,183439,1,0,0:0:0:0:
215,132,183739,1,0,0:0:0:0:
215,132,184039,1,0,0:0:0:0:
215,132,184339,1,0,0:0:0:0:
203,100,184639,1,0,0:0:0:0:
195,97,184789,1,0,0:0:0:0:
201,98,184939,1,8,0:0:0:0:
201,98,185089,1,8,0:0:0:0:
202,120,185239,1,0,0:0:0:0:
205,121,185539,1,0,0:0:0:0:
217,127,185839,1,0,0:0:0:0:
218,127,186139,1,0,0:0:0:0:
196,117,186439,1,0,0:0:0:0:
189,121,186739,1,0,0:0:0:0:
193,127,187039,1,8,0:0:0:0:
189,105,187189,1,8,0:0:0:0:
195,103,187339,1,8,0:0:0:0:
199,239,187639,1,0,0:0:0:0:
183,149,187939,1,0,0:0:0:0:
183,149,188239,1,0,0:0:0:0:
183,149,188539,1,0,0:0:0:0:
183,149,188839,1,0,0:0:0:0:
173,88,189139,1,0,0:0:0:0:
200,113,189439,1,0,0:0:0:0:
187,93,189589,1,8,0:0:0:0:
187,93,189739,1,8,0:0:0:0:
187,93,189889,1,8,0:0:0:0:
186,91,190039,1,0,0:0:0:0:
186,124,190339,1,0,0:0:0:0:
186,124,190639,1,0,0:0:0:0:
203,94,190939,1,0,0:0:0:0:
203,94,191239,1,0,0:0:0:0:
203,94,191539,1,0,0:0:0:0:
208,137,191839,1,8,0:0:0:0:
208,137,191989,1,8,0:0:0:0:
235,111,192139,1,8,0:0:0:0:
221,143,192439,1,0,0:0:0:0:
222,143,192739,1,0,0:0:0:0:
222,143,193039,1,0,0:0:0:0:
221,143,193339,1,0,0:0:0:0:
203,108,193639,1,0,0:0:0:0:
203,108,193939,1,0,0:0:0:0:
214,115,194239,1,0,0:0:0:0:
219,153,194389,1,0,0:0:0:0:
213,115,194539,1,8,0:0:0:0:
213,115,194689,1,8,0:0:0:0:
192,157,194839,1,0,0:0:0:0:
205,121,195139,1,0,0:0:0:0:
217,127,195439,1,0,0:0:0:0:
218,127,195739,1,0,0:0:0:0:
196,117,196039,1,0,0:0:0:0:
189,121,196339,1,0,0:0:0:0:
193,127,196639,1,8,0:0:0:0:
189,105,196789,1,8,0:0:0:0:
205,188,196939,1,8,0:0:0:0:
199,239,197239,1,0,0:0:0:0:
183,149,197539,1,0,0:0:0:0:
183,149,197839,1,0,0:0:0:0:
183,149,198139,1,0,0:0:0:0:
205,138,198439,1,0,0:0:0:0:
173,88,198739,1,0,0:0:0:0:
200,113,199039,1,0,0:0:0:0:
187,93,199189,1,8,0:0:0:0:
187,93,199339,1,8,0:0:0:0:
187,93,199489,1,8,0:0:0:0:
186,91,199639,1,0,0:0:0:0:
186,124,199939,1,0,0:0:0:0:
186,124,200239,1,0,0:0:0:0:
224,142,201739,5,0,0:0:0:0:
206,137,202039,1,0,0:0:0:0:
224,142,202339,1,0,0:0:0:0:
207,137,202639,1,0,0:0:0:0:
213,141,202939,1,0,0:0:0:0:
224,142,203239,1,0,0:0:0:0:
226,145,203539,1,0,0:0:0:0:
201,144,203839,1,0,0:0:0:0:
199,145,203989,1,0,0:0:0:0:
186,132,204139,1,0,0:0:0:0:
186,132,204289,1,0,0:0:0:0:
186,132,204439,1,0,0:0:0:0:
183,128,204739,1,0,0:0:0:0:
186,132,205039,1,0,0:0:0:0:
186,132,205339,1,0,0:0:0:0:
196,136,205639,1,0,0:0:0:0:
201,139,205939,1,0,0:0:0:0:
213,146,206239,1,0,0:0:0:0:
212,146,206389,1,0,0:0:0:0:
210,147,206539,1,0,0:0:0:0:
180,139,206839,1,0,0:0:0:0:
180,139,207139,1,0,0:0:0:0:
180,139,207439,1,0,0:0:0:0:
180,139,207739,1,0,0:0:0:0:
180,139,208039,1,0,0:0:0:0:
180,139,208339,1,0,0:0:0:0:
180,139,208639,1,0,0:0:0:0:
180,139,208789,1,0,0:0:0:0:
180,139,208939,1,0,0:0:0:0:
180,139,209089,1,0,0:0:0:0:
180,139,209239,1,0,0:0:0:0:
196,133,209539,1,0,0:0:0:0:
196,133,209839,1,0,0:0:0:0:
196,133,210139,1,0,0:0:0:0:
196,133,210439,1,0,0:0:0:0:
196,133,210739,1,0,0:0:0:0:
196,133,211039,1,0,0:0:0:0:
188,140,211189,1,0,0:0:0:0:
186,150,211339,1,8,0:0:0:0:
181,103,211639,1,0,0:0:0:0:
172,157,211939,1,8,0:0:0:0:
