osu file format v14

[General]
AudioFilename: audio.mp3
AudioLeadIn: 0
PreviewTime: 56801
Countdown: 0
SampleSet: Normal
StackLeniency: 0.7
Mode: 1
LetterboxInBreaks: 0
WidescreenStoryboard: 0

[Editor]
DistanceSpacing: 1
BeatDivisor: 2
GridSize: 32
TimelineZoom: 1.9

[Metadata]
Title:Cyberia lyr3
TitleUnicode:Cyberia lyr3
Artist:Sewerslvt
ArtistUnicode:Sewerslvt
Creator:Horiiizon
Version:Algorithm
Source:
Tags:breakcore gabber atmospheric drum and bass dnb n & experimental lyr1+2=3 electronic instrumental featured artist fa osu! hardcore serial experiments lain favicon faviconrecords vol. volume 1 シリアルエクスペリメンツレイン
BeatmapID:3077204
BeatmapSetID:1501870

[Difficulty]
HPDrainRate:5
CircleSize:5
OverallDifficulty:6
ApproachRate:5
SliderMultiplier:1.4
SliderTickRate:1

[Events]
//Background and Video events
0,0,"daniele-levis-pelusi-ktjuhp9JxFA-unsplash.jpg",0,0
//Break Periods
//Storyboard Layer 0 (Background)
//Storyboard Layer 1 (Fail)
//Storyboard Layer 2 (Pass)
//Storyboard Layer 3 (Foreground)
//Storyboard Layer 4 (Overlay)
//Storyboard Sound Samples

[TimingPoints]
19339,300,4,1,0,70,1,0
19339,-133.333333333333,4,1,0,70,0,0
38501,-100,4,1,0,80,0,0
48101,-90.9090909090909,4,1,0,90,0,0
50201,-111.111111111111,4,1,0,70,0,0
50539,-108.783388341467,4,1,0,70,0,0
50839,-106.551193586471,4,1,0,70,0,0
51139,-104.408873501341,4,1,0,70,0,0
51439,-102.3508977709,4,1,0,70,0,0
51739,-100.372482281748,4,1,0,70,0,0
52039,-98.4691008884867,4,1,0,70,0,0
52339,-96.6366577632093,4,1,0,70,0,0
52639,-94.8710796898095,4,1,0,70,0,0
52939,-93.1688592404875,4,1,0,70,0,0
53089,-92.3404518587671,4,1,0,70,0,0
53239,-91.5266461524944,4,1,0,70,0,0
53389,-90.7270594362039,4,1,0,70,0,0
53539,-89.9413222813436,4,1,0,70,0,0
53689,-89.169157458465,4,1,0,70,0,0
53839,-88.4100600039077,4,1,0,70,0,0
53989,-87.6637778529738,4,1,0,70,0,0
54139,-86.9299891946024,4,1,0,70,0,0
54289,-86.2083829031535,4,1,0,70,0,0
54439,-85.4986580985612,4,1,0,70,0,0
54589,-84.8005237280345,4,1,0,70,0,0
54739,-84.1136981680878,4,1,0,70,0,0
54889,-83.4379784646577,4,1,0,70,0,0
55039,-82.772960391483,4,1,0,70,0,0
55189,-82.1184591620797,4,1,0,70,0,0
55339,-81.4742272576916,4,1,0,70,0,0
55414,-81.1558541369602,4,1,0,70,0,0
55489,-80.8400248663916,4,1,0,70,0,0
55564,-80.5266442534174,4,1,0,70,0,0
55639,-80.2156195854457,4,1,0,70,0,0
55714,-79.9070521169775,4,1,0,70,0,0
55789,-79.6007861373639,4,1,0,70,0,0
55864,-79.2969217727937,4,1,0,70,0,0
55939,-78.9953060989116,4,1,0,70,0,0
56014,-78.6960381266565,4,1,0,70,0,0
56089,-78.3989676423941,4,1,0,70,0,0
56164,-78.1041925549522,4,1,0,70,0,0
56239,-77.811625835016,4,1,0,70,0,0
56314,-77.5211826631627,4,1,0,70,0,0
56389,-77.2329593198557,4,1,0,70,0,0
56464,-76.9468120551032,4,1,0,70,0,0
56539,-10,4,1,0,0,0,0
57701,-10,4,1,0,90,0,0
57739,-76.9230769230769,4,1,0,90,0,1
66101,-76.9230769230769,4,1,0,80,0,1
66139,-100,4,1,0,80,0,0
66289,-96.7957696376837,4,1,0,80,0,0
66439,-93.7904178081742,4,1,0,80,0,0
66514,-92.3566555438468,4,1,0,80,0,0
66589,-90.9661514950287,4,1,0,80,0,0
66664,-89.6168164163669,4,1,0,80,0,0
66739,-88.3069266187101,4,1,0,80,0,0
66889,-85.7988343370367,4,1,0,80,0,0
66939,-84.9941184070062,4,1,0,80,0,0
66989,-84.2044281424672,4,1,0,80,0,0
67039,-83.429207397501,4,1,0,80,0,0
67301,-83.429207397501,4,1,0,90,0,0
67339,-76.9230769230769,4,1,0,90,0,1
75701,-76.9230769230769,4,1,0,70,0,1
75739,-100,4,1,0,70,0,0
75889,-103.423632506875,4,1,0,70,0,0
76039,-107.090115261091,4,1,0,70,0,0
76189,-111.025991184536,4,1,0,70,0,0
76264,-113.104515358462,4,1,0,70,0,0
76339,-115.262348631721,4,1,0,70,0,0
76489,-119.834676080879,4,1,0,70,0,0
76564,-122.259701612972,4,1,0,70,0,0
76639,-124.784902025134,4,1,0,70,0,0
76901,-90.9090909090909,4,1,0,80,0,0
79001,-111.111111111111,4,1,0,70,0,0
79339,-108.783388341467,4,1,0,70,0,0
79639,-106.551193586471,4,1,0,70,0,0
79939,-104.408873501341,4,1,0,70,0,0
80239,-102.3508977709,4,1,0,70,0,0
80539,-100.372482281748,4,1,0,70,0,0
80839,-98.4691008884867,4,1,0,70,0,0
81139,-96.6366577632093,4,1,0,70,0,0
81439,-94.8710796898095,4,1,0,70,0,0
81739,-93.1688592404875,4,1,0,70,0,0
81889,-92.3404518587671,4,1,0,70,0,0
82039,-91.5266461524944,4,1,0,70,0,0
82189,-90.7270594362039,4,1,0,70,0,0
82339,-89.9413222813436,4,1,0,70,0,0
82489,-89.169157458465,4,1,0,70,0,0
82639,-88.4100600039077,4,1,0,70,0,0
82789,-87.6637778529738,4,1,0,70,0,0
82939,-86.9299891946024,4,1,0,70,0,0
83089,-86.2083829031535,4,1,0,70,0,0
83239,-85.4986580985612,4,1,0,70,0,0
83389,-84.8005237280345,4,1,0,70,0,0
83539,-84.1136981680878,4,1,0,70,0,0
83689,-83.4379784646577,4,1,0,70,0,0
83839,-82.772960391483,4,1,0,70,0,0
83989,-82.1184591620797,4,1,0,70,0,0
84139,-81.4742272576916,4,1,0,70,0,0
84214,-81.1558541369602,4,1,0,70,0,0
84289,-80.8400248663916,4,1,0,70,0,0
84364,-80.5266442534174,4,1,0,70,0,0
84439,-80.2156195854457,4,1,0,70,0,0
84514,-79.9070521169775,4,1,0,70,0,0
84589,-79.6007861373639,4,1,0,70,0,0
84664,-79.2969217727937,4,1,0,70,0,0
84739,-78.9953060989116,4,1,0,70,0,0
84814,-78.6960381266565,4,1,0,70,0,0
84889,-78.3989676423941,4,1,0,70,0,0
84964,-78.1041925549522,4,1,0,70,0,0
85039,-77.811625835016,4,1,0,70,0,0
85114,-77.5211826631627,4,1,0,70,0,0
85189,-77.2329593198557,4,1,0,70,0,0
85264,-76.9468120551032,4,1,0,70,0,0
85301,-76.6636001226618,4,1,0,90,0,0
85489,-76.9230769230769,4,1,0,90,0,0
85714,-78.7247844515402,4,1,0,90,0,0
85789,-79.3442357602884,4,1,0,90,0,0
85864,-79.9735767302483,4,1,0,90,0,0
85939,-80.612916123873,4,1,0,90,0,0
86089,-81.9228270584544,4,1,0,90,0,0
86164,-82.5938431245581,4,1,0,90,0,0
86239,-83.2760116786279,4,1,0,90,0,0
86351,-83.3333333333333,4,1,0,70,0,0
86539,-85.2638489806707,4,1,0,70,0,0
86689,-87.2859312536006,4,1,0,70,0,0
86839,-89.4061731386305,4,1,0,70,0,0
86989,-91.6320679250193,4,1,0,70,0,0
87139,-93.971626207183,4,1,0,70,0,0
87289,-96.4337822968791,4,1,0,70,0,0
87439,-99.0284320531268,4,1,0,70,0,0
87589,-101.766462251766,4,1,0,70,0,0
87739,-104.660314483313,4,1,0,70,0,0
87889,-107.723564098752,4,1,0,70,0,0
88039,-90.9090909090909,4,1,0,70,0,0
88901,-90.9090909090909,4,1,0,90,0,0
88939,-76.9230769230769,4,1,0,90,0,1
94901,-76.9230769230769,4,1,0,80,0,1
94939,-100,4,1,0,80,0,0
95089,-96.7957696376837,4,1,0,80,0,0
95239,-93.7904178081742,4,1,0,80,0,0
95314,-92.3566555438468,4,1,0,80,0,0
95389,-90.9661514950287,4,1,0,80,0,0
95464,-89.6168164163669,4,1,0,80,0,0
95539,-88.3069266187101,4,1,0,80,0,0
95689,-85.7988343370367,4,1,0,80,0,0
95739,-84.9941184070062,4,1,0,80,0,0
95789,-84.2044281424672,4,1,0,80,0,0
95839,-83.429207397501,4,1,0,80,0,0
96101,-83.429207397501,4,1,0,90,0,0
96139,-76.9230769230769,4,1,0,90,0,1
104239,-76.9230769230769,4,1,0,90,0,0
104464,-111.111111111111,4,1,0,0,0,0
105701,-100,4,1,0,80,0,0
105889,-98.9036530064238,4,1,0,80,0,0
106039,-97.8309891397819,4,1,0,80,0,0
106189,-96.7814365462189,4,1,0,80,0,0
106339,-95.7540728994908,4,1,0,80,0,0
106489,-94.7483814607737,4,1,0,80,0,0
106639,-93.7635078053432,4,1,0,80,0,0
106789,-92.7989844079146,4,1,0,80,0,0
106939,-91.8540182458822,4,1,0,80,0,0
107089,-90.9281858281148,4,1,0,80,0,0
107239,-90.020749782825,4,1,0,80,0,0
107389,-89.1313260958697,4,1,0,80,0,0
107539,-88.2593058405596,4,1,0,80,0,0
107689,-87.4041067693607,4,1,0,80,0,0
107839,-86.5653966945869,4,1,0,80,0,0
107989,-85.7425562599783,4,1,0,80,0,0
108139,-84.9352835606909,4,1,0,80,0,0
108289,-84.142999344526,4,1,0,80,0,0
108439,-83.3333333333333,4,1,0,80,0,0
108589,-84.3343113302304,4,1,0,80,0,0
108739,-85.3597015141957,4,1,0,80,0,0
108889,-86.4102586259041,4,1,0,80,0,0
109039,-87.4869972450345,4,1,0,80,0,0
109189,-88.5909869301717,4,1,0,80,0,0
109339,-89.7231144687494,4,1,0,80,0,0
109489,-90.8845520800293,4,1,0,80,0,0
109639,-92.0765377011987,4,1,0,80,0,0
109789,-93.3001184911505,4,1,0,80,0,0
109939,-94.5566569304829,4,1,0,80,0,0
110089,-95.8475946566883,4,1,0,80,0,0
110239,-97.1741749912543,4,1,0,80,0,0
110389,-98.5379918154344,4,1,0,80,0,0
110539,-100,4,1,0,80,0,0
110689,-98.9036530064238,4,1,0,80,0,0
110839,-97.8309891397819,4,1,0,80,0,0
110989,-96.7814365462189,4,1,0,80,0,0
111139,-95.7540728994908,4,1,0,80,0,0
111289,-94.7483814607737,4,1,0,80,0,0
111439,-93.7635078053432,4,1,0,80,0,0
111589,-92.7989844079146,4,1,0,80,0,0
111739,-91.8540182458822,4,1,0,80,0,0
111889,-90.9281858281148,4,1,0,80,0,0
112039,-90.020749782825,4,1,0,80,0,0
112189,-89.1313260958697,4,1,0,80,0,0
112339,-88.2593058405596,4,1,0,80,0,0
112489,-87.4041067693607,4,1,0,80,0,0
112639,-86.5653966945869,4,1,0,80,0,0
112789,-85.7425562599783,4,1,0,80,0,0
112939,-84.9352835606909,4,1,0,80,0,0
113089,-84.142999344526,4,1,0,80,0,0
113239,-83.3333333333333,4,1,0,80,0,0
113389,-84.3343113302304,4,1,0,80,0,0
113539,-85.3597015141957,4,1,0,80,0,0
113689,-86.4102586259041,4,1,0,80,0,0
113839,-87.4869972450345,4,1,0,80,0,0
113989,-88.5909869301717,4,1,0,80,0,0
114139,-89.7231144687494,4,1,0,80,0,0
114289,-90.8845520800293,4,1,0,80,0,0
114439,-92.0765377011987,4,1,0,80,0,0
114589,-93.3001184911505,4,1,0,80,0,0
114739,-94.5566569304829,4,1,0,80,0,0
114889,-95.8475946566883,4,1,0,80,0,0
115039,-97.1741749912543,4,1,0,80,0,0
115189,-98.5379918154344,4,1,0,80,0,0
115339,-100,4,1,0,80,0,0
115489,-98.9036530064238,4,1,0,80,0,0
115639,-97.8309891397819,4,1,0,80,0,0
115789,-96.7814365462189,4,1,0,80,0,0
115939,-95.7540728994908,4,1,0,80,0,0
116089,-94.7483814607737,4,1,0,80,0,0
116239,-93.7635078053432,4,1,0,80,0,0
116389,-92.7989844079146,4,1,0,80,0,0
116539,-91.8540182458822,4,1,0,80,0,0
116689,-90.9281858281148,4,1,0,80,0,0
116839,-90.020749782825,4,1,0,80,0,0
116989,-89.1313260958697,4,1,0,80,0,0
117139,-88.2593058405596,4,1,0,80,0,0
117289,-87.4041067693607,4,1,0,80,0,0
117439,-86.5653966945869,4,1,0,80,0,0
117589,-85.7425562599783,4,1,0,80,0,0
117739,-84.9352835606909,4,1,0,80,0,0
117889,-84.142999344526,4,1,0,80,0,0
118039,-83.3333333333333,4,1,0,80,0,0
118189,-84.3343113302304,4,1,0,80,0,0
118339,-85.3597015141957,4,1,0,80,0,0
118489,-86.4102586259041,4,1,0,80,0,0
118639,-87.4869972450345,4,1,0,80,0,0
118789,-88.5909869301717,4,1,0,80,0,0
118939,-89.7231144687494,4,1,0,80,0,0
119089,-90.8845520800293,4,1,0,80,0,0
119239,-92.0765377011987,4,1,0,80,0,0
119389,-93.3001184911505,4,1,0,80,0,0
119539,-94.5566569304829,4,1,0,80,0,0
119689,-95.8475946566883,4,1,0,80,0,0
119839,-97.1741749912543,4,1,0,80,0,0
119989,-98.5379918154344,4,1,0,80,0,0
120139,-100,4,1,0,80,0,0
120289,-98.9036530064238,4,1,0,80,0,0
120439,-97.8309891397819,4,1,0,80,0,0
120589,-96.7814365462189,4,1,0,80,0,0
120739,-95.7540728994908,4,1,0,80,0,0
120889,-94.7483814607737,4,1,0,80,0,0
121039,-93.7635078053432,4,1,0,80,0,0
121189,-92.7989844079146,4,1,0,80,0,0
121339,-91.8540182458822,4,1,0,80,0,0
121489,-90.9281858281148,4,1,0,80,0,0
121639,-90.020749782825,4,1,0,80,0,0
121789,-89.1313260958697,4,1,0,80,0,0
121939,-88.2593058405596,4,1,0,80,0,0
122089,-87.4041067693607,4,1,0,80,0,0
122239,-86.5653966945869,4,1,0,80,0,0
122389,-85.7425562599783,4,1,0,80,0,0
122539,-84.9352835606909,4,1,0,80,0,0
122689,-84.142999344526,4,1,0,80,0,0
122839,-83.3333333333333,4,1,0,80,0,0
122989,-84.3343113302304,4,1,0,80,0,0
123139,-85.3597015141957,4,1,0,80,0,0
123289,-86.4102586259041,4,1,0,80,0,0
123439,-87.4869972450345,4,1,0,80,0,0
123589,-88.5909869301717,4,1,0,80,0,0
123739,-90.9090909090909,4,1,0,80,0,0
124939,-100,4,1,0,80,0,0
134501,-90.9090909090909,4,1,0,90,0,0
136601,-111.111111111111,4,1,0,70,0,0
136939,-108.783388341467,4,1,0,70,0,0
137239,-106.551193586471,4,1,0,70,0,0
137539,-104.408873501341,4,1,0,70,0,0
137839,-102.3508977709,4,1,0,70,0,0
138139,-100.372482281748,4,1,0,70,0,0
138439,-98.4691008884867,4,1,0,70,0,0
138739,-96.6366577632093,4,1,0,70,0,0
139039,-94.8710796898095,4,1,0,70,0,0
139339,-93.1688592404875,4,1,0,70,0,0
139489,-92.3404518587671,4,1,0,70,0,0
139639,-91.5266461524944,4,1,0,70,0,0
139789,-90.7270594362039,4,1,0,70,0,0
139939,-89.9413222813436,4,1,0,70,0,0
140089,-89.169157458465,4,1,0,70,0,0
140239,-88.4100600039077,4,1,0,70,0,0
140389,-87.6637778529738,4,1,0,70,0,0
140539,-86.9299891946024,4,1,0,70,0,0
140689,-86.2083829031535,4,1,0,70,0,0
140839,-85.4986580985612,4,1,0,70,0,0
140989,-84.8005237280345,4,1,0,70,0,0
141139,-84.1136981680878,4,1,0,70,0,0
141289,-83.4379784646577,4,1,0,70,0,0
141439,-82.772960391483,4,1,0,70,0,0
141589,-82.1184591620797,4,1,0,70,0,0
141739,-81.4742272576916,4,1,0,70,0,0
141814,-81.1558541369602,4,1,0,70,0,0
141889,-80.8400248663916,4,1,0,70,0,0
141964,-80.5266442534174,4,1,0,70,0,0
142039,-80.2156195854457,4,1,0,70,0,0
142114,-79.9070521169775,4,1,0,70,0,0
142189,-79.6007861373639,4,1,0,70,0,0
142264,-79.2969217727937,4,1,0,70,0,0
142339,-78.9953060989116,4,1,0,70,0,0
142414,-78.6960381266565,4,1,0,70,0,0
142489,-78.3989676423941,4,1,0,70,0,0
142564,-78.1041925549522,4,1,0,70,0,0
142639,-77.811625835016,4,1,0,70,0,0
142714,-77.5211826631627,4,1,0,70,0,0
142789,-77.2329593198557,4,1,0,70,0,0
142864,-76.9468120551032,4,1,0,70,0,0
142901,-76.6636001226618,4,1,0,90,0,0
143089,-76.9230769230769,4,1,0,90,0,0
143314,-78.7247844515402,4,1,0,90,0,0
143389,-79.3442357602884,4,1,0,90,0,0
143464,-79.9735767302483,4,1,0,90,0,0
143539,-80.612916123873,4,1,0,90,0,0
143689,-81.9228270584544,4,1,0,90,0,0
143764,-82.5938431245581,4,1,0,90,0,0
143839,-83.2760116786279,4,1,0,90,0,0
143951,-83.3333333333333,4,1,0,70,0,0
144139,-85.2638489806707,4,1,0,70,0,0
144289,-87.2859312536006,4,1,0,70,0,0
144439,-89.4061731386305,4,1,0,70,0,0
144589,-91.6320679250193,4,1,0,70,0,0
144739,-93.971626207183,4,1,0,70,0,0
144889,-96.4337822968791,4,1,0,70,0,0
145039,-99.0284320531268,4,1,0,70,0,0
145189,-101.766462251766,4,1,0,70,0,0
145339,-104.660314483313,4,1,0,70,0,0
145489,-107.723564098752,4,1,0,70,0,0
145639,-90.9090909090909,4,1,0,70,0,0
146501,-76.9230769230769,4,1,0,90,0,0
146539,-76.9230769230769,4,1,0,90,0,1
152501,-76.9230769230769,4,1,0,80,0,1
152539,-100,4,1,0,80,0,0
152689,-96.7957696376837,4,1,0,80,0,0
152839,-93.7904178081742,4,1,0,80,0,0
152914,-92.3566555438468,4,1,0,80,0,0
152989,-90.9661514950287,4,1,0,80,0,0
153064,-89.6168164163669,4,1,0,80,0,0
153139,-88.3069266187101,4,1,0,80,0,0
153289,-85.7988343370367,4,1,0,80,0,0
153339,-84.9941184070062,4,1,0,80,0,0
153389,-84.2044281424672,4,1,0,80,0,0
153439,-83.429207397501,4,1,0,80,0,0
153701,-83.429207397501,4,1,0,90,0,0
153739,-76.9230769230769,4,1,0,90,0,1
162101,-76.9230769230769,4,1,0,70,0,1
162139,-100,4,1,0,70,0,0
162289,-103.423632506875,4,1,0,70,0,0
162439,-107.090115261091,4,1,0,70,0,0
162589,-111.025991184536,4,1,0,70,0,0
162664,-113.104515358462,4,1,0,70,0,0
162739,-115.262348631721,4,1,0,70,0,0
162889,-119.834676080879,4,1,0,70,0,0
162964,-122.259701612972,4,1,0,70,0,0
163039,-124.784902025134,4,1,0,70,0,0
163301,-76.9230769230769,4,1,0,90,0,0
163339,-76.9230769230769,4,1,0,90,0,1
171701,-76.9230769230769,4,1,0,80,0,1
171739,-100,4,1,0,80,0,0
171889,-96.7957696376837,4,1,0,80,0,0
172039,-93.7904178081742,4,1,0,80,0,0
172114,-92.3566555438468,4,1,0,80,0,0
172189,-90.9661514950287,4,1,0,80,0,0
172264,-89.6168164163669,4,1,0,80,0,0
172339,-88.3069266187101,4,1,0,80,0,0
172489,-85.7988343370367,4,1,0,80,0,0
172539,-84.9941184070062,4,1,0,80,0,0
172589,-84.2044281424672,4,1,0,80,0,0
172639,-83.429207397501,4,1,0,80,0,0
172901,-83.429207397501,4,1,0,90,0,0
172939,-76.9230769230769,4,1,0,90,0,1
181039,-76.9230769230769,4,1,0,90,0,0
181339,-111.111111111111,4,1,0,0,0,0
182501,-100,4,1,0,80,0,0
182689,-98.9036530064238,4,1,0,80,0,0
182839,-97.8309891397819,4,1,0,80,0,0
182989,-96.7814365462189,4,1,0,80,0,0
183139,-95.7540728994908,4,1,0,80,0,0
183289,-94.7483814607737,4,1,0,80,0,0
183439,-93.7635078053432,4,1,0,80,0,0
183589,-92.7989844079146,4,1,0,80,0,0
183739,-91.8540182458822,4,1,0,80,0,0
183889,-90.9281858281148,4,1,0,80,0,0
184039,-90.020749782825,4,1,0,80,0,0
184189,-89.1313260958697,4,1,0,80,0,0
184339,-88.2593058405596,4,1,0,80,0,0
184489,-87.4041067693607,4,1,0,80,0,0
184639,-86.5653966945869,4,1,0,80,0,0
184789,-85.7425562599783,4,1,0,80,0,0
184939,-84.9352835606909,4,1,0,80,0,0
185089,-84.142999344526,4,1,0,80,0,0
185239,-83.3333333333333,4,1,0,80,0,0
185389,-84.3343113302304,4,1,0,80,0,0
185539,-85.3597015141957,4,1,0,80,0,0
185689,-86.4102586259041,4,1,0,80,0,0
185839,-87.4869972450345,4,1,0,80,0,0
185989,-88.5909869301717,4,1,0,80,0,0
186139,-89.7231144687494,4,1,0,80,0,0
186289,-90.8845520800293,4,1,0,80,0,0
186439,-92.0765377011987,4,1,0,80,0,0
186589,-93.3001184911505,4,1,0,80,0,0
186739,-94.5566569304829,4,1,0,80,0,0
186889,-95.8475946566883,4,1,0,80,0,0
187039,-97.1741749912543,4,1,0,80,0,0
187189,-98.5379918154344,4,1,0,80,0,0
187339,-100,4,1,0,80,0,0
187489,-98.9036530064238,4,1,0,80,0,0
187639,-97.8309891397819,4,1,0,80,0,0
187789,-96.7814365462189,4,1,0,80,0,0
187939,-95.7540728994908,4,1,0,80,0,0
188089,-94.7483814607737,4,1,0,80,0,0
188239,-93.7635078053432,4,1,0,80,0,0
188389,-92.7989844079146,4,1,0,80,0,0
188539,-91.8540182458822,4,1,0,80,0,0
188689,-90.9281858281148,4,1,0,80,0,0
188839,-90.020749782825,4,1,0,80,0,0
188989,-89.1313260958697,4,1,0,80,0,0
189139,-88.2593058405596,4,1,0,80,0,0
189289,-87.4041067693607,4,1,0,80,0,0
189439,-86.5653966945869,4,1,0,80,0,0
189589,-85.7425562599783,4,1,0,80,0,0
189739,-84.9352835606909,4,1,0,80,0,0
189889,-84.142999344526,4,1,0,80,0,0
190039,-83.3333333333333,4,1,0,80,0,0
190189,-84.3343113302304,4,1,0,80,0,0
190339,-85.3597015141957,4,1,0,80,0,0
190489,-86.4102586259041,4,1,0,80,0,0
190639,-87.4869972450345,4,1,0,80,0,0
190789,-88.5909869301717,4,1,0,80,0,0
190939,-89.7231144687494,4,1,0,80,0,0
191089,-90.8845520800293,4,1,0,80,0,0
191239,-92.0765377011987,4,1,0,80,0,0
191389,-93.3001184911505,4,1,0,80,0,0
191539,-94.5566569304829,4,1,0,80,0,0
191689,-95.8475946566883,4,1,0,80,0,0
191839,-97.1741749912543,4,1,0,80,0,0
191989,-98.5379918154344,4,1,0,80,0,0
192139,-100,4,1,0,80,0,0
192289,-98.9036530064238,4,1,0,80,0,0
192439,-97.8309891397819,4,1,0,80,0,0
192589,-96.7814365462189,4,1,0,80,0,0
192739,-95.7540728994908,4,1,0,80,0,0
192889,-94.7483814607737,4,1,0,80,0,0
193039,-93.7635078053432,4,1,0,80,0,0
193189,-92.7989844079146,4,1,0,80,0,0
193339,-91.8540182458822,4,1,0,80,0,0
193489,-90.9281858281148,4,1,0,80,0,0
193639,-90.020749782825,4,1,0,80,0,0
193789,-89.1313260958697,4,1,0,80,0,0
193939,-88.2593058405596,4,1,0,80,0,0
194089,-87.4041067693607,4,1,0,80,0,0
194239,-86.5653966945869,4,1,0,80,0,0
194389,-85.7425562599783,4,1,0,80,0,0
194539,-84.9352835606909,4,1,0,80,0,0
194689,-84.142999344526,4,1,0,80,0,0
194839,-83.3333333333333,4,1,0,80,0,0
194989,-84.3343113302304,4,1,0,80,0,0
195139,-85.3597015141957,4,1,0,80,0,0
195289,-86.4102586259041,4,1,0,80,0,0
195439,-87.4869972450345,4,1,0,80,0,0
195589,-88.5909869301717,4,1,0,80,0,0
195739,-89.7231144687494,4,1,0,80,0,0
195889,-90.8845520800293,4,1,0,80,0,0
196039,-92.0765377011987,4,1,0,80,0,0
196189,-93.3001184911505,4,1,0,80,0,0
196339,-94.5566569304829,4,1,0,80,0,0
196489,-95.8475946566883,4,1,0,80,0,0
196639,-97.1741749912543,4,1,0,80,0,0
196789,-98.5379918154344,4,1,0,80,0,0
196939,-100,4,1,0,80,0,0
197089,-98.9036530064238,4,1,0,80,0,0
197239,-97.8309891397819,4,1,0,80,0,0
197389,-96.7814365462189,4,1,0,80,0,0
197539,-95.7540728994908,4,1,0,80,0,0
197689,-94.7483814607737,4,1,0,80,0,0
197839,-93.7635078053432,4,1,0,80,0,0
197989,-92.7989844079146,4,1,0,80,0,0
198139,-91.8540182458822,4,1,0,80,0,0
198289,-90.9281858281148,4,1,0,80,0,0
198439,-90.020749782825,4,1,0,80,0,0
198589,-89.1313260958697,4,1,0,80,0,0
198739,-88.2593058405596,4,1,0,80,0,0
198889,-87.4041067693607,4,1,0,80,0,0
199039,-86.5653966945869,4,1,0,80,0,0
199189,-85.7425562599783,4,1,0,80,0,0
199339,-84.9352835606909,4,1,0,80,0,0
199489,-84.142999344526,4,1,0,80,0,0
199639,-83.3333333333333,4,1,0,80,0,0
199789,-84.3343113302304,4,1,0,80,0,0
199939,-85.3597015141957,4,1,0,80,0,0
200089,-86.4102586259041,4,1,0,80,0,0
200239,-87.4869972450345,4,1,0,80,0,0
200389,-88.5909869301717,4,1,0,80,0,0
200539,-100,4,1,0,80,0,0
201701,-100,4,1,0,70,0,0
202039,-98.9036530064238,4,1,0,70,0,0
202339,-97.8309891397819,4,1,0,70,0,0
202639,-96.7814365462189,4,1,0,70,0,0
202939,-95.7540728994908,4,1,0,70,0,0
203239,-94.7483814607737,4,1,0,70,0,0
203539,-93.7635078053432,4,1,0,70,0,0
203839,-92.7989844079146,4,1,0,70,0,0
203989,-92.3240833834192,4,1,0,70,0,0
204139,-91.8540182458822,4,1,0,70,0,0
204289,-91.3887990232365,4,1,0,70,0,0
204439,-90.9090909090909,4,1,0,70,0,0
204739,-92.1016396854913,4,1,0,70,0,0
205039,-93.3259792461687,4,1,0,70,0,0
205339,-94.583219045277,4,1,0,70,0,0
205639,-95.8747951874688,4,1,0,70,0,0
205939,-97.2022282638807,4,1,0,70,0,0
206239,-98.5668381729651,4,1,0,70,0,0
206389,-99.2636621541406,4,1,0,70,0,0
206539,-100,4,1,0,70,0,0
206839,-98.9036530064238,4,1,0,70,0,0
207139,-97.8309891397819,4,1,0,70,0,0
207439,-96.7814365462189,4,1,0,70,0,0
207739,-95.7540728994908,4,1,0,70,0,0
208039,-94.7483814607737,4,1,0,70,0,0
208339,-93.7635078053432,4,1,0,70,0,0
208639,-92.7989844079146,4,1,0,70,0,0
208789,-92.3240833834192,4,1,0,70,0,0
208939,-91.8540182458822,4,1,0,70,0,0
209089,-91.3887990232365,4,1,0,70,0,0
209239,-90.9090909090909,4,1,0,70,0,0
209539,-92.1016396854913,4,1,0,70,0,0
209839,-93.3259792461687,4,1,0,70,0,0
210139,-94.583219045277,4,1,0,70,0,0
210439,-95.8747951874688,4,1,0,70,0,0
210739,-97.2022282638807,4,1,0,70,0,0
211039,-98.5668381729651,4,1,0,70,0,0
211189,-99.2636621541406,4,1,0,70,0,0
211301,-100,4,1,0,50,0,0
211601,-111.111111111111,4,1,0,40,0,0
211901,-125,4,1,0,30,0,0

[HitObjects]
197,187,19339,5,0,0:0:0:0:
210,140,19639,1,8,0:0:0:0:
210,140,19789,1,0,0:0:0:0:
196,160,20089,1,0,0:0:0:0:
196,160,20239,1,0,0:0:0:0:
195,140,20389,1,8,0:0:0:0:
186,86,20539,1,0,0:0:0:0:
206,159,20839,1,8,0:0:0:0:
205,159,20989,1,0,0:0:0:0:
184,113,21289,1,0,0:0:0:0:
184,105,21439,1,0,0:0:0:0:
184,105,21589,1,0,0:0:0:0:
181,84,21739,1,8,0:0:0:0:
176,109,22039,1,8,0:0:0:0:
176,109,22189,1,0,0:0:0:0:
197,82,22489,1,0,0:0:0:0:
197,82,22639,1,8,0:0:0:0:
200,88,22939,1,0,0:0:0:0:
181,118,23239,1,8,0:0:0:0:
196,97,23389,1,0,0:0:0:0:
193,90,23689,1,0,0:0:0:0:
183,72,23839,1,8,0:0:0:0:
183,72,23989,1,0,0:0:0:0:
202,177,24139,1,8,0:0:0:0:
210,140,24439,1,8,0:0:0:0:
210,140,24589,1,0,0:0:0:0:
196,160,24889,1,0,0:0:0:0:
196,160,25039,1,0,0:0:0:0:
195,140,25189,1,8,0:0:0:0:
186,86,25339,1,0,0:0:0:0:
206,159,25639,1,8,0:0:0:0:
205,159,25789,1,0,0:0:0:0:
184,113,26089,1,0,0:0:0:0:
184,105,26239,1,0,0:0:0:0:
184,105,26389,1,0,0:0:0:0:
181,84,26539,1,8,0:0:0:0:
176,109,26839,1,8,0:0:0:0:
176,109,26989,1,0,0:0:0:0:
197,82,27289,1,0,0:0:0:0:
197,82,27439,1,8,0:0:0:0:
200,88,27739,1,0,0:0:0:0:
181,118,28039,1,8,0:0:0:0:
196,97,28189,1,0,0:0:0:0:
193,90,28489,1,0,0:0:0:0:
183,72,28639,1,8,0:0:0:0:
183,72,28789,1,0,0:0:0:0:
191,167,28939,1,8,0:0:0:0:
210,140,29239,1,8,0:0:0:0:
210,140,29389,1,0,0:0:0:0:
196,160,29689,1,0,0:0:0:0:
196,160,29839,1,0,0:0:0:0:
195,140,29989,1,8,0:0:0:0:
186,86,30139,1,0,0:0:0:0:
206,159,30439,1,8,0:0:0:0:
205,159,30589,1,0,0:0:0:0:
184,113,30889,1,0,0:0:0:0:
184,105,31039,1,0,0:0:0:0:
184,105,31189,1,0,0:0:0:0:
181,84,31339,1,8,0:0:0:0:
176,109,31639,1,8,0:0:0:0:
176,109,31789,1,0,0:0:0:0:
197,82,32089,1,0,0:0:0:0:
197,82,32239,1,8,0:0:0:0:
200,88,32539,1,0,0:0:0:0:
181,118,32839,1,8,0:0:0:0:
196,97,32989,1,0,0:0:0:0:
193,90,33289,1,0,0:0:0:0:
183,72,33439,1,8,0:0:0:0:
183,72,33589,1,0,0:0:0:0:
225,182,33739,1,8,0:0:0:0:
210,140,34039,1,8,0:0:0:0:
210,140,34189,1,0,0:0:0:0:
196,160,34489,1,0,0:0:0:0:
196,160,34639,1,0,0:0:0:0:
195,140,34789,1,8,0:0:0:0:
186,86,34939,1,0,0:0:0:0:
206,159,35239,1,8,0:0:0:0:
205,159,35389,1,0,0:0:0:0:
184,113,35689,1,0,0:0:0:0:
184,105,35839,1,0,0:0:0:0:
184,105,35989,1,0,0:0:0:0:
181,84,36139,1,8,0:0:0:0:
176,109,36439,1,8,0:0:0:0:
176,109,36589,1,0,0:0:0:0:
197,82,36889,1,0,0:0:0:0:
197,82,37039,1,8,0:0:0:0:
182,97,37339,1,8,0:0:0:0:
180,96,37789,1,8,0:0:0:0:
191,82,38239,1,8,0:0:0:0:
171,95,38539,1,0,0:0:0:0:
190,99,38689,1,8,0:0:0:0:
190,99,38764,1,0,0:0:0:0:
175,104,38839,1,8,0:0:0:0:
240,152,38989,1,0,0:0:0:0:
240,152,39064,1,0,0:0:0:0:
229,142,39139,1,8,0:0:0:0:
198,161,39289,1,0,0:0:0:0:
204,88,39364,1,0,0:0:0:0:
204,88,39439,1,8,0:0:0:0:
204,88,39514,1,0,0:0:0:0:
206,88,39589,1,8,0:0:0:0:
177,94,39664,1,8,0:0:0:0:
182,96,39739,1,0,0:0:0:0:
219,109,39814,1,0,0:0:0:0:
219,109,39889,1,8,0:0:0:0:
204,88,40039,1,0,0:0:0:0:
204,88,40114,1,0,0:0:0:0:
204,88,40189,1,8,0:0:0:0:
195,95,40264,1,0,0:0:0:0:
195,106,40339,1,8,0:0:0:0:
214,160,40489,1,8,0:0:0:0:
178,126,40564,1,8,0:0:0:0:
178,126,40639,1,0,0:0:0:0:
181,57,40714,1,8,0:0:0:0:
195,70,40789,1,0,0:0:0:0:
168,81,40939,1,0,0:0:0:0:
190,99,41089,1,8,0:0:0:0:
186,130,41164,1,8,0:0:0:0:
214,160,41239,1,0,0:0:0:0:
240,152,41389,1,0,0:0:0:0:
240,152,41464,1,0,0:0:0:0:
229,142,41539,1,8,0:0:0:0:
176,86,41689,1,8,0:0:0:0:
176,68,41839,1,0,0:0:0:0:
204,88,41914,1,0,0:0:0:0:
206,88,41989,1,8,0:0:0:0:
177,94,42064,1,8,0:0:0:0:
182,96,42139,1,0,0:0:0:0:
211,96,42214,1,0,0:0:0:0:
219,109,42289,1,8,0:0:0:0:
204,88,42439,1,0,0:0:0:0:
204,88,42514,1,0,0:0:0:0:
204,88,42589,1,8,0:0:0:0:
195,95,42664,1,0,0:0:0:0:
195,106,42739,1,8,0:0:0:0:
244,113,42889,1,0,0:0:0:0:
178,126,42964,1,8,0:0:0:0:
225,124,43114,1,0,0:0:0:0:
186,75,43189,1,8,0:0:0:0:
228,133,43264,1,8,0:0:0:0:
168,81,43339,1,0,0:0:0:0:
190,99,43489,1,8,0:0:0:0:
186,59,43564,1,8,0:0:0:0:
186,59,43639,1,0,0:0:0:0:
240,152,43789,1,0,0:0:0:0:
240,152,43864,1,0,0:0:0:0:
229,142,43939,1,8,0:0:0:0:
198,161,44089,1,0,0:0:0:0:
174,123,44164,1,8,0:0:0:0:
204,88,44239,1,8,0:0:0:0:
204,88,44314,1,0,0:0:0:0:
206,88,44389,1,8,0:0:0:0:
177,94,44464,1,8,0:0:0:0:
182,96,44539,1,0,0:0:0:0:
219,109,44614,1,0,0:0:0:0:
219,109,44689,1,8,0:0:0:0:
204,88,44839,1,0,0:0:0:0:
204,88,44914,1,0,0:0:0:0:
204,88,44989,1,8,0:0:0:0:
195,95,45064,1,0,0:0:0:0:
195,106,45139,1,8,0:0:0:0:
214,160,45289,1,8,0:0:0:0:
198,116,45364,1,0,0:0:0:0:
178,126,45439,1,0,0:0:0:0:
191,86,45514,1,8,0:0:0:0:
209,107,45589,1,0,0:0:0:0:
171,95,45739,1,0,0:0:0:0:
199,71,45889,1,8,0:0:0:0:
199,98,45964,1,8,0:0:0:0:
199,88,46039,1,0,0:0:0:0:
240,152,46189,1,0,0:0:0:0:
176,97,46264,1,0,0:0:0:0:
229,142,46339,1,8,0:0:0:0:
163,53,46489,1,8,0:0:0:0:
182,83,46639,1,0,0:0:0:0:
199,71,46714,1,0,0:0:0:0:
206,88,46789,1,8,0:0:0:0:
199,71,46864,1,0,0:0:0:0:
176,74,46939,1,0,0:0:0:0:
187,94,47014,1,0,0:0:0:0:
189,76,47089,1,8,0:0:0:0:
202,76,47239,1,8,0:0:0:0:
204,88,47314,1,0,0:0:0:0:
204,88,47389,1,8,0:0:0:0:
195,95,47464,1,0,0:0:0:0:
195,106,47539,1,8,0:0:0:0:
165,78,47689,1,0,0:0:0:0:
178,126,47764,1,8,0:0:0:0:
181,57,47914,1,8,0:0:0:0:
195,70,47989,1,0,0:0:0:0:
171,95,48139,1,12,0:0:0:0:
222,172,48289,1,0,0:0:0:0:
190,99,48364,1,0,0:0:0:0:
175,104,48439,1,8,0:0:0:0:
240,152,48589,1,0,0:0:0:0:
240,152,48664,1,0,0:0:0:0:
229,142,48739,1,8,0:0:0:0:
198,161,48889,1,0,0:0:0:0:
175,59,48964,1,0,0:0:0:0:
204,88,49039,1,8,0:0:0:0:
204,88,49114,1,0,0:0:0:0:
182,63,49189,1,8,0:0:0:0:
190,99,49264,1,8,0:0:0:0:
182,96,49339,1,0,0:0:0:0:
219,109,49414,1,0,0:0:0:0:
219,109,49489,1,8,0:0:0:0:
206,98,49639,1,8,0:0:0:0:
206,139,49714,1,0,0:0:0:0:
186,81,49789,1,8,0:0:0:0:
219,177,49864,1,8,0:0:0:0:
172,101,49939,1,0,0:0:0:0:
220,134,50239,5,0,0:0:0:0:
239,88,50539,1,8,0:0:0:0:
239,88,50839,1,8,0:0:0:0:
239,88,51139,1,0,0:0:0:0:
240,99,51439,1,0,0:0:0:0:
240,99,51739,1,8,0:0:0:0:
136,103,52039,1,8,0:0:0:0:
110,100,52339,1,0,0:0:0:0:
122,108,52639,1,0,0:0:0:0:
205,129,52939,1,0,0:0:0:0:
205,129,53089,1,0,0:0:0:0:
205,129,53239,1,0,0:0:0:0:
205,129,53389,1,0,0:0:0:0:
205,129,53539,1,0,0:0:0:0:
205,129,53689,1,0,0:0:0:0:
205,129,53839,1,0,0:0:0:0:
205,129,53989,1,0,0:0:0:0:
205,129,54139,1,8,0:0:0:0:
205,129,54289,1,8,0:0:0:0:
205,129,54439,1,8,0:0:0:0:
205,129,54589,1,8,0:0:0:0:
205,129,54739,1,8,0:0:0:0:
205,129,54889,1,8,0:0:0:0:
205,129,55039,1,8,0:0:0:0:
188,144,55189,1,8,0:0:0:0:
216,132,55339,1,0,0:0:0:0:
219,133,55414,1,0,0:0:0:0:
205,134,55489,1,0,0:0:0:0:
201,135,55564,1,0,0:0:0:0:
203,134,55639,1,0,0:0:0:0:
205,142,55714,1,0,0:0:0:0:
198,140,55789,1,0,0:0:0:0:
198,140,55864,1,0,0:0:0:0:
205,142,55939,1,0,0:0:0:0:
198,140,56014,1,0,0:0:0:0:
205,149,56089,1,0,0:0:0:0:
197,150,56164,1,0,0:0:0:0:
205,157,56239,1,0,0:0:0:0:
206,159,56314,1,0,0:0:0:0:
203,160,56389,1,0,0:0:0:0:
204,161,56464,1,0,0:0:0:0:
231,105,57739,1,4,0:0:0:0:
231,105,58039,1,4,0:0:0:0:
202,122,58339,1,4,0:0:0:0:
213,125,58639,1,4,0:0:0:0:
214,126,58939,1,4,0:0:0:0:
214,126,59239,1,4,0:0:0:0:
213,125,59539,1,4,0:0:0:0:
214,126,59839,1,4,0:0:0:0:
214,126,59989,1,4,0:0:0:0:
216,130,60139,1,8,0:0:0:0:
211,129,60289,1,8,0:0:0:0:
209,118,60439,1,4,0:0:0:0:
203,110,60739,1,4,0:0:0:0:
215,120,61039,1,4,0:0:0:0:
226,130,61339,1,4,0:0:0:0:
228,132,61639,1,4,0:0:0:0:
234,135,61939,1,4,0:0:0:0:
240,128,62239,1,4,0:0:0:0:
240,128,62389,1,4,0:0:0:0:
225,136,62539,1,8,0:0:0:0:
231,105,62839,1,4,0:0:0:0:
202,122,63139,1,4,0:0:0:0:
213,125,63439,1,4,0:0:0:0:
214,126,63739,1,4,0:0:0:0:
214,126,64039,1,4,0:0:0:0:
213,125,64339,1,4,0:0:0:0:
214,126,64639,1,4,0:0:0:0:
214,126,64789,1,4,0:0:0:0:
216,130,64939,1,8,0:0:0:0:
211,129,65089,1,8,0:0:0:0:
209,118,65239,1,4,0:0:0:0:
203,110,65539,1,4,0:0:0:0:
215,120,65839,1,4,0:0:0:0:
211,156,66139,1,8,0:0:0:0:
203,94,66289,1,0,0:0:0:0:
215,142,66439,1,8,0:0:0:0:
217,143,66514,1,8,0:0:0:0:
212,139,66589,1,8,0:0:0:0:
199,211,66664,1,8,0:0:0:0:
199,211,66739,1,0,0:0:0:0:
272,154,66889,1,0,0:0:0:0:
262,157,66939,1,0,0:0:0:0:
211,149,66989,1,0,0:0:0:0:
259,159,67039,1,8,0:0:0:0:
231,105,67339,1,4,0:0:0:0:
231,105,67639,1,4,0:0:0:0:
202,122,67939,1,4,0:0:0:0:
213,125,68239,1,4,0:0:0:0:
214,126,68539,1,4,0:0:0:0:
214,126,68839,1,4,0:0:0:0:
213,125,69139,1,4,0:0:0:0:
214,126,69439,1,4,0:0:0:0:
214,126,69589,1,4,0:0:0:0:
216,130,69739,1,8,0:0:0:0:
211,129,69889,1,8,0:0:0:0:
209,118,70039,1,4,0:0:0:0:
203,110,70339,1,4,0:0:0:0:
215,120,70639,1,4,0:0:0:0:
226,130,70939,1,4,0:0:0:0:
228,132,71239,1,4,0:0:0:0:
234,135,71539,1,4,0:0:0:0:
240,128,71839,1,4,0:0:0:0:
240,128,71989,1,4,0:0:0:0:
225,136,72139,1,8,0:0:0:0:
231,105,72439,1,4,0:0:0:0:
202,122,72739,1,4,0:0:0:0:
213,125,73039,1,4,0:0:0:0:
214,126,73339,1,4,0:0:0:0:
214,126,73639,1,4,0:0:0:0:
213,125,73939,1,4,0:0:0:0:
214,126,74239,1,4,0:0:0:0:
214,126,74389,1,4,0:0:0:0:
216,130,74539,1,8,0:0:0:0:
211,129,74689,1,8,0:0:0:0:
209,118,74839,1,4,0:0:0:0:
203,110,75139,1,4,0:0:0:0:
215,120,75439,1,4,0:0:0:0:
201,148,75739,1,8,0:0:0:0:
201,148,75889,1,8,0:0:0:0:
197,125,76039,1,0,0:0:0:0:
204,126,76189,1,0,0:0:0:0:
181,63,76264,1,8,0:0:0:0:
205,100,76339,1,8,0:0:0:0:
181,63,76489,1,8,0:0:0:0:
181,63,76564,1,8,0:0:0:0:
181,63,76639,1,0,0:0:0:0:
171,95,76939,1,0,0:0:0:0:
190,99,77089,1,8,0:0:0:0:
190,99,77164,1,0,0:0:0:0:
175,104,77239,1,8,0:0:0:0:
240,152,77389,1,0,0:0:0:0:
240,152,77464,1,0,0:0:0:0:
229,142,77539,1,8,0:0:0:0:
198,161,77689,1,0,0:0:0:0:
204,88,77764,1,0,0:0:0:0:
204,88,77839,1,8,0:0:0:0:
204,88,77914,1,0,0:0:0:0:
206,88,77989,1,8,0:0:0:0:
177,94,78064,1,8,0:0:0:0:
182,96,78139,1,0,0:0:0:0:
219,109,78214,1,0,0:0:0:0:
219,109,78289,1,8,0:0:0:0:
204,88,78439,1,0,0:0:0:0:
204,88,78514,1,0,0:0:0:0:
204,88,78589,1,8,0:0:0:0:
185,173,78664,1,8,0:0:0:0:
172,101,78739,1,0,0:0:0:0:
182,104,79039,1,0,0:0:0:0:
239,88,79339,1,8,0:0:0:0:
239,88,79639,1,8,0:0:0:0:
239,88,79939,1,0,0:0:0:0:
240,99,80239,1,0,0:0:0:0:
240,99,80539,1,8,0:0:0:0:
136,103,80839,1,8,0:0:0:0:
110,100,81139,1,0,0:0:0:0:
122,108,81439,1,0,0:0:0:0:
205,129,81739,1,0,0:0:0:0:
205,129,81889,1,0,0:0:0:0:
205,129,82039,1,0,0:0:0:0:
205,129,82189,1,0,0:0:0:0:
205,129,82339,1,0,0:0:0:0:
205,129,82489,1,0,0:0:0:0:
205,129,82639,1,0,0:0:0:0:
205,129,82789,1,0,0:0:0:0:
205,129,82939,1,8,0:0:0:0:
205,129,83089,1,8,0:0:0:0:
205,129,83239,1,8,0:0:0:0:
205,129,83389,1,8,0:0:0:0:
205,129,83539,1,8,0:0:0:0:
205,129,83689,1,8,0:0:0:0:
205,129,83839,1,8,0:0:0:0:
188,144,83989,1,8,0:0:0:0:
216,132,84139,1,0,0:0:0:0:
219,133,84214,1,0,0:0:0:0:
205,134,84289,1,0,0:0:0:0:
201,135,84364,1,0,0:0:0:0:
203,134,84439,1,0,0:0:0:0:
205,142,84514,1,0,0:0:0:0:
198,140,84589,1,0,0:0:0:0:
198,140,84664,1,0,0:0:0:0:
205,142,84739,1,0,0:0:0:0:
198,140,84814,1,0,0:0:0:0:
205,149,84889,1,0,0:0:0:0:
197,150,84964,1,0,0:0:0:0:
205,157,85039,1,0,0:0:0:0:
206,159,85114,1,0,0:0:0:0:
203,160,85189,1,0,0:0:0:0:
204,161,85264,1,0,0:0:0:0:
226,132,85339,1,0,0:0:0:0:
185,69,85489,1,8,0:0:0:0:
164,83,85714,1,0,0:0:0:0:
188,52,85789,1,8,0:0:0:0:
188,52,85864,1,0,0:0:0:0:
185,69,85939,1,8,0:0:0:0:
203,74,86089,1,8,0:0:0:0:
204,74,86164,1,8,0:0:0:0:
191,122,86239,1,8,0:0:0:0:
310,202,86389,1,0,0:0:0:0:
240,128,86539,1,0,0:0:0:0:
190,113,86689,1,0,0:0:0:0:
190,113,86839,1,0,0:0:0:0:
188,112,86989,1,0,0:0:0:0:
190,73,87139,1,0,0:0:0:0:
190,113,87289,1,0,0:0:0:0:
188,112,87439,1,0,0:0:0:0:
190,113,87589,1,0,0:0:0:0:
175,121,87739,1,0,0:0:0:0:
188,112,87889,1,0,0:0:0:0:
203,154,88039,1,8,0:0:0:0:
209,157,88189,1,0,0:0:0:0:
205,145,88264,1,8,0:0:0:0:
188,142,88339,1,8,0:0:0:0:
191,108,88639,1,8,0:0:0:0:
231,105,88939,1,4,0:0:0:0:
231,105,89239,1,4,0:0:0:0:
202,122,89539,1,4,0:0:0:0:
213,125,89839,1,4,0:0:0:0:
214,126,90139,1,4,0:0:0:0:
214,126,90439,1,4,0:0:0:0:
213,125,90739,1,4,0:0:0:0:
214,126,91039,1,4,0:0:0:0:
214,126,91189,1,4,0:0:0:0:
209,118,91639,1,4,0:0:0:0:
203,110,91939,1,4,0:0:0:0:
215,120,92239,1,4,0:0:0:0:
226,130,92539,1,4,0:0:0:0:
228,132,92839,1,4,0:0:0:0:
234,135,93139,1,4,0:0:0:0:
240,128,93439,1,4,0:0:0:0:
240,128,93589,1,4,0:0:0:0:
225,136,93739,1,8,0:0:0:0:
202,98,93889,1,8,0:0:0:0:
231,105,94039,1,4,0:0:0:0:
202,122,94339,1,4,0:0:0:0:
213,125,94639,1,4,0:0:0:0:
211,156,94939,1,8,0:0:0:0:
203,94,95089,1,0,0:0:0:0:
215,142,95239,1,8,0:0:0:0:
217,143,95314,1,8,0:0:0:0:
212,139,95389,1,8,0:0:0:0:
199,211,95464,1,8,0:0:0:0:
199,211,95539,1,0,0:0:0:0:
272,154,95689,1,0,0:0:0:0:
262,157,95739,1,0,0:0:0:0:
211,149,95789,1,0,0:0:0:0:
259,159,95839,1,8,0:0:0:0:
176,131,96139,1,4,0:0:0:0:
176,131,96439,1,4,0:0:0:0:
176,131,96739,1,4,0:0:0:0:
176,131,97039,1,4,0:0:0:0:
176,131,97339,1,4,0:0:0:0:
176,131,97639,1,4,0:0:0:0:
176,131,97939,1,4,0:0:0:0:
176,131,98239,1,4,0:0:0:0:
176,131,98389,1,4,0:0:0:0:
182,108,98539,1,8,0:0:0:0:
179,108,98689,1,8,0:0:0:0:
206,108,98839,1,4,0:0:0:0:
189,99,99139,1,4,0:0:0:0:
189,99,99439,1,4,0:0:0:0:
189,99,99739,1,4,0:0:0:0:
189,99,100039,1,4,0:0:0:0:
189,99,100339,1,4,0:0:0:0:
189,99,100639,1,4,0:0:0:0:
189,99,100789,1,4,0:0:0:0:
186,120,101239,1,4,0:0:0:0:
190,121,101539,1,4,0:0:0:0:
191,122,101839,1,4,0:0:0:0:
191,122,102139,1,4,0:0:0:0:
190,121,102439,1,4,0:0:0:0:
191,122,102739,1,4,0:0:0:0:
191,122,103039,1,4,0:0:0:0:
191,122,103189,1,4,0:0:0:0:
191,93,103339,1,8,0:0:0:0:
191,93,103489,1,8,0:0:0:0:
186,126,103639,1,4,0:0:0:0:
176,140,103939,1,4,0:0:0:0:
182,149,104239,1,4,0:0:0:0:
215,132,105739,1,0,0:0:0:0:
215,132,105889,1,8,0:0:0:0:
215,132,106039,1,0,0:0:0:0:
215,132,106189,1,8,0:0:0:0:
215,132,106339,1,0,0:0:0:0:
215,132,106489,1,8,0:0:0:0:
215,132,106639,1,0,0:0:0:0:
215,132,106789,1,8,0:0:0:0:
215,132,106939,1,0,0:0:0:0:
215,132,107089,1,8,0:0:0:0:
215,132,107239,1,0,0:0:0:0:
215,132,107389,1,8,0:0:0:0:
215,132,107539,1,0,0:0:0:0:
189,86,107689,1,8,0:0:0:0:
203,100,107839,1,0,0:0:0:0:
202,97,107989,1,8,0:0:0:0:
201,98,108139,1,8,0:0:0:0:
201,98,108289,1,8,0:0:0:0:
192,157,108439,1,0,0:0:0:0:
205,121,108589,1,8,0:0:0:0:
205,121,108739,1,0,0:0:0:0:
212,124,108889,1,8,0:0:0:0:
217,127,109039,1,0,0:0:0:0:
218,127,109189,1,8,0:0:0:0:
218,127,109339,1,0,0:0:0:0:
218,127,109489,1,8,0:0:0:0:
196,117,109639,1,0,0:0:0:0:
189,121,109789,1,8,0:0:0:0:
189,121,109939,1,0,0:0:0:0:
204,132,110089,1,0,0:0:0:0:
193,127,110239,1,8,0:0:0:0:
189,105,110389,1,8,0:0:0:0:
231,172,110539,1,0,0:0:0:0:
187,132,110689,1,8,0:0:0:0:
199,239,110839,1,0,0:0:0:0:
183,149,110989,1,8,0:0:0:0:
183,149,111139,1,0,0:0:0:0:
183,149,111289,1,8,0:0:0:0:
183,149,111439,1,0,0:0:0:0:
183,149,111589,1,8,0:0:0:0:
183,149,111739,1,0,0:0:0:0:
183,149,111889,1,8,0:0:0:0:
183,149,112039,1,0,0:0:0:0:
173,88,112189,1,8,0:0:0:0:
173,88,112339,1,0,0:0:0:0:
173,88,112489,1,8,0:0:0:0:
200,113,112639,1,0,0:0:0:0:
187,93,112789,1,8,0:0:0:0:
187,93,112939,1,8,0:0:0:0:
187,93,113089,1,8,0:0:0:0:
186,91,113239,1,0,0:0:0:0:
186,124,113389,1,8,0:0:0:0:
186,124,113539,1,0,0:0:0:0:
186,124,113689,1,8,0:0:0:0:
186,124,113839,1,0,0:0:0:0:
186,124,113989,1,8,0:0:0:0:
203,94,114139,1,0,0:0:0:0:
203,94,114289,1,8,0:0:0:0:
203,94,114439,1,0,0:0:0:0:
203,94,114589,1,8,0:0:0:0:
203,94,114739,1,0,0:0:0:0:
196,146,114889,1,0,0:0:0:0:
208,137,115039,1,8,0:0:0:0:
208,137,115189,1,8,0:0:0:0:
217,168,115339,1,0,0:0:0:0:
221,143,115489,1,8,0:0:0:0:
221,143,115639,1,0,0:0:0:0:
222,143,115789,1,8,0:0:0:0:
222,143,115939,1,0,0:0:0:0:
222,143,116089,1,8,0:0:0:0:
222,143,116239,1,0,0:0:0:0:
221,143,116389,1,8,0:0:0:0:
221,143,116539,1,0,0:0:0:0:
221,143,116689,1,8,0:0:0:0:
203,108,116839,1,0,0:0:0:0:
203,108,116989,1,8,0:0:0:0:
203,108,117139,1,0,0:0:0:0:
203,108,117289,1,8,0:0:0:0:
214,115,117439,1,0,0:0:0:0:
213,115,117589,1,8,0:0:0:0:
213,115,117739,1,8,0:0:0:0:
213,115,117889,1,8,0:0:0:0:
192,157,118039,1,0,0:0:0:0:
205,121,118189,1,8,0:0:0:0:
205,121,118339,1,0,0:0:0:0:
212,124,118489,1,8,0:0:0:0:
217,127,118639,1,0,0:0:0:0:
218,127,118789,1,8,0:0:0:0:
218,127,118939,1,0,0:0:0:0:
218,127,119089,1,8,0:0:0:0:
196,117,119239,1,0,0:0:0:0:
189,121,119389,1,8,0:0:0:0:
189,121,119539,1,0,0:0:0:0:
230,143,119689,1,0,0:0:0:0:
193,127,119839,1,8,0:0:0:0:
189,105,119989,1,8,0:0:0:0:
231,172,120139,1,0,0:0:0:0:
187,132,120289,1,8,0:0:0:0:
199,239,120439,1,0,0:0:0:0:
183,149,120589,1,8,0:0:0:0:
183,149,120739,1,0,0:0:0:0:
183,149,120889,1,8,0:0:0:0:
183,149,121039,1,0,0:0:0:0:
183,149,121189,1,8,0:0:0:0:
183,149,121339,1,0,0:0:0:0:
183,149,121489,1,8,0:0:0:0:
183,149,121639,1,0,0:0:0:0:
173,88,121789,1,8,0:0:0:0:
173,88,121939,1,0,0:0:0:0:
173,88,122089,1,8,0:0:0:0:
200,113,122239,1,0,0:0:0:0:
187,93,122389,1,8,0:0:0:0:
187,93,122539,1,8,0:0:0:0:
187,93,122689,1,8,0:0:0:0:
186,91,122839,1,0,0:0:0:0:
186,124,122989,1,8,0:0:0:0:
186,124,123139,1,0,0:0:0:0:
186,124,123289,1,8,0:0:0:0:
186,124,123439,1,0,0:0:0:0:
186,124,123589,1,8,0:0:0:0:
171,95,124939,1,0,0:0:0:0:
190,99,125089,1,8,0:0:0:0:
190,99,125164,1,0,0:0:0:0:
175,104,125239,1,8,0:0:0:0:
240,152,125389,1,0,0:0:0:0:
240,152,125464,1,0,0:0:0:0:
229,142,125539,1,8,0:0:0:0:
198,161,125689,1,0,0:0:0:0:
204,88,125764,1,0,0:0:0:0:
204,88,125839,1,8,0:0:0:0:
204,88,125914,1,0,0:0:0:0:
206,88,125989,1,8,0:0:0:0:
177,94,126064,1,8,0:0:0:0:
182,96,126139,1,0,0:0:0:0:
219,109,126214,1,0,0:0:0:0:
219,109,126289,1,8,0:0:0:0:
204,88,126439,1,0,0:0:0:0:
204,88,126514,1,0,0:0:0:0:
204,88,126589,1,8,0:0:0:0:
195,95,126664,1,0,0:0:0:0:
195,106,126739,1,8,0:0:0:0:
214,160,126889,1,8,0:0:0:0:
178,126,126964,1,8,0:0:0:0:
178,126,127039,1,0,0:0:0:0:
181,57,127114,1,8,0:0:0:0:
195,70,127189,1,0,0:0:0:0:
168,81,127339,1,0,0:0:0:0:
190,99,127489,1,8,0:0:0:0:
186,130,127564,1,8,0:0:0:0:
179,62,127639,1,0,0:0:0:0:
240,152,127789,1,0,0:0:0:0:
240,152,127864,1,0,0:0:0:0:
229,142,127939,1,8,0:0:0:0:
176,86,128089,1,8,0:0:0:0:
176,68,128239,1,0,0:0:0:0:
204,88,128314,1,0,0:0:0:0:
206,88,128389,1,8,0:0:0:0:
177,94,128464,1,8,0:0:0:0:
182,96,128539,1,0,0:0:0:0:
211,96,128614,1,0,0:0:0:0:
219,109,128689,1,8,0:0:0:0:
204,88,128839,1,0,0:0:0:0:
204,88,128914,1,0,0:0:0:0:
204,88,128989,1,8,0:0:0:0:
195,95,129064,1,0,0:0:0:0:
195,106,129139,1,8,0:0:0:0:
244,113,129289,1,0,0:0:0:0:
178,126,129364,1,8,0:0:0:0:
225,124,129514,1,0,0:0:0:0:
186,75,129589,1,8,0:0:0:0:
228,133,129664,1,8,0:0:0:0:
168,81,129739,1,0,0:0:0:0:
190,99,129889,1,8,0:0:0:0:
186,59,129964,1,8,0:0:0:0:
186,59,130039,1,0,0:0:0:0:
240,152,130189,1,0,0:0:0:0:
240,152,130264,1,0,0:0:0:0:
229,142,130339,1,8,0:0:0:0:
198,161,130489,1,0,0:0:0:0:
174,123,130564,1,8,0:0:0:0:
204,88,130639,1,8,0:0:0:0:
204,88,130714,1,0,0:0:0:0:
206,88,130789,1,8,0:0:0:0:
177,94,130864,1,8,0:0:0:0:
182,96,130939,1,0,0:0:0:0:
219,109,131014,1,0,0:0:0:0:
219,109,131089,1,8,0:0:0:0:
204,88,131239,1,0,0:0:0:0:
204,88,131314,1,0,0:0:0:0:
204,88,131389,1,8,0:0:0:0:
195,95,131464,1,0,0:0:0:0:
195,106,131539,1,8,0:0:0:0:
214,160,131689,1,8,0:0:0:0:
198,116,131764,1,0,0:0:0:0:
178,126,131839,1,0,0:0:0:0:
191,86,131914,1,8,0:0:0:0:
209,107,131989,1,0,0:0:0:0:
171,95,132139,1,0,0:0:0:0:
199,71,132289,1,8,0:0:0:0:
199,98,132364,1,8,0:0:0:0:
199,88,132439,1,0,0:0:0:0:
240,152,132589,1,0,0:0:0:0:
176,97,132664,1,0,0:0:0:0:
229,142,132739,1,8,0:0:0:0:
163,53,132889,1,8,0:0:0:0:
182,83,133039,1,0,0:0:0:0:
199,71,133114,1,0,0:0:0:0:
206,88,133189,1,8,0:0:0:0:
199,71,133264,1,0,0:0:0:0:
176,74,133339,1,0,0:0:0:0:
187,94,133414,1,0,0:0:0:0:
189,76,133489,1,8,0:0:0:0:
202,76,133639,1,8,0:0:0:0:
204,88,133714,1,0,0:0:0:0:
204,88,133789,1,8,0:0:0:0:
195,95,133864,1,0,0:0:0:0:
195,106,133939,1,8,0:0:0:0:
165,78,134089,1,0,0:0:0:0:
178,126,134164,1,8,0:0:0:0:
181,57,134314,1,8,0:0:0:0:
195,70,134389,1,0,0:0:0:0:
171,95,134539,1,12,0:0:0:0:
222,172,134689,1,0,0:0:0:0:
190,99,134764,1,0,0:0:0:0:
175,104,134839,1,8,0:0:0:0:
240,152,134989,1,0,0:0:0:0:
240,152,135064,1,0,0:0:0:0:
229,142,135139,1,8,0:0:0:0:
198,161,135289,1,0,0:0:0:0:
175,59,135364,1,0,0:0:0:0:
204,88,135439,1,8,0:0:0:0:
204,88,135514,1,0,0:0:0:0:
182,63,135589,1,8,0:0:0:0:
190,99,135664,1,8,0:0:0:0:
182,96,135739,1,0,0:0:0:0:
219,109,135814,1,0,0:0:0:0:
219,109,135889,1,8,0:0:0:0:
206,98,136039,1,8,0:0:0:0:
186,81,136114,1,8,0:0:0:0:
186,81,136189,1,8,0:0:0:0:
186,81,136264,1,8,0:0:0:0:
172,101,136339,1,0,0:0:0:0:
182,104,136639,1,0,0:0:0:0:
239,88,136939,1,8,0:0:0:0:
239,88,137239,1,8,0:0:0:0:
239,88,137539,1,0,0:0:0:0:
240,99,137839,1,0,0:0:0:0:
240,99,138139,1,8,0:0:0:0:
136,103,138439,1,8,0:0:0:0:
110,100,138739,1,0,0:0:0:0:
122,108,139039,1,0,0:0:0:0:
205,129,139339,1,0,0:0:0:0:
205,129,139489,1,0,0:0:0:0:
205,129,139639,1,0,0:0:0:0:
205,129,139789,1,0,0:0:0:0:
205,129,139939,1,0,0:0:0:0:
205,129,140089,1,0,0:0:0:0:
205,129,140239,1,0,0:0:0:0:
205,129,140389,1,0,0:0:0:0:
205,129,140539,1,8,0:0:0:0:
205,129,140689,1,8,0:0:0:0:
205,129,140839,1,8,0:0:0:0:
205,129,140989,1,8,0:0:0:0:
205,129,141139,1,8,0:0:0:0:
205,129,141289,1,8,0:0:0:0:
205,129,141439,1,8,0:0:0:0:
188,144,141589,1,8,0:0:0:0:
216,132,141739,1,0,0:0:0:0:
219,133,141814,1,0,0:0:0:0:
205,134,141889,1,0,0:0:0:0:
201,135,141964,1,0,0:0:0:0:
203,134,142039,1,0,0:0:0:0:
205,142,142114,1,0,0:0:0:0:
198,140,142189,1,0,0:0:0:0:
198,140,142264,1,0,0:0:0:0:
205,142,142339,1,0,0:0:0:0:
198,140,142414,1,0,0:0:0:0:
205,149,142489,1,0,0:0:0:0:
197,150,142564,1,0,0:0:0:0:
205,157,142639,1,0,0:0:0:0:
206,159,142714,1,0,0:0:0:0:
203,160,142789,1,0,0:0:0:0:
204,161,142864,1,0,0:0:0:0:
226,132,142939,1,0,0:0:0:0:
185,69,143089,1,8,0:0:0:0:
164,83,143314,1,0,0:0:0:0:
188,52,143389,1,8,0:0:0:0:
188,52,143464,1,0,0:0:0:0:
185,69,143539,1,8,0:0:0:0:
203,74,143689,1,8,0:0:0:0:
204,74,143764,1,8,0:0:0:0:
191,122,143839,1,8,0:0:0:0:
174,78,143989,1,8,0:0:0:0:
240,128,144139,1,0,0:0:0:0:
190,113,144289,1,0,0:0:0:0:
190,113,144439,1,0,0:0:0:0:
188,112,144589,1,0,0:0:0:0:
190,73,144739,1,0,0:0:0:0:
190,113,144889,1,0,0:0:0:0:
188,112,145039,1,0,0:0:0:0:
190,113,145189,1,0,0:0:0:0:
175,121,145339,1,0,0:0:0:0:
188,112,145489,1,0,0:0:0:0:
188,112,145639,1,8,0:0:0:0:
209,157,145789,1,0,0:0:0:0:
205,145,145864,1,8,0:0:0:0:
231,105,146539,1,4,0:0:0:0:
231,105,146839,1,4,0:0:0:0:
202,122,147139,1,4,0:0:0:0:
213,125,147439,1,4,0:0:0:0:
214,126,147739,1,4,0:0:0:0:
214,126,148039,1,4,0:0:0:0:
213,125,148339,1,4,0:0:0:0:
214,126,148639,1,4,0:0:0:0:
214,126,148789,1,4,0:0:0:0:
209,118,149239,1,4,0:0:0:0:
203,110,149539,1,4,0:0:0:0:
215,120,149839,1,4,0:0:0:0:
226,130,150139,1,4,0:0:0:0:
228,132,150439,1,4,0:0:0:0:
234,135,150739,1,4,0:0:0:0:
240,128,151039,1,4,0:0:0:0:
240,128,151189,1,4,0:0:0:0:
225,136,151339,1,8,0:0:0:0:
202,98,151489,1,8,0:0:0:0:
231,105,151639,1,4,0:0:0:0:
202,122,151939,1,4,0:0:0:0:
213,125,152239,1,4,0:0:0:0:
211,156,152539,1,8,0:0:0:0:
203,94,152689,1,0,0:0:0:0:
215,142,152839,1,8,0:0:0:0:
217,143,152914,1,8,0:0:0:0:
212,139,152989,1,8,0:0:0:0:
199,211,153064,1,8,0:0:0:0:
199,211,153139,1,0,0:0:0:0:
272,154,153289,1,0,0:0:0:0:
262,157,153339,1,0,0:0:0:0:
211,149,153389,1,0,0:0:0:0:
259,159,153439,1,8,0:0:0:0:
176,131,153739,1,4,0:0:0:0:
176,131,154039,1,4,0:0:0:0:
176,131,154339,1,4,0:0:0:0:
176,131,154639,1,4,0:0:0:0:
176,131,154939,1,4,0:0:0:0:
176,131,155239,1,4,0:0:0:0:
176,131,155539,1,4,0:0:0:0:
176,131,155839,1,4,0:0:0:0:
176,131,155989,1,4,0:0:0:0:
182,108,156139,1,8,0:0:0:0:
179,108,156289,1,8,0:0:0:0:
206,108,156439,1,4,0:0:0:0:
189,99,156739,1,4,0:0:0:0:
189,99,157039,1,4,0:0:0:0:
189,99,157339,1,4,0:0:0:0:
189,99,157639,1,4,0:0:0:0:
189,99,157939,1,4,0:0:0:0:
189,99,158239,1,4,0:0:0:0:
189,99,158389,1,4,0:0:0:0:
186,120,158839,1,4,0:0:0:0:
190,121,159139,1,4,0:0:0:0:
191,122,159439,1,4,0:0:0:0:
191,122,159739,1,4,0:0:0:0:
190,121,160039,1,4,0:0:0:0:
191,122,160339,1,4,0:0:0:0:
191,122,160639,1,4,0:0:0:0:
191,122,160789,1,4,0:0:0:0:
191,93,160939,1,8,0:0:0:0:
191,93,161089,1,8,0:0:0:0:
186,126,161239,1,4,0:0:0:0:
176,140,161539,1,4,0:0:0:0:
182,149,161839,1,4,0:0:0:0:
201,148,162139,1,8,0:0:0:0:
201,148,162289,1,8,0:0:0:0:
197,125,162439,1,0,0:0:0:0:
204,126,162589,1,0,0:0:0:0:
181,63,162664,1,8,0:0:0:0:
205,100,162739,1,8,0:0:0:0:
181,63,162889,1,8,0:0:0:0:
181,63,162964,1,8,0:0:0:0:
181,63,163039,1,0,0:0:0:0:
231,105,163339,1,4,0:0:0:0:
231,105,163639,1,4,0:0:0:0:
202,122,163939,1,4,0:0:0:0:
213,125,164239,1,4,0:0:0:0:
214,126,164539,1,4,0:0:0:0:
214,126,164839,1,4,0:0:0:0:
213,125,165139,1,4,0:0:0:0:
214,126,165439,1,4,0:0:0:0:
214,126,165589,1,4,0:0:0:0:
216,130,165739,1,8,0:0:0:0:
211,129,165889,1,8,0:0:0:0:
209,118,166039,1,4,0:0:0:0:
203,110,166339,1,4,0:0:0:0:
215,120,166639,1,4,0:0:0:0:
226,130,166939,1,4,0:0:0:0:
228,132,167239,1,4,0:0:0:0:
234,135,167539,1,4,0:0:0:0:
240,128,167839,1,4,0:0:0:0:
240,128,167989,1,4,0:0:0:0:
206,181,168139,1,8,0:0:0:0:
231,105,168439,1,4,0:0:0:0:
202,122,168739,1,4,0:0:0:0:
213,125,169039,1,4,0:0:0:0:
214,126,169339,1,4,0:0:0:0:
214,126,169639,1,4,0:0:0:0:
213,125,169939,1,4,0:0:0:0:
214,126,170239,1,4,0:0:0:0:
214,126,170389,1,4,0:0:0:0:
216,130,170539,1,8,0:0:0:0:
211,129,170689,1,8,0:0:0:0:
209,118,170839,1,4,0:0:0:0:
203,110,171139,1,4,0:0:0:0:
215,120,171439,1,4,0:0:0:0:
211,156,171739,1,8,0:0:0:0:
203,94,171889,1,0,0:0:0:0:
215,142,172039,1,8,0:0:0:0:
217,143,172114,1,8,0:0:0:0:
212,139,172189,1,8,0:0:0:0:
199,211,172264,1,8,0:0:0:0:
199,211,172339,1,0,0:0:0:0:
272,154,172489,1,0,0:0:0:0:
262,157,172539,1,0,0:0:0:0:
211,149,172589,1,0,0:0:0:0:
259,159,172639,1,8,0:0:0:0:
231,105,172939,1,4,0:0:0:0:
231,105,173239,1,4,0:0:0:0:
202,122,173539,1,4,0:0:0:0:
213,125,173839,1,4,0:0:0:0:
214,126,174139,1,4,0:0:0:0:
214,126,174439,1,4,0:0:0:0:
213,125,174739,1,4,0:0:0:0:
214,126,175039,1,4,0:0:0:0:
214,126,175189,1,4,0:0:0:0:
216,130,175339,1,8,0:0:0:0:
211,129,175489,1,8,0:0:0:0:
209,118,175639,1,4,0:0:0:0:
203,110,175939,1,4,0:0:0:0:
215,120,176239,1,4,0:0:0:0:
226,130,176539,1,4,0:0:0:0:
228,132,176839,1,4,0:0:0:0:
234,135,177139,1,4,0:0:0:0:
240,128,177439,1,4,0:0:0:0:
240,128,177589,1,4,0:0:0:0:
225,136,177739,1,8,0:0:0:0:
231,105,178039,1,4,0:0:0:0:
202,122,178339,1,4,0:0:0:0:
213,125,178639,1,4,0:0:0:0:
214,126,178939,1,4,0:0:0:0:
214,126,179239,1,4,0:0:0:0:
213,125,179539,1,4,0:0:0:0:
214,126,179839,1,4,0:0:0:0:
214,126,179989,1,4,0:0:0:0:
216,130,180139,1,8,0:0:0:0:
211,129,180289,1,8,0:0:0:0:
209,118,180439,1,4,0:0:0:0:
203,110,180739,1,4,0:0:0:0:
215,120,181039,1,4,0:0:0:0:
215,132,182539,1,0,0:0:0:0:
215,132,182689,1,8,0:0:0:0:
215,132,182839,1,0,0:0:0:0:
215,132,182989,1,8,0:0:0:0:
215,132,183139,1,0,0:0:0:0:
215,132,183289,1,8,0:0:0:0:
215,132,183439,1,0,0:0:0:0:
215,132,183589,1,8,0:0:0:0:
215,132,183739,1,0,0:0:0:0:
215,132,183889,1,8,0:0:0:0:
215,132,184039,1,0,0:0:0:0:
215,132,184189,1,8,0:0:0:0:
215,132,184339,1,0,0:0:0:0:
189,86,184489,1,8,0:0:0:0:
203,100,184639,1,0,0:0:0:0:
202,97,184789,1,8,0:0:0:0:
201,98,184939,1,8,0:0:0:0:
201,98,185089,1,8,0:0:0:0:
192,157,185239,1,0,0:0:0:0:
205,121,185389,1,8,0:0:0:0:
205,121,185539,1,0,0:0:0:0:
212,124,185689,1,8,0:0:0:0:
217,127,185839,1,0,0:0:0:0:
218,127,185989,1,8,0:0:0:0:
218,127,186139,1,0,0:0:0:0:
218,127,186289,1,8,0:0:0:0:
196,117,186439,1,0,0:0:0:0:
189,121,186589,1,8,0:0:0:0:
189,121,186739,1,0,0:0:0:0:
191,151,186889,1,0,0:0:0:0:
193,127,187039,1,8,0:0:0:0:
189,105,187189,1,8,0:0:0:0:
231,172,187339,1,0,0:0:0:0:
187,132,187489,1,8,0:0:0:0:
199,239,187639,1,0,0:0:0:0:
183,149,187789,1,8,0:0:0:0:
183,149,187939,1,0,0:0:0:0:
183,149,188089,1,8,0:0:0:0:
183,149,188239,1,0,0:0:0:0:
183,149,188389,1,8,0:0:0:0:
183,149,188539,1,0,0:0:0:0:
183,149,188689,1,8,0:0:0:0:
183,149,188839,1,0,0:0:0:0:
173,88,188989,1,8,0:0:0:0:
173,88,189139,1,0,0:0:0:0:
173,88,189289,1,8,0:0:0:0:
200,113,189439,1,0,0:0:0:0:
187,93,189589,1,8,0:0:0:0:
187,93,189739,1,8,0:0:0:0:
187,93,189889,1,8,0:0:0:0:
186,91,190039,1,0,0:0:0:0:
186,124,190189,1,8,0:0:0:0:
186,124,190339,1,0,0:0:0:0:
186,124,190489,1,8,0:0:0:0:
186,124,190639,1,0,0:0:0:0:
186,124,190789,1,8,0:0:0:0:
203,94,190939,1,0,0:0:0:0:
203,94,191089,1,8,0:0:0:0:
203,94,191239,1,0,0:0:0:0:
203,94,191389,1,8,0:0:0:0:
203,94,191539,1,0,0:0:0:0:
174,133,191689,1,0,0:0:0:0:
208,137,191839,1,8,0:0:0:0:
208,137,191989,1,8,0:0:0:0:
217,168,192139,1,0,0:0:0:0:
221,143,192289,1,8,0:0:0:0:
221,143,192439,1,0,0:0:0:0:
222,143,192589,1,8,0:0:0:0:
222,143,192739,1,0,0:0:0:0:
222,143,192889,1,8,0:0:0:0:
222,143,193039,1,0,0:0:0:0:
221,143,193189,1,8,0:0:0:0:
221,143,193339,1,0,0:0:0:0:
221,143,193489,1,8,0:0:0:0:
203,108,193639,1,0,0:0:0:0:
203,108,193789,1,8,0:0:0:0:
203,108,193939,1,0,0:0:0:0:
203,108,194089,1,8,0:0:0:0:
214,115,194239,1,0,0:0:0:0:
213,115,194389,1,8,0:0:0:0:
213,115,194539,1,8,0:0:0:0:
213,115,194689,1,8,0:0:0:0:
192,157,194839,1,0,0:0:0:0:
205,121,194989,1,8,0:0:0:0:
205,121,195139,1,0,0:0:0:0:
212,124,195289,1,8,0:0:0:0:
217,127,195439,1,0,0:0:0:0:
218,127,195589,1,8,0:0:0:0:
218,127,195739,1,0,0:0:0:0:
218,127,195889,1,8,0:0:0:0:
196,117,196039,1,0,0:0:0:0:
189,121,196189,1,8,0:0:0:0:
189,121,196339,1,0,0:0:0:0:
214,142,196489,1,0,0:0:0:0:
193,127,196639,1,8,0:0:0:0:
189,105,196789,1,8,0:0:0:0:
231,172,196939,1,0,0:0:0:0:
187,132,197089,1,8,0:0:0:0:
199,239,197239,1,0,0:0:0:0:
183,149,197389,1,8,0:0:0:0:
183,149,197539,1,0,0:0:0:0:
183,149,197689,1,8,0:0:0:0:
183,149,197839,1,0,0:0:0:0:
183,149,197989,1,8,0:0:0:0:
183,149,198139,1,0,0:0:0:0:
183,149,198289,1,8,0:0:0:0:
183,149,198439,1,0,0:0:0:0:
173,88,198589,1,8,0:0:0:0:
173,88,198739,1,0,0:0:0:0:
173,88,198889,1,8,0:0:0:0:
200,113,199039,1,0,0:0:0:0:
187,93,199189,1,8,0:0:0:0:
187,93,199339,1,8,0:0:0:0:
187,93,199489,1,8,0:0:0:0:
186,91,199639,1,0,0:0:0:0:
186,124,199789,1,8,0:0:0:0:
186,124,199939,1,0,0:0:0:0:
186,124,200089,1,8,0:0:0:0:
186,124,200239,1,0,0:0:0:0:
186,124,200389,1,8,0:0:0:0:
224,142,201739,1,0,0:0:0:0:
206,137,202039,1,0,0:0:0:0:
224,142,202339,1,0,0:0:0:0:
207,137,202639,1,0,0:0:0:0:
213,141,202939,1,0,0:0:0:0:
224,142,203239,1,0,0:0:0:0:
226,145,203539,1,0,0:0:0:0:
201,144,203839,1,0,0:0:0:0:
199,145,203989,1,0,0:0:0:0:
186,132,204139,1,0,0:0:0:0:
186,132,204289,1,0,0:0:0:0:
186,132,204439,1,0,0:0:0:0:
183,128,204739,1,0,0:0:0:0:
186,132,205039,1,0,0:0:0:0:
186,132,205339,1,0,0:0:0:0:
196,136,205639,1,0,0:0:0:0:
201,139,205939,1,0,0:0:0:0:
213,146,206239,1,0,0:0:0:0:
212,146,206389,1,0,0:0:0:0:
210,147,206539,1,0,0:0:0:0:
180,139,206839,1,0,0:0:0:0:
180,139,207139,1,0,0:0:0:0:
180,139,207439,1,0,0:0:0:0:
180,139,207739,1,0,0:0:0:0:
180,139,208039,1,0,0:0:0:0:
180,139,208339,1,0,0:0:0:0:
180,139,208639,1,0,0:0:0:0:
180,139,208789,1,0,0:0:0:0:
180,139,208939,1,0,0:0:0:0:
180,139,209089,1,0,0:0:0:0:
180,139,209239,1,0,0:0:0:0:
196,133,209539,1,0,0:0:0:0:
196,133,209839,1,0,0:0:0:0:
196,133,210139,1,0,0:0:0:0:
196,133,210439,1,0,0:0:0:0:
196,133,210739,1,0,0:0:0:0:
196,133,211039,1,0,0:0:0:0:
188,140,211189,1,0,0:0:0:0:
186,150,211339,1,8,0:0:0:0:
181,103,211639,1,0,0:0:0:0:
172,157,211939,1,8,0:0:0:0:
