osu file format v14

[General]
AudioFilename: audio.mp3
AudioLeadIn: 0
PreviewTime: 121404
Countdown: 0
SampleSet: Soft
StackLeniency: 0.3
Mode: 0
LetterboxInBreaks: 0
WidescreenStoryboard: 1

[Editor]
Bookmarks: 29690,218604,224604,226490,228718,230861
DistanceSpacing: 1.4
BeatDivisor: 4
GridSize: 4
TimelineZoom: 1

[Metadata]
Title:Usotsuki Imitation (DDVM Remixing Ver.)
TitleUnicode:嘘つきイミテーション (DDVM Remixing Ver.)
Artist:Sevencolors
ArtistUnicode:Sevencolors
Creator:RVMathew
Version:Ojou Lite
Source:
Tags:Castagne Track 04 feat. featuring 巡音ルカ Megurine Luka Dance VOCALOMUSIC ★ Volume Vol. 02 -Funky Drum'n'Bass- and & DnB Works 2010-2011 Best Vocaloid Pop Electronic Japanese Novelty
BeatmapID:2841790
BeatmapSetID:1369263

[Difficulty]
HPDrainRate:6
CircleSize:5
OverallDifficulty:8.2
ApproachRate:8.6
SliderMultiplier:1.4
SliderTickRate:1

[Events]
//Background and Video events
0,0,"Background 1.jpg",0,0
//Break Periods
2,165661,172318
//Storyboard Layer 0 (Background)
//Storyboard Layer 1 (Fail)
//Storyboard Layer 2 (Pass)
//Storyboard Layer 3 (Foreground)
//Storyboard Layer 4 (Overlay)
//Storyboard Sound Samples

[TimingPoints]
890,342.857142857143,4,2,8,55,1,0
890,-111.111111111111,4,2,8,55,0,0
11861,-105.263157894737,4,2,1,65,0,0
22832,-90.9090909090909,4,2,1,75,0,1
33632,-90.9090909090909,4,2,1,75,0,0
33804,-90.9090909090909,4,2,1,75,0,1
44775,-95.2380952380952,4,2,1,70,0,0
88661,-125,4,2,1,60,0,0
94147,-105.263157894737,4,2,1,65,0,0
99632,-95.2380952380952,4,2,1,70,0,0
121575,-90.9090909090909,4,2,1,75,0,1
132375,-90.9090909090909,4,2,1,75,0,0
132547,-90.9090909090909,4,2,1,75,0,1
143518,-95.2380952380952,4,2,1,70,0,0
165461,-100,4,2,1,55,0,0
165547,-100,4,2,8,55,0,0
176432,-125,4,2,8,55,0,0
177632,-125,4,2,8,55,0,0
177804,-125,4,2,8,55,0,0
179004,-125,4,2,8,55,0,0
179175,-125,4,2,8,55,0,0
181918,-111.111111111111,4,2,1,65,0,0
184661,-105.263157894737,4,2,1,70,0,0
187404,-90.9090909090909,4,2,1,75,0,1
198204,-90.9090909090909,4,2,1,75,0,0
198375,-90.9090909090909,4,2,1,75,0,1
209347,-95.2380952380952,4,2,1,70,0,0
231290,-111.111111111111,4,2,8,55,0,0
232661,-111.111111111111,4,2,8,55,0,0
234032,-111.111111111111,4,2,8,55,0,0

[Colours]
Combo1 : 255,128,0
Combo2 : 0,69,138
Combo3 : 4,179,143
Combo4 : 255,66,160
Combo5 : 128,64,0

[HitObjects]
44,345,889,5,2,0:2:0:0:
44,345,1747,1,2,0:2:0:0:
106,302,1918,1,2,0:2:0:0:
68,236,2090,1,2,0:2:0:0:
27,172,2261,6,0,P|124:155|68:236,1,251.999992309571,2|2,0:2|0:2,0:2:0:0:
256,0,3632,5,2,0:2:0:0:
256,0,4490,1,2,0:2:0:0:
324,33,4661,1,2,0:2:0:0:
188,33,4832,1,2,0:2:0:0:
393,65,5690,5,2,0:2:0:0:
119,65,6032,1,2,0:2:0:0:
256,0,6375,5,2,0:2:0:0:
468,345,7232,1,2,0:2:0:0:
406,302,7404,1,2,0:2:0:0:
443,237,7575,1,2,0:2:0:0:
484,173,7747,6,0,P|431:131|452:234,1,251.999992309571,2|2,0:2|0:2,0:2:0:0:
143,192,9118,5,2,0:2:0:0:
143,192,9975,1,2,0:2:0:0:
200,142,10147,1,2,0:2:0:0:
220,219,10318,1,2,0:2:0:0:
220,219,10490,6,0,P|236:283|196:342,1,125.999996154785,2|0,0:2|0:2,0:2:0:0:
208,333,11175,1,2,0:2:0:0:
132,324,11347,1,2,0:2:0:0:
65,365,11518,1,8,0:2:0:0:
65,365,11861,6,0,P|36:369|-15:359,2,66.4999982242585,6|0|8,3:2|0:2|0:2,0:2:0:0:
34,291,12375,2,0,P|24:259|23:226,1,66.4999982242585,2|0,0:2|0:2,0:2:0:0:
150,205,12718,2,0,P|128:229|100:247,1,66.4999982242585,2|8,0:2|0:2,0:2:0:0:
78,168,13061,1,2,0:2:0:0:
78,168,13232,6,0,P|52:133|81:39,1,132.999996448517,2|8,0:2|0:2,0:2:0:0:
129,105,13747,1,2,0:2:0:0:
208,96,13918,2,0,L|190:162,1,66.4999982242585,2|0,0:2|0:2,0:2:0:0:
166,237,14261,1,8,0:2:0:0:
141,315,14432,1,0,0:2:0:0:
282,282,14604,6,0,L|348:264,1,66.4999982242585,2|2,3:2|0:2,0:2:0:0:
423,243,14947,1,8,0:2:0:0:
403,320,15118,1,2,0:2:0:0:
442,165,15290,1,0,0:2:0:0:
423,243,15461,1,2,0:2:0:0:
346,264,15632,1,10,0:2:0:0:
367,186,15804,6,0,B|324:131|324:131|347:62,1,132.999996448517,2|2,0:2|0:2,0:2:0:0:
424,53,16318,2,0,L|398:131,1,66.4999982242585,8|2,0:2|0:2,0:2:0:0:
367,186,16661,2,0,L|217:216,1,132.999996448517,2|10,0:2|0:2,0:2:0:0:
12,369,17347,6,0,B|79:355|79:355|124:291,1,132.999996448517,2|8,3:2|0:2,0:2:0:0:
161,236,17861,2,0,B|196:288|196:288|264:301,2,132.999996448517,2|2|2,0:2|0:2|0:2,0:2:0:0:
106,148,18718,6,0,B|174:129|174:129|206:71,1,132.999996448517,2|8,3:2|0:2,0:2:0:0:
256,158,19232,1,2,0:2:0:0:
308,75,19404,2,0,B|338:129|338:129|406:148,1,132.999996448517,2|8,3:2|0:2,0:2:0:0:
256,158,19918,1,0,0:2:0:0:
211,276,20090,6,0,L|171:224,1,66.4999982242585,2|2,3:2|3:2,0:2:0:0:
301,276,20432,2,0,L|341:224,1,66.4999982242585,2|2,3:2|3:2,0:2:0:0:
173,352,20775,2,0,L|108:337,1,66.4999982242585,0|2,3:2|3:2,0:2:0:0:
339,352,21118,2,0,L|403:337,1,66.4999982242585,2|2,3:2|3:2,0:2:0:0:
256,378,21461,6,0,L|266:341,3,33.2499991121292,0|0|2|0,3:2|0:2|3:2|0:2,0:2:0:0:
248,316,21804,1,0,3:2:0:0:
233,286,21890,1,0,0:2:0:0:
231,253,21975,1,2,3:2:0:0:
244,223,22061,1,0,0:2:0:0:
256,192,22147,2,0,L|242:147,1,33.2499991121292,0|0,3:2|0:2,0:2:0:0:
222,70,22318,2,0,L|199:95,1,33.2499991121292,2|0,3:2|0:2,0:2:0:0:
133,160,22490,1,2,3:2:0:0:
119,174,22661,5,0,0:2:0:0:
104,189,22832,6,0,B|181:204|181:204|224:267,1,154.000004699707,6|8,3:2|0:2,0:2:0:0:
332,265,23347,2,0,B|253:279|253:279|201:348,1,154.000004699707,2|2,0:2|0:2,0:2:0:0:
308,381,23861,1,8,0:2:0:0:
332,265,24032,6,0,P|311:227|314:184,1,77.0000023498536,2|0,0:2|3:2,0:2:0:0:
397,129,24375,2,0,P|416:163|417:201,1,77.0000023498536,2|8,0:2|0:2,0:2:0:0:
298,86,24718,2,0,P|329:36|240:28,1,154.000004699707,2|2,0:2|0:2,0:2:0:0:
187,83,25232,1,8,0:2:0:0:
85,48,25404,1,0,0:2:0:0:
58,172,25575,6,0,B|36:212|36:212|90:173|142:201,1,154.000004699707,2|8,3:2|0:2,0:2:0:0:
267,320,26090,2,0,B|289:280|289:280|235:319|188:294,1,154.000004699707,2|2,0:2|0:2,0:2:0:0:
137,198,26604,1,8,0:2:0:0:
212,88,26775,6,0,P|221:50|250:16,1,77.0000023498536,2|0,0:2|3:2,0:2:0:0:
318,98,27118,2,0,P|341:128|350:165,1,77.0000023498536,2|8,0:2|0:2,0:2:0:0:
500,246,27461,2,0,P|462:252|425:241,1,77.0000023498536,2|2,0:2|0:2,0:2:0:0:
276,318,27804,2,0,P|291:282|319:256,1,77.0000023498536,2|8,0:2|0:2,0:2:0:0:
319,256,28147,1,0,0:2:0:0:
163,377,28318,6,0,L|54:377,1,77.0000023498536,2|0,3:2|0:2,0:2:0:0:
38,285,28661,1,8,0:2:0:0:
38,285,28832,2,0,P|25:248|-1:220,1,77.0000023498536,2|0,0:2|0:2,0:2:0:0:
107,221,29175,2,0,P|119:184|145:156,1,77.0000023498536,2|8,0:2|0:2,0:2:0:0:
85,9,29518,1,2,0:2:0:0:
85,9,29690,6,0,P|102:43|132:67,1,77.0000023498536,2|0,3:2|0:2,0:2:0:0:
236,34,30032,1,8,0:2:0:0:
236,34,30204,2,0,P|242:71|233:108,1,77.0000023498536,2|2,0:2|0:2,0:2:0:0:
152,261,30547,2,0,P|142:224|148:186,1,77.0000023498536,2|8,0:2|0:2,0:2:0:0:
147,186,30890,1,0,0:2:0:0:
286,341,31061,6,0,P|320:352|365:348,1,77.0000023498536,2|2,3:2|0:2,0:2:0:0:
440,186,31404,1,10,0:2:0:0:
440,186,31575,2,0,P|412:210|395:243,1,77.0000023498536,2|0,0:2|0:2,0:2:0:0:
507,380,31918,2,0,P|501:343|479:312,1,77.0000023498536,2|8,0:2|0:2,0:2:0:0:
394,245,32261,6,0,P|405:211|402:166,1,77.0000023498536,2|0,0:2|3:2,0:2:0:0:
236,110,32604,2,0,P|260:139|295:155,1,77.0000023498536,2|8,0:2|0:2,0:2:0:0:
428,40,32947,2,0,P|390:46|358:67,1,77.0000023498536,2|0,0:2|0:2,0:2:0:0:
394,245,33290,1,10,0:2:0:0:
295,289,33461,1,10,0:2:0:0:
195,334,33632,1,0,0:2:0:0:
76,257,33804,6,0,B|153:272|153:272|196:335,1,154.000004699707,6|8,3:2|0:2,0:2:0:0:
97,151,34318,2,0,B|174:165|174:165|237:123,1,154.000004699707,2|2,0:2|0:2,0:2:0:0:
337,165,34832,1,8,0:2:0:0:
395,75,35004,6,0,P|420:103|432:139,1,77.0000023498536,2|2,0:2|3:2,0:2:0:0:
502,220,35347,2,0,P|476:248|463:284,1,77.0000023498536,0|8,0:2|0:2,0:2:0:0:
509,382,35690,2,0,B|438:345|438:345|361:361,1,154.000004699707,2|2,0:2|0:2,0:2:0:0:
258,380,36204,1,8,0:2:0:0:
293,277,36375,1,0,0:2:0:0:
239,115,36547,6,0,B|256:170|256:170|164:138,1,154.000004699707,2|8,3:2|0:2,0:2:0:0:
63,266,37061,2,0,B|45:210|45:210|135:242,1,154.000004699707,2|2,0:2|0:2,0:2:0:0:
238,274,37575,1,8,0:2:0:0:
320,205,37747,6,0,L|296:131,1,77.0000023498536,2|0,0:2|3:2,0:2:0:0:
451,217,38090,2,0,L|474:290,1,77.0000023498536,2|8,0:2|0:2,0:2:0:0:
307,311,38432,2,0,L|380:287,1,77.0000023498536,2|2,0:2|0:2,0:2:0:0:
461,124,38775,2,0,L|387:147,1,77.0000023498536,2|8,0:2|0:2,0:2:0:0:
387,146,39118,1,0,0:2:0:0:
279,71,39290,6,0,L|181:42,1,77.0000023498536,2|0,3:2|0:2,0:2:0:0:
48,140,39632,1,8,0:2:0:0:
48,140,39804,2,0,L|146:111,1,77.0000023498536,2|0,0:2|0:2,0:2:0:0:
205,49,40147,1,2,0:2:0:0:
179,209,40318,1,8,0:2:0:0:
121,118,40490,1,2,0:2:0:0:
242,333,40661,6,0,L|160:321,1,77.0000023498536,2|0,3:2|0:2,0:2:0:0:
15,229,41004,1,8,0:2:0:0:
15,229,41175,2,0,L|92:241,1,77.0000023498536,2|2,0:2|0:2,0:2:0:0:
166,322,41518,1,2,0:2:0:0:
139,145,41690,1,8,0:2:0:0:
91,241,41861,1,0,0:2:0:0:
258,109,42032,6,0,P|295:121|339:115,1,77.0000023498536,2|2,3:2|0:2,0:2:0:0:
482,48,42375,1,10,3:2:0:0:
482,48,42547,2,0,P|445:36|407:39,1,77.0000023498536,2|0,0:2|3:2,0:2:0:0:
332,117,42890,1,2,0:2:0:0:
407,193,43061,1,8,3:2:0:0:
278,325,43232,6,0,L|327:385,1,77.0000023498536,2|0,0:2|3:2,0:2:0:0:
438,255,43575,2,0,L|389:315,1,77.0000023498536,2|8,3:2|3:2,0:2:0:0:
339,220,43918,1,2,3:2:0:0:
389,315,44090,1,0,3:2:0:0:
289,125,44261,1,2,3:2:0:0:
354,40,44432,1,10,3:2:0:0:
354,40,44775,6,0,L|430:40,2,73.4999977569581,6|0|8,3:2|0:2|0:2,0:2:0:0:
301,112,45290,2,0,P|278:142|270:180,1,73.4999977569581,2|0,0:2|0:2,0:2:0:0:
400,238,45632,2,0,P|386:205|359:180,1,73.4999977569581,2|8,0:2|0:2,0:2:0:0:
310,253,45975,6,0,L|163:253,1,146.999995513916,2|2,0:2|0:2,0:2:0:0:
74,253,46490,1,8,0:2:0:0:
135,190,46661,1,2,0:2:0:0:
46,190,46832,2,0,L|16:122,1,73.4999977569581,2|0,0:2|0:2,0:2:0:0:
104,123,47175,1,8,0:2:0:0:
64,44,47347,1,0,0:2:0:0:
193,123,47518,6,0,L|275:123,2,73.4999977569581,2|2|8,3:2|0:2|0:2,0:2:0:0:
234,44,48032,2,0,B|307:44|307:44|354:100,1,146.999995513916,2|2,0:2|0:2,0:2:0:0:
335,187,48547,1,8,0:2:0:0:
297,267,48718,6,0,P|307:301|332:328,1,73.4999977569581,2|0,0:2|3:2,0:2:0:0:
388,260,49061,2,0,P|413:233|423:198,1,73.4999977569581,2|8,0:2|0:2,0:2:0:0:
339,190,49404,1,0,0:2:0:0:
339,190,49575,2,0,L|183:190,1,146.999995513916,2|10,0:2|0:2,0:2:0:0:
103,190,50090,1,0,0:2:0:0:
160,96,50261,6,0,L|132:13,2,73.4999977569581,2|0|8,3:2|0:2|0:2,0:2:0:0:
306,61,50775,2,0,L|234:47,1,73.4999977569581,2|0,0:2|0:2,0:2:0:0:
192,190,51118,2,0,L|241:135,1,73.4999977569581,2|8,0:2|0:2,0:2:0:0:
287,275,51461,6,0,L|241:136,1,146.999995513916,2|2,0:2|0:2,0:2:0:0:
326,159,51975,1,8,0:2:0:0:
396,106,52147,1,2,0:2:0:0:
426,189,52318,2,0,P|461:186|498:203,1,73.4999977569581,2|0,0:2|0:2,0:2:0:0:
447,274,52661,2,0,P|461:307|459:343,1,73.4999977569581,10|0,0:2|0:2,0:2:0:0:
345,377,53004,5,2,3:2:0:0:
308,296,53175,1,2,0:2:0:0:
225,266,53347,1,8,0:2:0:0:
139,296,53518,2,0,L|118:218,1,73.4999977569581,2|0,0:2|0:2,0:2:0:0:
173,85,53861,5,2,0:2:0:0:
200,169,54032,1,8,0:2:0:0:
297,104,54204,6,0,L|378:104,1,73.4999977569581,2|0,0:2|3:2,0:2:0:0:
469,104,54547,2,0,L|432:167,1,73.4999977569581,2|8,0:2|0:2,0:2:0:0:
382,252,54890,2,0,L|345:188,1,73.4999977569581,2|0,0:2|0:2,0:2:0:0:
297,104,55232,1,10,0:2:0:0:
255,181,55404,1,10,0:2:0:0:
212,258,55575,1,0,0:2:0:0:
169,339,55747,6,0,L|93:339,2,73.4999977569581,6|0|8,3:2|0:2|0:2,0:2:0:0:
212,258,56261,2,0,P|235:228|243:190,1,73.4999977569581,2|0,0:2|0:2,0:2:0:0:
113,132,56604,2,0,P|127:165|154:190,1,73.4999977569581,2|8,0:2|0:2,0:2:0:0:
203,117,56947,6,0,L|350:117,1,146.999995513916,2|2,0:2|0:2,0:2:0:0:
439,117,57461,1,8,0:2:0:0:
378,180,57632,1,2,0:2:0:0:
467,180,57804,2,0,L|497:248,1,73.4999977569581,2|0,0:2|0:2,0:2:0:0:
409,247,58147,1,10,0:2:0:0:
449,326,58318,1,0,0:2:0:0:
322,247,58490,6,0,L|240:247,2,73.4999977569581,2|2|8,3:2|0:2|0:2,0:2:0:0:
281,326,59004,2,0,B|208:326|208:326|161:270,1,146.999995513916,2|2,0:2|0:2,0:2:0:0:
180,183,59518,1,8,0:2:0:0:
218,103,59690,6,0,P|208:69|183:42,1,73.4999977569581,2|0,0:2|3:2,0:2:0:0:
127,110,60032,2,0,P|102:137|92:172,1,73.4999977569581,2|8,0:2|0:2,0:2:0:0:
176,180,60375,1,0,0:2:0:0:
176,180,60547,2,0,L|332:180,1,146.999995513916,2|10,0:2|0:2,0:2:0:0:
411,180,61061,1,0,0:2:0:0:
355,274,61232,6,0,L|383:357,2,73.4999977569581,2|0|8,3:2|0:2|0:2,0:2:0:0:
209,309,61747,2,0,L|281:323,1,73.4999977569581,2|0,0:2|0:2,0:2:0:0:
323,180,62090,2,0,L|274:235,1,73.4999977569581,2|8,0:2|0:2,0:2:0:0:
228,96,62432,6,0,L|274:235,1,146.999995513916,2|2,0:2|0:2,0:2:0:0:
189,211,62947,1,8,0:2:0:0:
119,264,63118,1,2,0:2:0:0:
89,181,63290,2,0,P|54:184|17:167,1,73.4999977569581,2|0,0:2|0:2,0:2:0:0:
68,96,63632,2,0,P|54:63|56:27,1,73.4999977569581,10|0,0:2|0:2,0:2:0:0:
167,7,63975,5,2,3:2:0:0:
204,88,64147,1,2,0:2:0:0:
287,118,64318,1,8,0:2:0:0:
370,88,64490,2,0,L|391:166,1,73.4999977569581,2|0,0:2|0:2,0:2:0:0:
413,243,64832,1,2,0:2:0:0:
475,179,65004,1,8,0:2:0:0:
354,316,65175,6,0,L|273:316,1,73.4999977569581,2|0,0:2|3:2,0:2:0:0:
181,316,65518,2,0,L|218:253,1,73.4999977569581,2|8,0:2|0:2,0:2:0:0:
266,165,65861,2,0,L|303:229,1,73.4999977569581,2|0,0:2|0:2,0:2:0:0:
218,253,66204,1,10,0:2:0:0:
266,165,66375,1,10,0:2:0:0:
63,24,66718,5,6,3:2:0:0:
3,89,66890,1,0,0:2:0:0:
3,89,67061,2,0,L|18:171,1,73.4999977569581,8|2,0:2|0:2,0:2:0:0:
87,222,67404,1,0,0:2:0:0:
87,222,67575,2,0,L|72:304,1,73.4999977569581,2|8,3:2|0:2,0:2:0:0:
156,353,67918,1,2,0:2:0:0:
156,353,68090,6,0,B|262:353|262:353|238:321,1,146.999995513916,0|8,3:2|0:2,0:2:0:0:
312,261,68604,2,0,P|309:223|326:184,1,73.4999977569581,2|0,0:2|0:2,0:2:0:0:
382,126,68947,2,0,P|375:90|354:60,1,73.4999977569581,0|10,3:2|0:2,0:2:0:0:
288,2,69290,1,2,0:2:0:0:
209,68,69461,5,2,3:2:0:0:
124,42,69632,1,2,0:2:0:0:
137,129,69804,1,10,0:2:0:0:
52,103,69975,1,2,0:2:0:0:
155,219,70147,1,2,0:2:0:0:
155,219,70318,2,0,L|225:240,1,73.4999977569581,2|8,3:2|0:2,0:2:0:0:
340,167,70661,1,0,0:2:0:0:
340,167,70832,6,0,B|266:181|266:181|218:251,1,146.999995513916,2|10,3:2|0:2,0:2:0:0:
66,242,71347,2,0,B|140:256|140:256|181:316,1,146.999995513916,2|2,0:2|3:2,0:2:0:0:
225,240,71861,1,10,0:2:0:0:
423,351,72204,6,0,L|514:351,2,73.4999977569581,6|0|8,3:2|0:2|0:2,0:2:0:0:
375,269,72718,1,2,0:2:0:0:
397,113,72890,1,0,0:2:0:0:
287,226,73061,1,2,3:2:0:0:
443,199,73232,1,8,0:2:0:0:
301,129,73404,1,2,0:2:0:0:
195,231,73575,6,0,L|115:231,1,73.4999977569581,0|0,3:2|0:2,0:2:0:0:
0,177,73918,1,8,0:2:0:0:
0,177,74090,2,0,B|77:177|77:177|123:232,1,146.999995513916,2|0,0:2|3:2,0:2:0:0:
167,306,74604,1,10,0:2:0:0:
90,349,74775,1,2,0:2:0:0:
195,231,74947,6,0,L|215:148,1,73.4999977569581,2|2,3:2|0:2,0:2:0:0:
181,23,75290,1,8,0:2:0:0:
181,23,75461,2,0,L|235:74,1,73.4999977569581,2|2,0:2|0:2,0:2:0:0:
368,114,75804,2,0,L|298:135,1,73.4999977569581,2|8,3:2|0:2,0:2:0:0:
213,238,76147,6,0,B|309:211|309:211|279:258,1,146.999995513916,2|2,0:2|0:2,0:2:0:0:
241,328,76661,1,8,0:2:0:0:
153,318,76832,2,0,B|57:345|57:345|87:298,1,146.999995513916,2|2,0:2|3:2,0:2:0:0:
125,228,77347,1,10,0:2:0:0:
25,29,77690,5,6,3:2:0:0:
97,88,77861,1,0,0:2:0:0:
97,88,78032,2,0,P|134:86|169:73,1,73.4999977569581,8|2,0:2|0:2,0:2:0:0:
249,37,78375,1,0,0:2:0:0:
249,37,78547,2,0,P|285:38|320:50,1,73.4999977569581,2|8,3:2|0:2,0:2:0:0:
428,16,78890,1,2,0:2:0:0:
428,16,79061,6,0,B|388:-5|388:-5|422:43|396:101,1,146.999995513916,0|8,3:2|0:2,0:2:0:0:
335,152,79575,2,0,P|328:187|338:223,1,73.4999977569581,2|0,0:2|0:2,0:2:0:0:
419,256,79918,2,0,P|426:221|416:185,1,73.4999977569581,0|10,3:2|0:2,0:2:0:0:
338,223,80261,1,2,0:2:0:0:
390,334,80432,5,2,3:2:0:0:
305,357,80604,1,2,0:2:0:0:
236,300,80775,2,0,L|157:310,1,73.4999977569581,10|2,0:2|0:2,0:2:0:0:
38,237,81118,1,2,0:2:0:0:
38,237,81290,2,0,L|111:227,1,73.4999977569581,2|8,3:2|0:2,0:2:0:0:
196,153,81632,1,2,0:2:0:0:
196,153,81804,6,0,B|270:167|270:167|318:237,1,146.999995513916,0|8,3:2|0:2,0:2:0:0:
470,228,82318,2,0,B|396:242|396:242|355:302,1,146.999995513916,2|0,0:2|3:2,0:2:0:0:
309,377,82832,1,8,0:2:0:0:
122,268,83175,6,0,L|39:268,2,73.4999977569581,6|0|8,3:2|0:2|0:2,0:2:0:0:
211,268,83690,1,2,0:2:0:0:
165,192,83861,1,0,0:2:0:0:
256,343,84032,1,2,3:2:0:0:
122,268,84204,1,8,0:2:0:0:
256,192,84375,6,0,L|339:172,1,73.4999977569581,2|0,0:2|3:2,0:2:0:0:
464,206,84718,2,0,L|413:152,1,73.4999977569581,0|8,0:2|0:2,0:2:0:0:
373,19,85061,2,0,L|352:89,1,73.4999977569581,2|0,0:2|0:2,0:2:0:0:
256,192,85404,1,0,3:2:0:0:
301,267,85575,1,10,0:2:0:0:
169,174,85747,1,2,0:2:0:0:
231,30,85918,6,0,L|148:50,1,73.4999977569581,0|2,3:2|0:2,0:2:0:0:
23,16,86261,1,10,0:2:0:0:
23,16,86432,2,0,L|74:70,1,73.4999977569581,2|2,0:2|0:2,0:2:0:0:
114,203,86775,2,0,L|135:133,1,73.4999977569581,2|8,3:2|0:2,0:2:0:0:
159,47,87118,6,0,B|231:30|231:30|291:72,1,146.999995513916,2|2,0:2|0:2,0:2:0:0:
256,153,87632,1,8,0:2:0:0:
309,224,87804,2,0,B|380:240|380:240|440:197,1,146.999995513916,2|2,0:2|3:2,0:2:0:0:
511,145,88318,1,10,0:2:0:0:
380,34,88661,6,0,B|324:34|324:34|297:84,1,112,6|0,3:2|3:2,0:2:0:0:
165,87,89347,1,8,0:2:0:0:
165,87,89518,2,0,B|221:87|221:87|248:137,1,112,2|2,0:2|0:2,0:2:0:0:
278,204,90032,5,2,0:2:0:0:
278,204,90204,2,0,L|395:204,2,112,0|0|2,0:2|3:2|0:2,0:2:0:0:
236,257,91061,1,0,0:2:0:0:
203,317,91232,1,2,0:2:0:0:
203,317,91404,6,0,P|144:322|101:299,2,84,6|2|2,3:2|0:2|0:2,0:2:0:0:
236,257,92090,2,0,P|261:203|302:177,2,84,8|2|2,0:2|0:2|0:2,0:2:0:0:
271,314,92775,6,0,B|383:313|383:313|420:268,1,168,2|2,0:2|3:2,0:2:0:0:
461,218,93461,1,10,0:2:0:0:
406,95,93804,1,2,0:2:0:0:
406,95,94147,6,0,L|481:95,2,66.4999982242585,2|0|8,3:2|0:2|0:2,0:2:0:0:
352,154,94661,2,0,L|263:154,1,66.4999982242585,2|0,0:2|0:2,0:2:0:0:
164,85,95004,1,2,3:2:0:0:
205,154,95175,1,8,0:2:0:0:
244,223,95347,1,0,0:2:0:0:
244,223,95518,6,0,L|161:223,1,66.4999982242585,6|2,3:2|0:2,0:2:0:0:
290,294,95861,1,8,0:2:0:0:
290,294,96032,2,0,L|368:294,1,66.4999982242585,2|0,0:2|0:2,0:2:0:0:
474,363,96375,1,2,3:2:0:0:
436,294,96547,1,8,0:2:0:0:
490,236,96718,6,0,P|496:204|481:155,2,66.4999982242585,2|0|2,0:2|3:2|0:2,0:2:0:0:
436,294,97232,1,8,0:2:0:0:
378,349,97404,1,2,0:2:0:0:
272,285,97575,5,4,3:2:0:0:
348,258,97747,1,2,0:2:0:0:
289,205,97918,1,8,0:2:0:0:
365,179,98090,1,2,0:2:0:0:
256,109,98261,5,2,3:2:0:0:
230,101,98347,1,0,3:2:0:0:
204,94,98432,1,2,3:2:0:0:
144,148,98604,1,8,3:2:0:0:
67,126,98775,1,2,3:2:0:0:
41,118,98861,1,0,3:2:0:0:
15,111,98947,2,0,L|34:178,1,66.4999982242585,2|2,3:2|0:2,0:2:0:0:
56,265,99290,1,2,3:2:0:0:
88,273,99375,1,0,3:2:0:0:
120,281,99461,1,0,3:2:0:0:
152,289,99547,1,0,3:2:0:0:
184,297,99632,6,0,L|160:224,2,73.4999977569581,6|0|8,3:2|0:2|0:2,0:2:0:0:
334,251,100147,2,0,L|261:252,1,73.4999977569581,2|0,0:2|0:2,0:2:0:0:
210,97,100490,2,0,L|233:167,1,73.4999977569581,2|8,3:2|0:2,0:2:0:0:
384,121,100832,1,2,0:2:0:0:
384,121,101004,6,0,L|311:121,1,73.4999977569581,0|2,3:2|0:2,0:2:0:0:
486,88,101347,1,8,0:2:0:0:
486,88,101518,2,0,B|445:66|445:66|482:118|451:171,1,146.999995513916,2|0,0:2|3:2,0:2:0:0:
495,241,102032,2,0,P|459:250|432:274,1,73.4999977569581,8|0,0:2|0:2,0:2:0:0:
349,347,102375,6,0,B|274:347|274:347|230:290,1,146.999995513916,2|10,3:2|0:2,0:2:0:0:
361,210,102890,2,0,L|316:268,1,73.4999977569581,2|0,0:2|0:2,0:2:0:0:
210,145,103232,2,0,L|256:203,1,73.4999977569581,2|8,3:2|0:2,0:2:0:0:
124,122,103575,6,0,B|168:65|168:65|243:65,1,146.999995513916,2|2,0:2|0:2,0:2:0:0:
331,65,104090,1,8,0:2:0:0:
379,138,104261,1,0,0:2:0:0:
427,211,104432,1,2,3:2:0:0:
379,284,104604,1,0,3:2:0:0:
328,211,104775,2,0,L|246:211,1,73.4999977569581,8|0,0:2|0:2,0:2:0:0:
129,147,105118,6,0,L|166:211,2,73.4999977569581,2|0|8,3:2|0:2|0:2,0:2:0:0:
250,58,105632,2,0,L|214:122,1,73.4999977569581,2|0,0:2|0:2,0:2:0:0:
72,65,105975,2,0,L|146:65,1,73.4999977569581,2|8,3:2|0:2,0:2:0:0:
214,122,106318,1,2,0:2:0:0:
147,203,106490,6,0,P|183:203|215:219,1,73.4999977569581,0|2,3:2|0:2,0:2:0:0:
103,330,106832,1,8,0:2:0:0:
103,330,107004,2,0,P|85:299|83:263,1,73.4999977569581,0|2,0:2|0:2,0:2:0:0:
239,299,107347,2,0,P|221:331|191:350,1,73.4999977569581,0|8,3:2|0:2,0:2:0:0:
163,280,107690,1,0,0:2:0:0:
349,280,107861,6,0,L|422:280,1,73.4999977569581,2|2,3:2|0:2,0:2:0:0:
461,202,108204,1,10,0:2:0:0:
461,202,108375,2,0,L|375:202,1,73.4999977569581,2|0,0:2|0:2,0:2:0:0:
305,61,108718,2,0,L|342:125,1,73.4999977569581,2|8,3:2|0:2,0:2:0:0:
263,265,109061,1,2,0:2:0:0:
263,265,109232,6,0,L|300:202,1,73.4999977569581,0|2,3:2|0:2,0:2:0:0:
211,202,109575,2,0,L|126:202,1,73.4999977569581,8|2,3:2|0:2,0:2:0:0:
49,202,109918,1,2,3:2:0:0:
95,277,110090,1,2,3:2:0:0:
143,353,110261,2,0,L|228:353,1,73.4999977569581,10|0,3:2|0:2,0:2:0:0:
328,297,110604,6,0,L|352:224,2,73.4999977569581,6|0|8,3:2|0:2|0:2,0:2:0:0:
178,251,111118,2,0,L|251:252,1,73.4999977569581,2|0,0:2|0:2,0:2:0:0:
302,97,111461,2,0,L|279:167,1,73.4999977569581,2|8,3:2|0:2,0:2:0:0:
127,121,111804,1,2,0:2:0:0:
127,121,111975,6,0,L|203:121,1,73.4999977569581,0|2,3:2|0:2,0:2:0:0:
26,88,112318,1,8,0:2:0:0:
26,88,112490,2,0,B|67:66|67:66|30:118|61:171,1,146.999995513916,2|0,0:2|3:2,0:2:0:0:
17,241,113004,2,0,P|53:250|80:274,1,73.4999977569581,8|0,0:2|0:2,0:2:0:0:
163,347,113347,6,0,B|238:347|238:347|282:290,1,146.999995513916,2|8,3:2|0:2,0:2:0:0:
151,210,113861,2,0,L|196:268,1,73.4999977569581,2|0,0:2|0:2,0:2:0:0:
302,145,114204,2,0,L|256:203,1,73.4999977569581,2|8,3:2|0:2,0:2:0:0:
388,122,114547,6,0,B|344:65|344:65|269:65,1,146.999995513916,2|2,0:2|0:2,0:2:0:0:
181,65,115061,1,8,0:2:0:0:
133,138,115232,1,0,0:2:0:0:
85,211,115404,1,2,0:2:0:0:
133,284,115575,1,0,3:2:0:0:
184,211,115747,2,0,L|266:211,1,73.4999977569581,8|0,0:2|0:2,0:2:0:0:
353,152,116090,6,0,P|347:78|406:24,1,146.999995513916,2|8,3:2|0:2,0:2:0:0:
429,109,116604,2,0,P|449:142|450:191,1,73.4999977569581,2|0,0:2|0:2,0:2:0:0:
386,237,116947,2,0,P|350:241|316:231,1,73.4999977569581,2|8,3:2|0:2,0:2:0:0:
206,152,117290,1,2,0:2:0:0:
206,152,117461,6,0,P|132:161|91:230,1,146.999995513916,0|8,3:2|0:2,0:2:0:0:
179,235,117975,2,0,P|189:272|224:306,1,73.4999977569581,2|2,0:2|0:2,0:2:0:0:
307,169,118318,2,0,P|294:204|269:230,1,73.4999977569581,0|8,3:2|0:2,0:2:0:0:
206,152,118661,1,0,0:2:0:0:
213,31,118832,6,0,L|132:31,1,73.4999977569581,2|0,3:2|0:2,0:2:0:0:
65,79,119175,2,0,P|43:108|37:144,1,73.4999977569581,8|2,3:2|0:2,0:2:0:0:
152,207,119518,1,0,3:2:0:0:
152,207,119690,2,0,P|146:171|124:141,1,73.4999977569581,2|8,0:2|3:2,0:2:0:0:
68,235,120032,1,2,0:2:0:0:
136,320,120204,6,0,L|215:320,1,73.4999977569581,0|2,3:2|3:2,0:2:0:0:
257,158,120547,1,8,3:2:0:0:
296,258,120718,1,2,3:2:0:0:
216,54,120890,1,2,3:2:0:0:
91,158,121061,1,2,3:2:0:0:
420,158,121232,1,10,3:2:0:0:
436,174,121404,5,0,0:2:0:0:
451,189,121575,6,0,B|374:204|374:204|331:267,1,154.000004699707,6|8,3:2|0:2,0:2:0:0:
222,272,122090,2,0,B|299:287|299:287|342:349,1,154.000004699707,2|2,0:2|0:2,0:2:0:0:
239,382,122604,1,8,0:2:0:0:
222,272,122775,6,0,P|246:243|252:205,1,77.0000023498536,2|0,0:2|3:2,0:2:0:0:
133,67,123118,2,0,P|146:103|176:127,1,77.0000023498536,2|8,0:2|0:2,0:2:0:0:
413,70,123461,2,0,P|341:50|277:89,1,154.000004699707,2|2,0:2|0:2,0:2:0:0:
357,161,123975,1,8,0:2:0:0:
413,70,124147,1,0,0:2:0:0:
494,232,124318,6,0,B|516:272|516:272|462:233|410:261,1,154.000004699707,2|8,3:2|0:2,0:2:0:0:
256,358,124832,2,0,B|234:318|234:318|288:357|335:332,1,154.000004699707,2|2,0:2|0:2,0:2:0:0:
415,259,125347,1,8,0:2:0:0:
318,92,125518,6,0,P|346:57|361:8,1,77.0000023498536,2|0,0:2|3:2,0:2:0:0:
192,92,125861,2,0,P|163:59|149:18,1,77.0000023498536,2|8,0:2|0:2,0:2:0:0:
361,188,126204,2,0,P|402:181|439:156,1,77.0000023498536,2|2,0:2|0:2,0:2:0:0:
149,188,126547,2,0,P|107:180|70:155,1,77.0000023498536,2|8,0:2|0:2,0:2:0:0:
78,162,126890,1,0,0:2:0:0:
156,12,127061,6,0,L|47:12,1,77.0000023498536,2|0,3:2|0:2,0:2:0:0:
0,86,127404,1,8,0:2:0:0:
0,86,127575,2,0,P|26:114|39:150,1,77.0000023498536,2|0,0:2|0:2,0:2:0:0:
0,298,127918,2,0,P|26:269|39:233,1,77.0000023498536,2|8,0:2|0:2,0:2:0:0:
159,348,128261,1,2,0:2:0:0:
159,348,128432,6,0,P|121:355|90:378,1,77.0000023498536,0|0,3:2|0:2,0:2:0:0:
273,319,128775,1,8,0:2:0:0:
273,319,128947,2,0,P|298:347|332:363,1,77.0000023498536,2|2,0:2|0:2,0:2:0:0:
186,236,129290,2,0,P|199:200|195:162,1,77.0000023498536,2|8,0:2|0:2,0:2:0:0:
195,162,129632,1,0,0:2:0:0:
302,38,129804,6,0,P|336:27|381:31,1,77.0000023498536,2|2,3:2|0:2,0:2:0:0:
437,195,130147,1,8,0:2:0:0:
437,195,130318,2,0,P|408:170|392:136,1,77.0000023498536,2|0,0:2|0:2,0:2:0:0:
512,10,130661,2,0,P|506:47|484:79,1,77.0000023498536,2|8,0:2|0:2,0:2:0:0:
392,135,131004,6,0,P|402:172|400:211,1,77.0000023498536,2|0,0:2|3:2,0:2:0:0:
198,118,131347,2,0,P|225:86|262:67,1,77.0000023498536,2|8,0:2|0:2,0:2:0:0:
275,300,131690,2,0,P|232:286|199:261,1,77.0000023498536,2|0,0:2|0:2,0:2:0:0:
393,135,132032,1,10,0:2:0:0:
275,300,132204,1,10,0:2:0:0:
198,118,132375,1,0,0:2:0:0:
434,40,132547,6,0,B|357:55|357:55|314:118,1,154.000004699707,6|8,3:2|0:2,0:2:0:0:
78,40,133061,2,0,B|155:55|155:55|198:118,1,154.000004699707,2|2,0:2|0:2,0:2:0:0:
256,25,133575,1,8,0:2:0:0:
314,117,133747,6,0,P|334:150|339:188,1,77.0000023498536,2|0,0:2|3:2,0:2:0:0:
172,188,134090,2,0,P|177:150|197:117,1,77.0000023498536,2|8,0:2|0:2,0:2:0:0:
323,293,134432,2,0,B|256:256|256:256|187:293,1,154.000004699707,2|2,0:2|0:2,0:2:0:0:
255,378,134947,1,8,0:2:0:0:
323,293,135118,1,0,0:2:0:0:
138,179,135290,6,0,B|189:202|189:202|104:248,1,154.000004699707,2|8,3:2|0:2,0:2:0:0:
374,179,135804,2,0,B|322:202|322:202|407:248,1,154.000004699707,2|2,0:2|0:2,0:2:0:0:
503,299,136318,1,8,0:2:0:0:
374,179,136490,6,0,L|444:147,1,77.0000023498536,2|0,0:2|3:2,0:2:0:0:
195,94,136832,2,0,L|159:25,1,77.0000023498536,2|8,0:2|0:2,0:2:0:0:
317,94,137175,2,0,L|352:25,1,77.0000023498536,2|2,0:2|0:2,0:2:0:0:
138,179,137518,2,0,L|67:147,1,77.0000023498536,2|8,0:2|0:2,0:2:0:0:
67,147,137861,1,0,0:2:0:0:
356,279,138032,6,0,P|345:243|351:201,1,77.0000023498536,2|0,3:2|0:2,0:2:0:0:
445,54,138375,1,8,0:2:0:0:
445,54,138547,2,0,P|456:91|452:129,1,77.0000023498536,2|0,0:2|0:2,0:2:0:0:
350,205,138890,1,2,0:2:0:0:
452,128,139061,1,8,0:2:0:0:
371,311,139232,1,2,0:2:0:0:
245,154,139404,6,0,P|213:133|171:127,1,77.0000023498536,0|2,3:2|0:2,0:2:0:0:
0,176,139747,1,8,0:2:0:0:
0,176,139918,2,0,P|32:196|70:203,1,77.0000023498536,2|2,0:2|0:2,0:2:0:0:
245,154,140261,1,2,0:2:0:0:
150,314,140432,1,8,0:2:0:0:
0,176,140604,1,0,0:2:0:0:
223,22,140775,5,2,3:2:0:0:
185,129,140947,1,2,0:2:0:0:
328,212,141118,1,10,3:2:0:0:
327,212,141290,2,0,P|322:174|303:140,1,77.0000023498536,2|0,0:2|3:2,0:2:0:0:
220,208,141632,1,2,0:2:0:0:
359,319,141804,1,8,3:2:0:0:
490,141,141975,6,0,L|400:141,1,77.0000023498536,2|0,0:2|3:2,0:2:0:0:
280,19,142318,2,0,L|318:85,1,77.0000023498536,2|8,3:2|3:2,0:2:0:0:
413,141,142661,1,2,3:2:0:0:
253,186,142832,1,0,3:2:0:0:
478,40,143004,1,2,3:2:0:0:
333,270,143175,1,10,3:2:0:0:
333,270,143518,6,0,L|409:270,2,73.4999977569581,6|0|8,3:2|0:2|0:2,0:2:0:0:
244,270,144032,2,0,P|212:249|191:216,1,73.4999977569581,2|0,0:2|0:2,0:2:0:0:
294,118,144375,2,0,P|292:153|275:186,1,73.4999977569581,2|8,0:2|0:2,0:2:0:0:
202,143,144718,6,0,B|127:143|127:143|78:91,1,146.999995513916,2|2,0:2|0:2,0:2:0:0:
162,65,145232,1,8,0:2:0:0:
202,143,145404,1,2,0:2:0:0:
161,222,145575,2,0,P|149:256|150:292,1,73.4999977569581,2|0,0:2|0:2,0:2:0:0:
244,270,145918,1,8,0:2:0:0:
161,222,146090,1,0,0:2:0:0:
331,221,146261,6,0,P|344:255|343:291,2,73.4999977569581,2|2|8,3:2|0:2|0:2,0:2:0:0:
292,144,146775,2,0,B|346:144|346:144|384:164|384:164|459:164,1,146.999995513916,2|2,0:2|0:2,0:2:0:0:
512,119,147290,1,8,0:2:0:0:
512,119,147461,6,0,P|502:85|477:58,1,73.4999977569581,2|0,0:2|3:2,0:2:0:0:
434,164,147804,2,0,P|409:189|398:224,1,73.4999977569581,2|8,0:2|0:2,0:2:0:0:
508,368,148147,1,0,0:2:0:0:
508,368,148318,2,0,P|527:300|489:240,1,146.999995513916,2|10,0:2|0:2,0:2:0:0:
409,279,148832,1,0,0:2:0:0:
311,210,149004,6,0,L|339:127,2,73.4999977569581,2|0|8,3:2|0:2|0:2,0:2:0:0:
165,175,149518,2,0,L|237:161,1,73.4999977569581,2|0,0:2|0:2,0:2:0:0:
279,304,149861,2,0,L|230:249,1,73.4999977569581,2|8,0:2|0:2,0:2:0:0:
335,140,150204,6,0,B|316:193|316:193|403:166,1,146.999995513916,2|2,0:2|0:2,0:2:0:0:
488,142,150718,1,8,0:2:0:0:
464,226,150890,1,2,0:2:0:0:
381,256,151061,2,0,L|309:279,1,73.4999977569581,2|0,0:2|0:2,0:2:0:0:
300,365,151404,2,0,L|370:342,1,73.4999977569581,10|0,0:2|0:2,0:2:0:0:
464,226,151747,5,2,3:2:0:0:
392,174,151918,1,2,0:2:0:0:
353,40,152090,5,8,0:2:0:0:
425,92,152261,2,0,L|495:69,1,73.4999977569581,2|0,0:2|0:2,0:2:0:0:
320,122,152604,5,2,0:2:0:0:
392,174,152775,1,8,0:2:0:0:
256,214,152947,6,0,L|186:237,1,73.4999977569581,2|0,0:2|3:2,0:2:0:0:
87,341,153290,2,0,L|103:269,1,73.4999977569581,2|8,0:2|0:2,0:2:0:0:
51,124,153632,1,2,0:2:0:0:
186,237,153804,1,0,0:2:0:0:
119,182,153975,1,10,0:2:0:0:
256,294,154147,1,10,0:2:0:0:
186,237,154318,1,0,0:2:0:0:
326,236,154490,6,0,L|402:236,2,73.4999977569581,6|0|8,3:2|0:2|0:2,0:2:0:0:
269,304,155004,2,0,P|246:274|238:236,1,73.4999977569581,2|0,0:2|0:2,0:2:0:0:
368,178,155347,2,0,P|354:211|327:236,1,73.4999977569581,2|8,0:2|0:2,0:2:0:0:
280,161,155690,6,0,P|237:103|250:33,1,146.999995513916,2|2,0:2|0:2,0:2:0:0:
323,83,156204,1,8,0:2:0:0:
280,161,156375,1,2,0:2:0:0:
238,239,156547,2,0,P|203:229|160:239,1,73.4999977569581,2|0,0:2|0:2,0:2:0:0:
106,299,156890,1,10,0:2:0:0:
67,219,157061,1,0,0:2:0:0:
210,321,157232,6,0,P|245:331|288:321,1,73.4999977569581,2|2,3:2|0:2,0:2:0:0:
355,275,157575,1,8,0:2:0:0:
355,275,157747,2,0,B|429:275|429:275|475:331,1,146.999995513916,2|2,0:2|0:2,0:2:0:0:
390,358,158261,1,8,0:2:0:0:
355,275,158432,6,0,B|365:241|365:241|355:204,1,73.4999977569581,2|0,0:2|3:2,0:2:0:0:
205,242,158775,2,0,B|239:252|239:252|276:243,1,73.4999977569581,2|8,0:2|0:2,0:2:0:0:
237,89,159118,1,0,0:2:0:0:
237,89,159290,2,0,B|227:123|227:123|237:160,1,73.4999977569581,2|2,0:2|0:2,0:2:0:0:
386,121,159632,2,0,B|352:111|352:111|316:121,1,73.4999977569581,10|0,0:2|0:2,0:2:0:0:
457,223,159975,5,2,3:2:0:0:
418,310,160147,1,0,0:2:0:0:
309,292,160318,1,8,0:2:0:0:
309,292,160490,2,0,L|376:260,1,73.4999977569581,2|0,0:2|0:2,0:2:0:0:
210,182,160832,2,0,L|276:213,1,73.4999977569581,2|8,0:2|0:2,0:2:0:0:
376,148,161175,6,0,P|391:86|344:17,1,146.999995513916,2|2,0:2|0:2,0:2:0:0:
305,97,161690,1,8,0:2:0:0:
227,56,161861,1,2,0:2:0:0:
161,115,162032,2,0,P|131:93|95:89,1,73.4999977569581,2|0,0:2|0:2,0:2:0:0:
102,176,162375,2,0,P|98:213|112:246,1,73.4999977569581,10|0,0:2|0:2,0:2:0:0:
193,335,162718,5,2,3:2:0:0:
320,215,162890,1,2,0:2:0:0:
232,247,163061,1,8,0:2:0:0:
410,247,163232,2,0,L|428:175,1,73.4999977569581,2|0,0:2|0:2,0:2:0:0:
455,84,163575,1,2,0:2:0:0:
344,176,163747,1,8,0:2:0:0:
165,84,163918,6,0,L|238:84,1,73.4999977569581,2|0,0:2|3:2,0:2:0:0:
338,83,164261,2,0,L|300:147,1,73.4999977569581,2|8,0:2|0:2,0:2:0:0:
251,230,164604,1,2,0:2:0:0:
166,84,164775,1,0,0:2:0:0:
301,146,164947,1,10,0:2:0:0:
202,316,165118,1,10,0:2:0:0:
61,23,165461,5,4,3:2:0:0:
256,192,173518,12,0,175747,0:2:0:0:
53,94,176090,5,8,0:2:0:0:
53,94,176432,6,0,B|124:64|152:142|152:142|201:85|276:130|276:130|243:58|302:5,1,392,4|2,3:2|0:2,0:2:0:0:
362,83,177804,6,0,B|332:139|384:196|384:196|318:175|256:196|241:263|279:317|357:301|381:280|352:218|327:215|309:236,1,392,2|0,0:2|0:2,0:2:0:0:
286,138,179175,6,0,P|215:237|359:340,1,336,2|2,0:2|0:2,0:2:0:0:
320,234,180375,6,0,B|254:209|226:285|226:285|187:230|113:265|113:265|140:205|97:160,1,336,2|2,0:2|0:2,0:2:0:0:
155,122,181575,1,2,0:2:0:0:
113,182,181747,1,2,0:2:0:0:
81,115,181918,6,0,B|172:94|172:94|142:142,1,125.999996154785,2|2,3:2|0:2,0:2:0:0:
113,182,182432,2,0,P|130:210|135:257,1,62.9999980773926,2|0,0:2|3:2,0:2:0:0:
53,241,182775,1,2,0:2:0:0:
136,239,182947,2,0,P|160:219|189:208,1,62.9999980773926,2|0,0:2|0:2,0:2:0:0:
431,115,183290,6,0,B|340:94|340:94|370:142,1,125.999996154785,2|2,3:2|0:2,0:2:0:0:
399,182,183804,2,0,P|382:210|377:257,1,62.9999980773926,2|0,0:2|3:2,0:2:0:0:
459,241,184147,1,2,0:2:0:0:
376,239,184318,2,0,P|352:219|323:208,1,62.9999980773926,2|0,0:2|0:2,0:2:0:0:
87,217,184661,5,0,3:2:0:0:
17,113,184832,1,0,3:2:0:0:
135,109,185004,1,8,3:2:0:0:
70,9,185175,1,0,3:2:0:0:
239,55,185347,5,0,3:2:0:0:
135,109,185518,1,0,3:2:0:0:
386,205,185690,1,8,3:2:0:0:
348,94,185861,1,0,3:2:0:0:
311,286,186032,5,0,3:2:0:0:
348,94,186204,1,0,3:2:0:0:
497,206,186375,1,8,3:2:0:0:
311,286,186547,1,0,3:2:0:0:
386,205,186718,5,8,3:2:0:0:
238,372,186890,1,0,0:2:0:0:
78,144,187232,5,0,3:2:0:0:
78,144,187404,6,0,B|138:144|138:144|168:162|168:162|227:162,1,154.000004699707,6|8,3:2|0:2,0:2:0:0:
326,38,187918,2,0,B|266:38|266:38|236:56|236:56|177:56,1,154.000004699707,2|2,0:2|0:2,0:2:0:0:
227,162,188432,1,8,0:2:0:0:
87,246,188604,6,0,P|125:242|161:257,1,77.0000023498536,2|0,0:2|3:2,0:2:0:0:
295,343,188947,2,0,P|257:340|221:355,1,77.0000023498536,2|8,0:2|0:2,0:2:0:0:
390,277,189290,2,0,P|436:305|437:226,1,154.000004699707,2|2,0:2|0:2,0:2:0:0:
353,168,189804,1,8,0:2:0:0:
448,103,189975,1,0,0:2:0:0:
272,32,190147,6,0,B|232:10|232:10|271:64|243:116,1,154.000004699707,2|8,3:2|0:2,0:2:0:0:
125,247,190661,2,0,B|165:269|165:269|126:215|152:168,1,154.000004699707,2|2,0:2|0:2,0:2:0:0:
245,111,191175,1,8,0:2:0:0:
322,238,191347,6,0,P|341:271|349:309,1,77.0000023498536,2|0,0:2|3:2,0:2:0:0:
509,272,191690,2,0,P|479:296|462:330,1,77.0000023498536,2|8,0:2|0:2,0:2:0:0:
473,162,192032,2,0,P|435:164|400:149,1,77.0000023498536,2|2,0:2|0:2,0:2:0:0:
287,0,192375,2,0,P|308:32|313:70,1,77.0000023498536,2|8,0:2|0:2,0:2:0:0:
235,224,192718,1,0,0:2:0:0:
103,24,192890,6,0,P|87:59|89:97,1,77.0000023498536,2|0,3:2|0:2,0:2:0:0:
145,194,193232,1,8,0:2:0:0:
145,194,193404,2,0,P|123:226|115:263,1,77.0000023498536,2|0,0:2|0:2,0:2:0:0:
262,326,193747,2,0,P|245:291|215:266,1,77.0000023498536,2|8,0:2|0:2,0:2:0:0:
26,322,194090,1,2,0:2:0:0:
26,322,194261,6,0,P|63:354|102:363,1,77.0000023498536,0|0,3:2|0:2,0:2:0:0:
181,265,194604,1,8,0:2:0:0:
181,265,194775,2,0,L|283:259,1,77.0000023498536,2|2,0:2|0:2,0:2:0:0:
415,356,195118,2,0,L|339:361,1,77.0000023498536,0|8,0:2|0:2,0:2:0:0:
257,261,195461,1,0,0:2:0:0:
410,192,195632,6,0,P|409:154|394:119,1,77.0000023498536,2|2,3:2|0:2,0:2:0:0:
204,115,195975,1,8,0:2:0:0:
204,115,196147,2,0,P|237:132|275:137,1,77.0000023498536,2|0,0:2|0:2,0:2:0:0:
370,17,196490,1,2,0:2:0:0:
204,115,196661,1,8,0:2:0:0:
56,8,196832,6,0,P|20:37|-3:73,1,77.0000023498536,2|0,0:2|3:2,0:2:0:0:
204,115,197175,2,0,P|194:70|172:31,1,77.0000023498536,2|8,0:2|0:2,0:2:0:0:
29,193,197518,2,0,P|71:205|117:206,1,77.0000023498536,2|0,0:2|0:2,0:2:0:0:
56,8,197861,1,10,0:2:0:0:
204,115,198032,1,10,0:2:0:0:
29,193,198204,1,0,0:2:0:0:
216,277,198375,6,0,B|293:262|293:262|336:200,1,154.000004699707,6|8,3:2|0:2,0:2:0:0:
512,185,198890,2,0,B|436:170|436:170|393:107,1,154.000004699707,2|2,0:2|0:2,0:2:0:0:
337,14,199404,1,8,0:2:0:0:
189,152,199575,6,0,P|169:184|164:222,1,77.0000023498536,2|0,0:2|3:2,0:2:0:0:
348,222,199918,2,0,P|343:184|324:152,1,77.0000023498536,2|8,0:2|0:2,0:2:0:0:
191,328,200261,2,0,B|258:365|258:365|327:328,1,154.000004699707,2|2,0:2|0:2,0:2:0:0:
164,222,200775,1,8,0:2:0:0:
348,222,200947,1,0,0:2:0:0:
134,101,201118,6,0,B|94:79|94:79|133:133|107:180,1,154.000004699707,2|8,3:2|0:2,0:2:0:0:
0,348,201632,2,0,B|37:370|37:370|-1:316|25:269,1,154.000004699707,2|2,0:2|0:2,0:2:0:0:
107,180,202147,1,8,0:2:0:0:
238,351,202318,6,0,P|282:347|324:329,1,77.0000023498536,2|0,0:2|3:2,0:2:0:0:
168,176,202661,2,0,P|147:215|142:260,1,77.0000023498536,2|8,0:2|0:2,0:2:0:0:
357,199,203004,2,0,P|330:161|292:140,1,77.0000023498536,2|2,0:2|0:2,0:2:0:0:
238,351,203347,1,2,0:2:0:0:
357,199,203518,1,8,0:2:0:0:
178,99,203690,1,0,0:2:0:0:
425,12,203861,6,0,P|443:45|443:83,1,77.0000023498536,2|0,3:2|0:2,0:2:0:0:
370,241,204204,1,8,0:2:0:0:
370,241,204375,2,0,P|351:208|352:170,1,77.0000023498536,2|0,0:2|0:2,0:2:0:0:
461,183,204718,1,2,0:2:0:0:
278,300,204890,1,8,0:2:0:0:
370,241,205061,1,2,0:2:0:0:
187,358,205232,6,0,P|186:318|164:280,1,77.0000023498536,0|2,3:2|0:2,0:2:0:0:
0,182,205575,1,8,0:2:0:0:
0,182,205747,2,0,P|33:200|71:203,1,77.0000023498536,2|2,0:2|0:2,0:2:0:0:
242,108,206090,2,0,P|209:127|188:160,1,77.0000023498536,2|8,0:2|0:2,0:2:0:0:
169,286,206432,1,0,0:2:0:0:
319,243,206604,6,0,L|396:258,1,77.0000023498536,2|2,3:2|0:2,0:2:0:0:
512,280,206947,1,10,3:2:0:0:
512,280,207118,2,0,L|485:207,1,77.0000023498536,2|0,0:2|3:2,0:2:0:0:
446,99,207461,1,2,0:2:0:0:
374,179,207632,1,8,3:2:0:0:
249,50,207804,6,0,L|279:127,1,77.0000023498536,2|0,0:2|3:2,0:2:0:0:
168,123,208147,1,2,3:2:0:0:
249,50,208318,1,8,3:2:0:0:
21,4,208490,1,2,3:2:0:0:
91,190,208661,1,0,3:2:0:0:
151,77,208832,1,0,3:2:0:0:
22,320,209004,1,8,3:2:0:0:
417,85,209347,6,0,L|493:85,2,73.4999977569581,6|0|8,3:2|0:2|0:2,0:2:0:0:
320,85,209861,2,0,P|343:115|351:153,1,73.4999977569581,2|0,0:2|0:2,0:2:0:0:
221,211,210204,2,0,P|235:178|262:153,1,73.4999977569581,2|8,0:2|0:2,0:2:0:0:
313,224,210547,6,0,P|353:280|334:358,1,146.999995513916,2|2,0:2|0:2,0:2:0:0:
267,300,211061,1,8,0:2:0:0:
210,368,211232,1,2,0:2:0:0:
140,313,211404,2,0,L|67:302,1,73.4999977569581,2|0,0:2|0:2,0:2:0:0:
6,238,211747,1,8,0:2:0:0:
83,195,211918,1,0,0:2:0:0:
48,95,212090,6,0,L|21:26,2,73.4999977569581,2|2|8,3:2|0:2|0:2,0:2:0:0:
116,39,212604,2,0,B|142:108|142:108|217:134,1,146.999995513916,2|2,0:2|0:2,0:2:0:0:
295,159,213118,1,8,0:2:0:0:
378,187,213290,6,0,P|388:221|413:248,1,73.4999977569581,2|0,0:2|3:2,0:2:0:0:
295,159,213632,2,0,P|320:132|330:97,1,73.4999977569581,2|8,0:2|0:2,0:2:0:0:
298,246,213975,1,0,0:2:0:0:
298,246,214147,2,0,P|226:259|188:337,1,146.999995513916,2|10,0:2|0:2,0:2:0:0:
276,331,214661,1,0,0:2:0:0:
298,246,214832,6,0,L|270:163,2,73.4999977569581,2|0|8,3:2|0:2|0:2,0:2:0:0:
444,211,215347,2,0,L|372:197,1,73.4999977569581,2|0,0:2|0:2,0:2:0:0:
330,340,215690,2,0,L|379:285,1,73.4999977569581,2|8,0:2|0:2,0:2:0:0:
274,176,216032,6,0,B|293:229|293:229|206:202,1,146.999995513916,2|2,0:2|0:2,0:2:0:0:
121,173,216547,1,8,0:2:0:0:
139,259,216718,1,2,0:2:0:0:
155,345,216890,2,0,P|190:342|227:359,1,73.4999977569581,2|0,0:2|0:2,0:2:0:0:
352,280,217232,2,0,P|319:294|283:292,1,73.4999977569581,10|0,0:2|0:2,0:2:0:0:
147,215,217575,5,2,3:2:0:0:
77,54,217747,1,2,0:2:0:0:
206,94,217918,1,8,0:2:0:0:
32,166,218090,2,0,L|120:129,1,73.4999977569581,2|0,0:2|0:2,0:2:0:0:
206,94,218432,1,2,0:2:0:0:
263,208,218604,1,8,0:2:0:0:
188,315,218775,6,0,P|154:299|127:274,1,73.4999977569581,2|0,0:2|3:2,0:2:0:0:
324,314,219118,2,0,P|357:298|384:274,1,73.4999977569581,2|8,0:2|0:2,0:2:0:0:
256,382,219461,1,2,0:2:0:0:
320,211,219632,1,0,0:2:0:0:
188,315,219804,1,10,0:2:0:0:
384,274,219975,1,10,0:2:0:0:
243,129,220147,1,0,0:2:0:0:
159,192,220318,6,0,L|86:192,2,73.4999977569581,6|0|8,3:2|0:2|0:2,0:2:0:0:
261,192,220832,2,0,P|284:222|292:260,1,73.4999977569581,2|0,0:2|0:2,0:2:0:0:
162,318,221175,2,0,P|176:285|203:260,1,73.4999977569581,2|8,0:2|0:2,0:2:0:0:
379,360,221518,6,0,P|309:375|250:335,1,146.999995513916,2|2,0:2|0:2,0:2:0:0:
326,289,222032,1,8,0:2:0:0:
381,219,222204,1,2,0:2:0:0:
304,176,222375,2,0,P|294:146|301:104,1,73.4999977569581,2|0,0:2|0:2,0:2:0:0:
370,51,222718,1,10,0:2:0:0:
428,119,222890,1,0,0:2:0:0:
304,176,223061,5,2,3:2:0:0:
224,214,223232,1,2,0:2:0:0:
144,252,223404,1,8,0:2:0:0:
64,290,223575,2,0,B|138:290|138:290|184:346,1,146.999995513916,2|2,0:2|0:2,0:2:0:0:
98,369,224090,1,8,0:2:0:0:
137,224,224261,6,0,B|174:224|174:224|197:252,1,73.4999977569581,2|0,0:2|3:2,0:2:0:0:
375,224,224604,2,0,B|338:224|338:224|315:252,1,73.4999977569581,2|8,0:2|0:2,0:2:0:0:
256,319,224947,1,0,0:2:0:0:
444,174,225118,2,0,B|472:197|472:197|472:235,1,73.4999977569581,2|2,0:2|0:2,0:2:0:0:
344,312,225461,2,0,B|315:288|315:288|315:251,1,73.4999977569581,10|0,0:2|0:2,0:2:0:0:
405,123,225804,6,0,L|468:86,1,73.4999977569581,2|0,3:2|0:2,0:2:0:0:
331,3,226147,1,8,0:2:0:0:
331,3,226318,2,0,L|396:40,1,73.4999977569581,2|0,0:2|0:2,0:2:0:0:
256,118,226661,2,0,L|319:81,1,73.4999977569581,2|8,0:2|0:2,0:2:0:0:
149,85,227004,6,0,B|56:140|56:140|69:97,1,146.999995513916,2|2,0:2|0:2,0:2:0:0:
92,19,227518,1,8,0:2:0:0:
149,85,227690,1,2,0:2:0:0:
205,152,227861,2,0,P|208:186|192:224,1,73.4999977569581,2|0,0:2|0:2,0:2:0:0:
67,310,228204,2,0,P|96:289|133:285,1,73.4999977569581,10|0,0:2|0:2,0:2:0:0:
255,340,228547,5,2,3:2:0:0:
132,284,228718,1,2,0:2:0:0:
237,181,228890,1,8,0:2:0:0:
317,270,229061,2,0,P|279:271|246:257,1,73.4999977569581,2|0,0:2|0:2,0:2:0:0:
148,133,229404,1,2,0:2:0:0:
289,67,229575,1,8,0:2:0:0:
255,262,229747,6,0,P|234:228|203:204,1,73.4999977569581,2|0,0:2|3:2,0:2:0:0:
30,196,230090,2,0,P|70:197|108:183,1,73.4999977569581,2|8,0:2|0:2,0:2:0:0:
192,70,230432,1,2,0:2:0:0:
31,197,230604,1,0,0:2:0:0:
180,306,230775,1,10,0:2:0:0:
44,39,230947,1,10,0:2:0:0:
468,39,231290,5,6,3:2:0:0:
468,39,232147,1,2,0:2:0:0:
406,82,232318,1,2,0:2:0:0:
443,148,232490,1,2,0:2:0:0:
484,211,232661,6,0,P|431:253|452:150,1,251.999992309571,2|2,0:2|0:2,0:2:0:0:
256,384,234032,5,2,0:2:0:0:
256,384,234890,1,2,0:2:0:0:
188,351,235061,1,2,0:2:0:0:
324,351,235232,1,2,0:2:0:0:
119,319,236090,5,2,0:2:0:0:
393,319,236432,1,2,0:2:0:0:
256,384,236775,5,2,0:2:0:0:
44,39,237632,1,2,0:2:0:0:
106,82,237804,1,2,0:2:0:0:
68,147,237975,1,2,0:2:0:0:
28,211,238147,6,0,P|81:253|60:150,1,251.999992309571,2|2,0:2|0:2,0:2:0:0:
256,0,239518,5,2,0:2:0:0:
256,0,240375,1,2,0:2:0:0:
331,9,240547,1,2,0:2:0:0:
392,55,240718,1,2,0:2:0:0:
392,55,240890,6,0,P|422:108|415:177,1,125.999996154785,2|0,0:2|0:2,0:2:0:0:
325,317,241575,1,2,0:2:0:0:
269,266,241747,1,2,0:2:0:0:
256,192,241918,1,2,0:2:0:0:
