osu file format v14

[General]
AudioFilename: audio.mp3
AudioLeadIn: 0
PreviewTime: 121404
Countdown: 0
SampleSet: Soft
StackLeniency: 0.4
Mode: 0
LetterboxInBreaks: 0
WidescreenStoryboard: 1

[Editor]
Bookmarks: 165461,181918
DistanceSpacing: 1
BeatDivisor: 4
GridSize: 8
TimelineZoom: 1

[Metadata]
Title:Usotsuki Imitation (DDVM Remixing Ver.)
TitleUnicode:嘘つきイミテーション (DDVM Remixing Ver.)
Artist:Sevencolors
ArtistUnicode:Sevencolors
Creator:RVMathew
Version:Normal
Source:
Tags:Castagne Track 04 feat. featuring 巡音ルカ Megurine Luka Dance VOCALOMUSIC ★ Volume Vol. 02 -Funky Drum'n'Bass- and & DnB Works 2010-2011 Best Vocaloid Pop Electronic Japanese Novelty
BeatmapID:2831371
BeatmapSetID:1369263

[Difficulty]
HPDrainRate:3
CircleSize:3
OverallDifficulty:4
ApproachRate:5
SliderMultiplier:0.999999999999999
SliderTickRate:1

[Events]
//Background and Video events
0,0,"Background 1.jpg",0,0
//Break Periods
2,165661,180547
//Storyboard Layer 0 (Background)
//Storyboard Layer 1 (Fail)
//Storyboard Layer 2 (Pass)
//Storyboard Layer 3 (Foreground)
//Storyboard Layer 4 (Overlay)
//Storyboard Sound Samples

[TimingPoints]
890,342.857142857143,4,2,8,55,1,0
11861,-100,4,2,1,65,0,0
22832,-100,4,2,1,75,0,1
33632,-100,4,2,1,75,0,0
33804,-100,4,2,1,75,0,1
44775,-100,4,2,1,70,0,0
88661,-100,4,2,1,60,0,0
94147,-100,4,2,1,65,0,0
99632,-100,4,2,1,70,0,0
121575,-100,4,2,1,75,0,1
132375,-100,4,2,1,75,0,0
132547,-100,4,2,1,75,0,1
143518,-100,4,2,1,70,0,0
165461,-100,4,2,1,55,0,0
181918,-100,4,2,1,65,0,0
184661,-100,4,2,1,70,0,0
187404,-100,4,2,1,75,0,1
198204,-100,4,2,1,75,0,0
198375,-100,4,2,1,75,0,1
209347,-100,4,2,1,70,0,0
231290,-100,4,2,8,55,0,0

[Colours]
Combo1 : 255,128,0
Combo2 : 0,69,138
Combo3 : 4,179,143
Combo4 : 255,66,160
Combo5 : 128,64,0

[HitObjects]
256,353,889,5,2,0:2:0:0:
256,104,1747,2,0,L|256:49,2,50,2|2|2,0:2|0:2|0:2,0:2:0:0:
256,154,2261,2,0,B|176:154|176:154|136:173|136:173|47:173,1,200,2|2,0:2|0:2,0:2:0:0:
187,328,3632,5,2,0:2:0:0:
256,87,4490,2,0,L|256:36,2,50,2|2|2,0:2|0:2|0:2,0:2:0:0:
325,328,5690,1,2,0:2:0:0:
417,289,6032,1,2,0:2:0:0:
392,192,6375,5,2,0:2:0:0:
142,192,7232,2,0,L|77:192,2,50,2|2|2,0:2|0:2|0:2,0:2:0:0:
171,233,7747,2,0,B|250:233|250:233|290:252|290:252|379:252,1,200,2|2,0:2|0:2,0:2:0:0:
444,67,9118,5,2,0:2:0:0:
256,232,9975,2,0,L|256:176,2,50,2|2|2,0:2|0:2|0:2,0:2:0:0:
214,260,10490,2,0,L|111:260,1,99.9999999999999,2|0,0:2|0:2,0:2:0:0:
14,260,11175,2,0,L|14:204,1,50,2|2,0:2|0:2,0:2:0:0:
14,160,11518,1,8,0:2:0:0:
14,60,11861,6,0,P|64:60|112:45,1,99.9999999999999,6|8,3:2|0:2,0:2:0:0:
158,27,12375,1,2,0:2:0:0:
237,88,12718,2,0,L|254:41,2,50,2|8|2,0:2|0:2|0:2,0:2:0:0:
217,134,13232,2,0,P|207:186|229:247,1,99.9999999999999,2|8,0:2|0:2,0:2:0:0:
287,304,13918,2,0,P|339:314|400:292,1,99.9999999999999,2|8,0:2|0:2,0:2:0:0:
451,228,14604,6,0,L|434:117,1,99.9999999999999,2|8,3:2|0:2,0:2:0:0:
427,80,15118,1,2,0:2:0:0:
340,130,15461,2,0,L|346:80,2,50,2|10|2,0:2|0:2|0:2,0:2:0:0:
307,168,15975,2,0,L|206:168,1,99.9999999999999,0|8,0:2|0:2,0:2:0:0:
168,260,16661,2,0,L|268:260,1,99.9999999999999,2|10,0:2|0:2,0:2:0:0:
366,281,17347,5,2,3:2:0:0:
345,82,18032,1,0,0:2:0:0:
146,103,18718,1,2,3:2:0:0:
167,302,19404,1,2,3:2:0:0:
366,281,20090,6,0,L|355:171,1,99.9999999999999,2|2,3:2|3:2,0:2:0:0:
345,82,20775,2,0,L|235:93,1,99.9999999999999,0|2,3:2|3:2,0:2:0:0:
146,103,21461,2,0,L|157:213,1,99.9999999999999,0|0,3:2|3:2,0:2:0:0:
167,302,22147,2,0,L|232:295,2,50,0|2|2,3:2|3:2|3:2,0:2:0:0:
121,311,22661,1,0,0:2:0:0:
121,311,22832,6,0,P|70:307|35:276,1,99.9999999999999,6|8,3:2|0:2,0:2:0:0:
18,228,23347,2,0,P|21:177|53:142,1,99.9999999999999,2|2,0:2|0:2,0:2:0:0:
150,117,24032,2,0,P|166:70|208:37,1,99.9999999999999,2|2,0:2|0:2,0:2:0:0:
251,20,24547,1,8,0:2:0:0:
299,34,24718,2,0,P|344:14|397:23,1,99.9999999999999,2|2,0:2|0:2,0:2:0:0:
437,45,25232,1,8,0:2:0:0:
434,145,25575,6,0,P|446:195|429:251,1,99.9999999999999,2|8,3:2|0:2,0:2:0:0:
406,283,26090,2,0,B|352:276|352:276|306:305,1,99.9999999999999,2|2,0:2|0:2,0:2:0:0:
283,341,26604,1,8,0:2:0:0:
283,341,26775,2,0,B|229:348|229:348|183:319,1,99.9999999999999,2|2,0:2|0:2,0:2:0:0:
145,302,27290,1,8,0:2:0:0:
101,279,27461,2,0,L|89:179,1,99.9999999999999,2|2,0:2|0:2,0:2:0:0:
84,130,27975,1,8,0:2:0:0:
157,61,28318,6,0,P|204:47|255:71,1,99.9999999999999,2|8,3:2|0:2,0:2:0:0:
279,106,28832,2,0,P|324:87|371:101,1,99.9999999999999,2|2,0:2|0:2,0:2:0:0:
428,190,29518,1,2,0:2:0:0:
428,190,29690,2,0,P|444:240|430:295,1,99.9999999999999,2|8,3:2|0:2,0:2:0:0:
405,326,30204,2,0,P|355:342|300:328,1,99.9999999999999,2|2,0:2|0:2,0:2:0:0:
263,314,30718,1,8,0:2:0:0:
170,276,31061,6,0,L|154:177,1,99.9999999999999,2|10,3:2|0:2,0:2:0:0:
144,128,31575,2,0,L|182:68,1,50,2|0,0:2|0:2,0:2:0:0:
206,50,31918,2,0,P|252:35|319:43,1,99.9999999999999,2|2,0:2|0:2,0:2:0:0:
402,54,32604,2,0,L|424:113,1,50,2|8,0:2|0:2,0:2:0:0:
434,149,32947,2,0,P|442:223|413:294,1,150,2|10,0:2|0:2,0:2:0:0:
384,332,33632,1,0,0:2:0:0:
384,332,33804,6,0,P|337:350|282:339,1,99.9999999999999,6|8,3:2|0:2,0:2:0:0:
246,317,34318,2,0,P|229:270|236:222,1,99.9999999999999,2|2,0:2|0:2,0:2:0:0:
304,148,35004,2,0,P|310:98|286:51,1,99.9999999999999,2|0,0:2|0:2,0:2:0:0:
244,33,35518,1,8,0:2:0:0:
194,33,35690,2,0,L|94:33,1,99.9999999999999,2|2,0:2|0:2,0:2:0:0:
44,33,36204,1,8,0:2:0:0:
94,120,36547,6,0,P|106:168|94:216,1,99.9999999999999,2|8,3:2|0:2,0:2:0:0:
47,195,37061,2,0,B|64:297,1,99.9999999999999,2|2,0:2|0:2,0:2:0:0:
76,347,37575,1,8,0:2:0:0:
76,347,37747,2,0,L|182:372,1,99.9999999999999,2|2,0:2|0:2,0:2:0:0:
216,344,38261,1,8,0:2:0:0:
256,314,38432,2,0,L|278:216,1,99.9999999999999,2|2,0:2|0:2,0:2:0:0:
292,168,38947,1,8,0:2:0:0:
317,71,39290,6,0,P|270:57|217:75,1,99.9999999999999,2|8,3:2|0:2,0:2:0:0:
184,103,39804,2,0,P|138:84|89:93,1,99.9999999999999,2|2,0:2|0:2,0:2:0:0:
59,132,40318,2,0,L|73:191,1,50,8|2,0:2|0:2,0:2:0:0:
104,218,40661,2,0,P|88:268|102:323,1,99.9999999999999,2|8,3:2|0:2,0:2:0:0:
127,354,41175,2,0,P|177:370|232:356,1,99.9999999999999,2|2,0:2|0:2,0:2:0:0:
270,345,41690,1,8,0:2:0:0:
344,278,42032,6,0,L|362:174,1,99.9999999999999,2|10,3:2|3:2,0:2:0:0:
357,129,42547,2,0,P|324:92|272:62,1,99.9999999999999,2|2,0:2|0:2,0:2:0:0:
240,49,43061,1,8,3:2:0:0:
240,49,43232,2,0,P|189:34|144:41,2,99.9999999999999,2|2|2,0:2|3:2|3:2,0:2:0:0:
248,99,44090,2,0,L|257:162,1,50,0|2,3:2|3:2,0:2:0:0:
259,198,44432,1,10,3:2:0:0:
326,273,44775,6,0,P|323:322|293:361,1,99.9999999999999,6|8,3:2|0:2,0:2:0:0:
243,361,45290,2,0,B|139:361,1,99.9999999999999,2|2,0:2|0:2,0:2:0:0:
93,361,45804,1,8,0:2:0:0:
43,361,45975,2,0,B|43:257,1,99.9999999999999,2|2,0:2|0:2,0:2:0:0:
47,165,46661,1,2,0:2:0:0:
47,165,46832,1,2,0:2:0:0:
43,65,47175,2,0,L|92:65,1,50,8|0,0:2|0:2,0:2:0:0:
143,65,47518,6,0,B|196:53|235:103,1,99.9999999999999,2|8,3:2|0:2,0:2:0:0:
256,142,48032,1,2,0:2:0:0:
191,218,48375,2,0,L|199:283,1,50,2|8,0:2|0:2,0:2:0:0:
205,317,48718,2,0,P|250:335|302:331,1,99.9999999999999,2|2,0:2|0:2,0:2:0:0:
350,322,49232,1,8,0:2:0:0:
440,277,49575,2,0,L|440:175,1,99.9999999999999,2|10,0:2|0:2,0:2:0:0:
440,77,50261,6,0,P|397:51|337:62,1,99.9999999999999,2|8,3:2|0:2,0:2:0:0:
308,85,50775,2,0,B|201:85,1,99.9999999999999,2|2,0:2|0:2,0:2:0:0:
187,130,51290,1,8,0:2:0:0:
167,176,51461,2,0,B|271:176,1,99.9999999999999,2|2,0:2|0:2,0:2:0:0:
312,272,52147,1,2,0:2:0:0:
312,272,52318,2,0,L|181:272,1,99.9999999999999,2|10,0:2|0:2,0:2:0:0:
144,346,53004,6,0,P|93:348|39:319,1,99.9999999999999,2|8,3:2|0:2,0:2:0:0:
13,294,53518,1,2,0:2:0:0:
61,206,53861,2,0,L|49:150,1,50,2|8,0:2|0:2,0:2:0:0:
40,108,54204,1,2,0:2:0:0:
111,38,54547,1,2,0:2:0:0:
201,82,54890,1,2,0:2:0:0:
280,20,55232,1,10,0:2:0:0:
280,20,55404,1,10,0:2:0:0:
375,51,55747,6,0,P|426:46|467:77,1,99.9999999999999,6|8,3:2|0:2,0:2:0:0:
488,117,56261,2,0,P|493:168|462:209,1,99.9999999999999,2|2,0:2|0:2,0:2:0:0:
419,188,56775,1,8,0:2:0:0:
371,173,56947,2,0,L|383:281,1,99.9999999999999,2|2,0:2|0:2,0:2:0:0:
395,376,57632,1,2,0:2:0:0:
395,376,57804,1,2,0:2:0:0:
304,335,58147,1,10,0:2:0:0:
382,272,58490,6,0,P|431:274|472:245,1,99.9999999999999,2|8,3:2|0:2,0:2:0:0:
502,206,59004,1,2,0:2:0:0:
438,129,59347,2,0,L|433:79,1,50,2|8,0:2|0:2,0:2:0:0:
401,41,59690,2,0,P|352:32|306:50,1,99.9999999999999,2|2,0:2|0:2,0:2:0:0:
264,77,60204,1,8,0:2:0:0:
171,115,60547,2,0,L|71:101,1,99.9999999999999,2|10,0:2|0:2,0:2:0:0:
9,180,61232,6,0,P|0:234|19:287,1,99.9999999999999,2|8,3:2|0:2,0:2:0:0:
39,319,61747,2,0,L|149:308,1,99.9999999999999,2|2,0:2|0:2,0:2:0:0:
188,305,62261,1,8,0:2:0:0:
238,300,62432,2,0,L|259:202,1,99.9999999999999,2|2,0:2|0:2,0:2:0:0:
283,108,63118,1,2,0:2:0:0:
283,108,63290,2,0,L|185:86,1,99.9999999999999,2|10,0:2|0:2,0:2:0:0:
86,68,63975,6,0,L|107:165,1,99.9999999999999,2|8,3:2|0:2,0:2:0:0:
117,215,64490,1,2,0:2:0:0:
136,313,64832,2,0,L|193:320,1,50,2|8,0:2|0:2,0:2:0:0:
235,327,65175,1,2,0:2:0:0:
334,344,65518,1,2,0:2:0:0:
353,246,65861,1,2,0:2:0:0:
259,230,66204,1,10,0:2:0:0:
259,230,66375,1,10,0:2:0:0:
162,207,66718,6,0,P|152:155|169:112,1,99.9999999999999,6|8,3:2|0:2,0:2:0:0:
196,72,67232,1,2,0:2:0:0:
196,72,67404,2,0,L|266:67,1,50,0|2,0:2|3:2,0:2:0:0:
350,67,67918,1,2,0:2:0:0:
350,67,68090,2,0,P|406:61|459:99,1,99.9999999999999,0|8,3:2|0:2,0:2:0:0:
478,117,68604,2,0,P|487:171|468:234,1,99.9999999999999,2|0,0:2|3:2,0:2:0:0:
438,246,69118,1,10,0:2:0:0:
354,301,69461,6,0,L|340:201,1,99.9999999999999,2|10,3:2|0:2,0:2:0:0:
425,147,70147,2,0,L|436:98,1,50,2|2,0:2|3:2,0:2:0:0:
378,25,70661,1,0,0:2:0:0:
378,25,70832,2,0,P|332:49|271:44,1,99.9999999999999,2|10,3:2|0:2,0:2:0:0:
237,32,71347,1,2,0:2:0:0:
122,129,71861,1,10,0:2:0:0:
25,104,72204,6,0,P|18:37|38:-8,2,99.9999999999999,6|8|0,3:2|0:2|0:2,0:2:0:0:
122,129,73232,2,0,L|108:202,1,50,8|2,0:2|0:2,0:2:0:0:
73,209,73575,2,0,P|89:254|81:320,1,99.9999999999999,0|8,3:2|0:2,0:2:0:0:
56,346,74090,1,2,0:2:0:0:
159,362,74432,1,0,3:2:0:0:
159,362,74604,1,10,0:2:0:0:
259,371,74947,6,0,L|243:261,1,99.9999999999999,2|8,3:2|0:2,0:2:0:0:
235,223,75461,1,2,0:2:0:0:
287,137,75804,1,2,3:2:0:0:
336,50,76147,2,0,P|387:42|435:56,1,99.9999999999999,2|2,0:2|0:2,0:2:0:0:
464,94,76661,2,0,L|471:157,1,50,8|2,0:2|0:2,0:2:0:0:
501,183,77004,2,0,P|506:238|486:295,1,99.9999999999999,0|10,0:2|0:2,0:2:0:0:
425,354,77690,6,0,L|298:341,1,99.9999999999999,6|8,3:2|0:2,0:2:0:0:
245,284,78375,2,0,L|195:292,1,50,0|2,0:2|3:2,0:2:0:0:
101,316,78890,1,2,0:2:0:0:
101,316,79061,2,0,P|104:264|69:206,1,99.9999999999999,0|8,3:2|0:2,0:2:0:0:
109,178,79575,1,2,0:2:0:0:
54,101,79918,1,0,3:2:0:0:
54,101,80090,1,10,0:2:0:0:
117,24,80432,6,0,L|231:34,1,99.9999999999999,2|10,3:2|0:2,0:2:0:0:
270,42,80947,1,2,0:2:0:0:
270,42,81118,2,0,L|250:97,1,50,2|2,0:2|3:2,0:2:0:0:
268,193,81632,1,2,0:2:0:0:
268,193,81804,2,0,P|246:236|251:296,1,99.9999999999999,0|8,3:2|0:2,0:2:0:0:
261,335,82318,1,2,0:2:0:0:
407,367,82832,1,8,0:2:0:0:
488,308,83175,6,0,P|491:265|470:210,1,99.9999999999999,6|8,3:2|0:2,0:2:0:0:
436,185,83690,1,2,0:2:0:0:
436,185,83861,2,0,L|455:65,1,99.9999999999999,0|8,0:2|0:2,0:2:0:0:
461,37,84375,1,2,0:2:0:0:
364,62,84718,1,0,0:2:0:0:
325,154,85061,1,2,0:2:0:0:
231,180,85404,1,0,3:2:0:0:
231,180,85575,1,10,0:2:0:0:
169,101,85918,6,0,P|119:92|71:114,1,99.9999999999999,0|10,3:2|0:2,0:2:0:0:
48,153,86432,2,0,P|39:203|61:251,1,99.9999999999999,2|2,0:2|3:2,0:2:0:0:
115,329,87118,2,0,P|165:338|213:316,1,99.9999999999999,2|2,0:2|0:2,0:2:0:0:
253,295,87632,1,8,0:2:0:0:
187,220,87975,2,0,P|181:192|182:166,1,50,0|2,0:2|3:2,0:2:0:0:
190,121,88318,1,10,0:2:0:0:
256,46,88661,6,0,L|376:40,1,99.9999999999999,6|0,3:2|3:2,0:2:0:0:
406,134,89347,1,8,0:2:0:0:
406,134,89518,2,0,L|306:138,1,99.9999999999999,2|2,0:2|0:2,0:2:0:0:
265,230,90204,2,0,L|364:225,2,99.9999999999999,0|0|2,0:2|3:2|0:2,0:2:0:0:
214,317,91232,1,2,0:2:0:0:
214,317,91404,6,0,P|121:336|74:301,1,150,6|2,3:2|0:2,0:2:0:0:
42,275,92090,2,0,L|20:106,1,150,8|2,0:2|0:2,0:2:0:0:
62,96,92775,2,0,P|153:78|177:178,1,200,2|10,0:2|0:2,0:2:0:0:
142,254,93804,1,2,0:2:0:0:
213,324,94147,6,0,P|258:343|320:336,1,99.9999999999999,2|8,3:2|0:2,0:2:0:0:
357,328,94661,1,2,0:2:0:0:
430,260,95004,2,0,L|435:210,1,50,2|8,3:2|0:2,0:2:0:0:
466,170,95347,2,0,P|471:121|436:57,2,99.9999999999999,0|2|2,0:2|0:2|0:2,0:2:0:0:
372,135,96375,2,0,L|316:124,1,50,2|8,3:2|0:2,0:2:0:0:
274,115,96718,6,0,L|298:226,1,99.9999999999999,2|2,0:2|0:2,0:2:0:0:
323,314,97404,1,2,0:2:0:0:
323,314,97575,1,4,3:2:0:0:
240,367,97918,1,8,0:2:0:0:
240,367,98090,1,2,0:2:0:0:
214,270,98432,2,0,L|198:200,2,50,2|8|2,3:2|3:2|3:2,0:2:0:0:
175,302,98947,1,2,3:2:0:0:
99,237,99290,1,2,3:2:0:0:
24,171,99632,6,0,P|17:121|37:70,1,99.9999999999999,6|8,3:2|0:2,0:2:0:0:
66,37,100147,1,2,0:2:0:0:
147,95,100490,2,0,P|197:91|253:58,1,99.9999999999999,2|2,3:2|0:2,0:2:0:0:
287,89,101004,2,0,P|331:66|380:63,1,99.9999999999999,0|8,3:2|0:2,0:2:0:0:
430,72,101518,1,2,0:2:0:0:
504,147,101861,1,0,3:2:0:0:
504,147,102032,1,8,0:2:0:0:
441,225,102375,6,0,P|466:271|463:320,1,99.9999999999999,2|10,3:2|0:2,0:2:0:0:
434,358,102890,1,2,0:2:0:0:
338,330,103232,1,2,3:2:0:0:
244,297,103575,2,0,P|196:316|147:309,2,99.9999999999999,2|2|0,0:2|0:2|0:2,0:2:0:0:
274,257,104432,1,2,3:2:0:0:
335,178,104775,1,8,0:2:0:0:
274,99,105118,6,0,P|231:75|175:77,1,99.9999999999999,2|8,3:2|0:2,0:2:0:0:
133,89,105632,1,2,0:2:0:0:
66,163,105975,1,2,3:2:0:0:
153,223,106318,1,2,0:2:0:0:
153,223,106490,2,0,P|159:279|133:334,1,99.9999999999999,0|8,3:2|0:2,0:2:0:0:
125,365,107004,2,0,L|224:357,1,99.9999999999999,0|0,0:2|3:2,0:2:0:0:
275,354,107518,1,8,0:2:0:0:
327,268,107861,6,0,L|426:260,1,99.9999999999999,2|10,3:2|0:2,0:2:0:0:
477,257,108375,1,2,0:2:0:0:
418,176,108718,1,2,3:2:0:0:
363,92,109061,2,0,L|462:84,2,99.9999999999999,2|2|2,0:2|0:2|0:2,0:2:0:0:
313,96,109918,1,2,3:2:0:0:
256,14,110261,1,10,3:2:0:0:
199,96,110604,6,0,P|153:76|100:83,1,99.9999999999999,6|8,3:2|0:2,0:2:0:0:
58,101,111118,1,2,0:2:0:0:
76,199,111461,2,0,P|56:245|63:298,1,99.9999999999999,2|2,3:2|0:2,0:2:0:0:
81,340,111975,1,0,3:2:0:0:
182,369,112318,1,8,0:2:0:0:
182,369,112490,2,0,P|231:371|276:344,1,99.9999999999999,2|0,0:2|3:2,0:2:0:0:
314,316,113004,1,8,0:2:0:0:
256,234,113347,6,0,L|249:134,1,99.9999999999999,2|8,3:2|0:2,0:2:0:0:
246,84,113861,1,2,0:2:0:0:
329,29,114204,1,2,3:2:0:0:
419,72,114547,2,0,P|464:51|514:59,2,99.9999999999999,2|2|0,0:2|0:2|0:2,0:2:0:0:
395,116,115404,2,0,P|390:141|393:170,1,50,2|0,0:2|3:2,0:2:0:0:
412,211,115747,1,8,0:2:0:0:
462,298,116090,6,0,P|438:327|312:342,1,150,2|2,3:2|0:2,0:2:0:0:
256,286,116947,1,2,3:2:0:0:
180,350,117290,1,2,0:2:0:0:
180,350,117461,2,0,P|123:352|73:326,1,99.9999999999999,0|8,3:2|0:2,0:2:0:0:
42,307,117975,1,2,0:2:0:0:
103,229,118318,1,0,3:2:0:0:
103,229,118490,1,8,0:2:0:0:
59,139,118832,6,0,P|69:88|108:49,1,99.9999999999999,2|8,3:2|3:2,0:2:0:0:
194,12,119518,1,0,3:2:0:0:
194,12,119690,1,2,0:2:0:0:
256,90,120032,2,0,B|296:162|216:218|256:290,1,200,2|2,0:2|3:2,0:2:0:0:
335,341,121061,2,0,P|364:348|409:343,1,50,2|10,3:2|3:2,0:2:0:0:
435,334,121404,1,0,0:2:0:0:
435,334,121575,6,0,P|471:298|478:251,1,99.9999999999999,6|8,3:2|0:2,0:2:0:0:
446,213,122090,2,0,L|432:102,1,99.9999999999999,2|2,0:2|0:2,0:2:0:0:
337,86,122775,2,0,L|349:185,1,99.9999999999999,2|2,0:2|0:2,0:2:0:0:
300,174,123290,1,8,0:2:0:0:
251,164,123461,2,0,L|238:64,1,99.9999999999999,2|2,0:2|0:2,0:2:0:0:
190,51,123975,1,8,0:2:0:0:
97,87,124318,6,0,P|68:126|59:175,1,99.9999999999999,2|8,3:2|0:2,0:2:0:0:
60,226,124832,2,0,B|97:260|97:260|146:260,1,99.9999999999999,2|2,0:2|0:2,0:2:0:0:
201,264,125347,1,8,0:2:0:0:
201,264,125518,2,0,B|235:227|235:227|235:177,1,99.9999999999999,2|2,0:2|0:2,0:2:0:0:
285,177,126032,1,8,0:2:0:0:
335,177,126204,2,0,B|335:226|335:226|369:263,1,99.9999999999999,2|2,0:2|0:2,0:2:0:0:
409,295,126718,1,8,0:2:0:0:
471,216,127061,6,0,P|485:169|472:119,1,99.9999999999999,2|8,3:2|0:2,0:2:0:0:
452,75,127575,2,0,P|410:48|357:45,1,99.9999999999999,2|2,0:2|0:2,0:2:0:0:
274,92,128261,1,2,0:2:0:0:
274,92,128432,2,0,P|224:76|169:90,1,99.9999999999999,0|8,3:2|0:2,0:2:0:0:
138,115,128947,2,0,P|122:165|136:220,1,99.9999999999999,2|2,0:2|0:2,0:2:0:0:
150,257,129461,1,8,0:2:0:0:
234,311,129804,6,0,L|333:295,1,99.9999999999999,2|8,3:2|0:2,0:2:0:0:
382,285,130318,2,0,L|448:274,1,50,2|0,0:2|0:2,0:2:0:0:
473,249,130661,2,0,P|473:196|445:144,1,99.9999999999999,2|2,0:2|0:2,0:2:0:0:
378,88,131347,2,0,L|317:88,1,50,2|8,0:2|0:2,0:2:0:0:
278,88,131690,2,0,L|126:88,1,150,2|10,0:2|0:2,0:2:0:0:
82,92,132375,1,0,0:2:0:0:
82,92,132547,6,0,P|64:139|75:194,1,99.9999999999999,6|8,3:2|0:2,0:2:0:0:
97,230,133061,2,0,P|144:247|192:240,1,99.9999999999999,2|2,0:2|0:2,0:2:0:0:
256,162,133747,2,0,P|303:145|351:152,1,99.9999999999999,2|2,0:2|0:2,0:2:0:0:
393,180,134261,1,8,0:2:0:0:
432,211,134432,2,0,P|449:258|442:306,1,99.9999999999999,2|2,0:2|0:2,0:2:0:0:
418,351,134947,1,8,0:2:0:0:
329,306,135290,6,0,P|281:294|233:306,1,99.9999999999999,2|8,3:2|0:2,0:2:0:0:
202,346,135804,2,0,B|100:329,1,99.9999999999999,2|2,0:2|0:2,0:2:0:0:
58,324,136318,1,8,0:2:0:0:
58,324,136490,2,0,L|33:218,1,99.9999999999999,2|2,0:2|0:2,0:2:0:0:
72,193,137004,1,8,0:2:0:0:
109,159,137175,2,0,L|131:256,1,99.9999999999999,2|2,0:2|0:2,0:2:0:0:
169,290,137690,1,8,0:2:0:0:
256,340,138032,6,0,P|303:354|358:337,1,99.9999999999999,2|8,3:2|0:2,0:2:0:0:
386,305,138547,2,0,P|432:324|489:317,1,99.9999999999999,2|2,0:2|0:2,0:2:0:0:
505,276,139061,2,0,P|500:249|488:216,1,50,8|2,0:2|0:2,0:2:0:0:
451,201,139404,2,0,P|467:151|453:96,1,99.9999999999999,0|8,3:2|0:2,0:2:0:0:
433,62,139918,2,0,P|387:35|331:36,1,99.9999999999999,2|2,0:2|0:2,0:2:0:0:
292,42,140432,1,8,0:2:0:0:
220,112,140775,6,0,L|236:215,1,99.9999999999999,2|10,3:2|3:2,0:2:0:0:
242,261,141290,2,0,P|187:257|131:273,1,99.9999999999999,2|2,0:2|0:2,0:2:0:0:
100,257,141804,1,8,3:2:0:0:
100,257,141975,2,0,P|47:258|2:233,2,99.9999999999999,2|2|2,0:2|3:2|3:2,0:2:0:0:
127,214,142832,2,0,L|110:142,1,50,0|2,3:2|3:2,0:2:0:0:
104,116,143175,1,10,3:2:0:0:
168,39,143518,6,0,P|218:40|264:21,1,99.9999999999999,6|8,3:2|0:2,0:2:0:0:
298,58,144032,2,0,P|347:56|393:75,1,99.9999999999999,2|2,0:2|0:2,0:2:0:0:
401,125,144547,1,8,0:2:0:0:
395,176,144718,2,0,P|402:230|387:276,1,99.9999999999999,2|2,0:2|0:2,0:2:0:0:
327,353,145404,1,2,0:2:0:0:
327,353,145575,1,2,0:2:0:0:
230,327,145918,2,0,L|230:267,1,50,8|0,0:2|0:2,0:2:0:0:
187,251,146261,6,0,P|172:203|187:149,1,99.9999999999999,2|8,3:2|0:2,0:2:0:0:
209,113,146775,1,2,0:2:0:0:
159,26,147118,2,0,L|209:26,1,50,2|8,0:2|0:2,0:2:0:0:
257,40,147461,2,0,P|309:40|356:73,1,99.9999999999999,2|2,0:2|0:2,0:2:0:0:
383,101,147975,1,8,0:2:0:0:
431,188,148318,2,0,P|431:240|398:287,1,99.9999999999999,2|10,0:2|0:2,0:2:0:0:
308,299,149004,6,0,L|181:306,1,99.9999999999999,2|8,3:2|0:2,0:2:0:0:
173,340,149518,2,0,L|57:326,1,99.9999999999999,2|2,0:2|0:2,0:2:0:0:
45,286,150032,1,8,0:2:0:0:
26,239,150204,2,0,L|10:140,1,99.9999999999999,2|2,0:2|0:2,0:2:0:0:
96,86,150890,1,2,0:2:0:0:
96,86,151061,2,0,L|112:185,1,99.9999999999999,2|10,0:2|0:2,0:2:0:0:
129,284,151747,6,0,P|174:303|241:293,1,99.9999999999999,2|8,3:2|0:2,0:2:0:0:
268,275,152261,1,2,0:2:0:0:
359,234,152604,2,0,L|352:295,1,50,2|8,0:2|0:2,0:2:0:0:
344,333,152947,1,2,0:2:0:0:
439,303,153290,1,2,0:2:0:0:
485,214,153632,1,2,0:2:0:0:
469,120,153975,1,10,0:2:0:0:
469,120,154147,1,10,0:2:0:0:
401,46,154490,6,0,B|352:37|352:37|309:63,1,99.9999999999999,6|8,3:2|0:2,0:2:0:0:
284,108,155004,2,0,B|275:156|275:156|301:199,1,99.9999999999999,2|2,0:2|0:2,0:2:0:0:
329,242,155518,1,8,0:2:0:0:
353,286,155690,2,0,P|300:280|256:310,1,99.9999999999999,2|2,0:2|0:2,0:2:0:0:
180,362,156375,1,2,0:2:0:0:
180,362,156547,1,2,0:2:0:0:
117,284,156890,1,10,0:2:0:0:
26,326,157232,6,0,P|17:276|39:220,1,99.9999999999999,2|8,3:2|0:2,0:2:0:0:
59,188,157747,1,2,0:2:0:0:
9,101,158090,2,0,L|23:52,1,50,2|8,0:2|0:2,0:2:0:0:
68,31,158432,2,0,P|103:22|165:36,1,99.9999999999999,2|2,0:2|0:2,0:2:0:0:
207,62,158947,1,8,0:2:0:0:
249,152,159290,2,0,L|351:138,1,99.9999999999999,2|10,0:2|0:2,0:2:0:0:
435,85,159975,6,0,P|429:134|449:194,1,99.9999999999999,2|8,3:2|0:2,0:2:0:0:
474,221,160490,2,0,P|480:270|460:330,1,99.9999999999999,2|2,0:2|0:2,0:2:0:0:
424,344,161004,1,8,0:2:0:0:
378,366,161175,2,0,L|264:354,1,99.9999999999999,2|2,0:2|0:2,0:2:0:0:
262,261,161861,1,2,0:2:0:0:
262,261,162032,2,0,L|361:271,1,99.9999999999999,2|10,0:2|0:2,0:2:0:0:
444,214,162718,6,0,P|444:162|426:118,1,99.9999999999999,2|8,3:2|0:2,0:2:0:0:
391,82,163232,1,2,0:2:0:0:
305,30,163575,2,0,L|253:30,1,50,2|8,0:2|0:2,0:2:0:0:
205,30,163918,1,2,0:2:0:0:
137,103,164261,1,2,0:2:0:0:
205,176,164604,1,2,0:2:0:0:
280,250,164947,1,10,0:2:0:0:
280,250,165118,1,10,0:2:0:0:
205,316,165461,5,4,3:2:0:0:
256,192,181918,12,0,186032,3:2:0:0:
321,55,187232,5,0,3:2:0:0:
321,55,187404,6,0,P|317:106|286:141,1,99.9999999999999,6|8,3:2|0:2,0:2:0:0:
237,154,187918,2,0,P|269:190|271:239,1,99.9999999999999,2|2,0:2|0:2,0:2:0:0:
254,287,188432,1,8,0:2:0:0:
221,326,188604,2,0,P|176:346|123:337,1,99.9999999999999,2|2,0:2|0:2,0:2:0:0:
40,288,189290,2,0,L|26:177,1,99.9999999999999,2|2,0:2|0:2,0:2:0:0:
20,139,189804,1,8,0:2:0:0:
90,68,190147,6,0,P|140:56|196:73,1,99.9999999999999,2|8,3:2|0:2,0:2:0:0:
228,96,190661,2,0,B|221:150|221:150|250:196,1,99.9999999999999,2|2,0:2|0:2,0:2:0:0:
283,230,191175,1,8,0:2:0:0:
283,230,191347,2,0,B|290:284|290:284|261:330,1,99.9999999999999,2|2,0:2|0:2,0:2:0:0:
232,360,191861,1,8,0:2:0:0:
183,370,192032,2,0,L|83:358,1,99.9999999999999,2|2,0:2|0:2,0:2:0:0:
34,352,192547,1,8,0:2:0:0:
70,259,192890,6,0,P|56:212|80:161,1,99.9999999999999,2|8,3:2|0:2,0:2:0:0:
115,137,193404,2,0,P|96:92|105:41,1,99.9999999999999,2|2,0:2|0:2,0:2:0:0:
150,22,193918,2,0,P|183:26|211:39,1,50,8|2,0:2|0:2,0:2:0:0:
236,65,194261,2,0,P|286:49|341:63,1,99.9999999999999,0|8,3:2|0:2,0:2:0:0:
372,88,194775,2,0,P|388:138|374:193,1,99.9999999999999,2|0,0:2|0:2,0:2:0:0:
360,230,195290,1,8,0:2:0:0:
378,335,195632,6,0,L|477:319,1,99.9999999999999,2|8,3:2|0:2,0:2:0:0:
501,275,196147,2,0,P|480:219|485:172,1,99.9999999999999,2|2,0:2|0:2,0:2:0:0:
497,131,196661,1,8,0:2:0:0:
497,131,196832,6,0,P|452:136|399:110,1,99.9999999999999,2|2,0:2|0:2,0:2:0:0:
331,44,197518,2,0,P|278:26|229:30,1,99.9999999999999,2|10,0:2|0:2,0:2:0:0:
185,34,198032,1,10,0:2:0:0:
155,75,198204,1,0,0:2:0:0:
155,75,198375,6,0,P|108:57|53:68,1,99.9999999999999,6|8,3:2|0:2,0:2:0:0:
28,103,198890,2,0,P|20:151|37:198,1,99.9999999999999,2|2,0:2|0:2,0:2:0:0:
97,279,199575,2,0,P|146:287|191:267,1,99.9999999999999,2|2,0:2|0:2,0:2:0:0:
226,231,200090,1,8,0:2:0:0:
256,191,200261,2,0,P|264:143|244:98,1,99.9999999999999,2|2,0:2|0:2,0:2:0:0:
209,61,200775,1,8,0:2:0:0:
123,112,201118,6,0,P|111:160|123:208,1,99.9999999999999,2|8,3:2|0:2,0:2:0:0:
163,238,201632,2,0,P|181:289|162:348,1,99.9999999999999,2|2,0:2|0:2,0:2:0:0:
153,382,202147,1,8,0:2:0:0:
153,382,202318,2,0,L|297:364,1,99.9999999999999,2|2,0:2|0:2,0:2:0:0:
302,364,202832,1,8,0:2:0:0:
352,358,203004,2,0,L|374:260,1,99.9999999999999,2|2,0:2|0:2,0:2:0:0:
388,212,203518,1,8,0:2:0:0:
414,115,203861,6,0,P|367:129|316:105,1,99.9999999999999,2|8,3:2|0:2,0:2:0:0:
292,70,204375,2,0,P|246:89|199:75,1,99.9999999999999,2|2,0:2|0:2,0:2:0:0:
166,38,204890,2,0,L|113:41,1,50,8|2,0:2|0:2,0:2:0:0:
66,42,205232,2,0,P|50:92|62:146,1,99.9999999999999,0|8,3:2|0:2,0:2:0:0:
91,176,205747,2,0,L|69:280,1,99.9999999999999,2|2,0:2|0:2,0:2:0:0:
57,322,206261,1,8,0:2:0:0:
146,367,206604,6,0,L|256:354,1,99.9999999999999,2|10,3:2|3:2,0:2:0:0:
286,326,207118,2,0,L|399:310,1,99.9999999999999,2|2,0:2|0:2,0:2:0:0:
418,275,207632,1,8,3:2:0:0:
418,275,207804,2,0,P|468:274|512:251,2,99.9999999999999,2|2|2,0:2|3:2|3:2,0:2:0:0:
388,235,208661,2,0,P|364:224|320:222,1,50,0|0,3:2|3:2,0:2:0:0:
291,227,209004,1,8,3:2:0:0:
237,311,209347,6,0,P|185:306|135:345,1,99.9999999999999,6|8,3:2|0:2,0:2:0:0:
110,366,209861,2,0,B|4:350,1,99.9999999999999,2|2,0:2|0:2,0:2:0:0:
24,302,210375,1,8,0:2:0:0:
34,253,210547,2,0,L|18:151,1,99.9999999999999,2|2,0:2|0:2,0:2:0:0:
6,59,211232,1,2,0:2:0:0:
6,59,211404,1,2,0:2:0:0:
106,68,211747,2,0,L|162:68,1,50,8|0,0:2|0:2,0:2:0:0:
206,68,212090,6,0,P|257:68|308:38,1,99.9999999999999,2|8,3:2|0:2,0:2:0:0:
341,18,212604,1,2,0:2:0:0:
431,61,212947,2,0,L|439:126,1,50,2|8,0:2|0:2,0:2:0:0:
476,142,213290,2,0,P|496:187|494:245,1,99.9999999999999,2|2,0:2|0:2,0:2:0:0:
482,285,213804,1,8,0:2:0:0:
417,361,214147,2,0,L|309:372,1,99.9999999999999,2|10,0:2|0:2,0:2:0:0:
268,285,214832,6,0,L|168:279,1,99.9999999999999,2|8,3:2|0:2,0:2:0:0:
137,319,215347,2,0,L|37:313,1,99.9999999999999,2|2,0:2|0:2,0:2:0:0:
30,263,215861,1,8,0:2:0:0:
21,214,216032,2,0,L|8:113,1,99.9999999999999,2|2,0:2|0:2,0:2:0:0:
98,67,216718,1,2,0:2:0:0:
98,67,216890,2,0,L|110:166,1,99.9999999999999,2|10,0:2|0:2,0:2:0:0:
123,266,217575,6,0,P|174:269|219:297,1,99.9999999999999,2|8,3:2|0:2,0:2:0:0:
256,323,218090,1,2,0:2:0:0:
356,323,218432,2,0,L|424:323,1,50,2|8,0:2|0:2,0:2:0:0:
456,322,218775,1,2,0:2:0:0:
456,222,219118,1,2,0:2:0:0:
456,122,219461,1,2,0:2:0:0:
460,26,219804,1,10,0:2:0:0:
460,26,219975,1,10,0:2:0:0:
372,74,220318,6,0,P|322:67|280:91,1,99.9999999999999,6|8,3:2|0:2,0:2:0:0:
241,123,220832,2,0,B|127:106,1,99.9999999999999,2|2,0:2|0:2,0:2:0:0:
113,150,221347,1,8,0:2:0:0:
83,189,221518,2,0,B|181:203,1,99.9999999999999,2|2,0:2|0:2,0:2:0:0:
260,276,222204,1,2,0:2:0:0:
260,276,222375,1,2,0:2:0:0:
329,203,222718,1,10,0:2:0:0:
256,134,223061,6,0,P|256:81|289:36,1,99.9999999999999,2|8,3:2|0:2,0:2:0:0:
321,13,223575,1,2,0:2:0:0:
402,71,223918,2,0,L|458:71,1,50,2|8,0:2|0:2,0:2:0:0:
476,115,224261,2,0,P|494:163|481:220,1,99.9999999999999,2|2,0:2|0:2,0:2:0:0:
469,257,224775,1,8,0:2:0:0:
425,347,225118,2,0,L|317:358,1,99.9999999999999,2|10,0:2|0:2,0:2:0:0:
225,364,225804,6,0,L|105:346,1,99.9999999999999,2|8,3:2|0:2,0:2:0:0:
99,306,226318,2,0,P|48:327|-12:321,1,99.9999999999999,2|2,0:2|0:2,0:2:0:0:
20,278,226832,1,8,0:2:0:0:
37,231,227004,2,0,P|18:185|27:132,1,99.9999999999999,2|2,0:2|0:2,0:2:0:0:
104,74,227690,1,2,0:2:0:0:
104,74,227861,2,0,L|205:69,1,99.9999999999999,2|10,0:2|0:2,0:2:0:0:
292,22,228547,6,0,L|391:26,1,99.9999999999999,2|8,3:2|0:2,0:2:0:0:
442,28,229061,1,2,0:2:0:0:
502,109,229404,2,0,L|490:157,1,50,2|8,0:2|0:2,0:2:0:0:
477,206,229747,1,2,0:2:0:0:
378,190,230090,1,2,0:2:0:0:
392,288,230432,1,2,0:2:0:0:
300,264,230775,1,10,0:2:0:0:
300,264,230947,1,10,0:2:0:0:
256,353,231290,5,6,3:2:0:0:
256,104,232147,2,0,L|256:49,2,50,2|2|2,0:2|0:2|0:2,0:2:0:0:
256,154,232661,2,0,B|336:154|336:154|376:173|376:173|465:173,1,200,2|2,0:2|0:2,0:2:0:0:
325,328,234032,5,2,0:2:0:0:
256,87,234890,2,0,L|256:36,2,50,2|2|2,0:2|0:2|0:2,0:2:0:0:
187,328,236090,1,2,0:2:0:0:
95,289,236432,1,2,0:2:0:0:
120,192,236775,5,2,0:2:0:0:
370,192,237632,2,0,L|435:192,2,50,2|2|2,0:2|0:2|0:2,0:2:0:0:
341,233,238147,2,0,B|262:233|262:233|222:252|222:252|133:252,1,200,2|2,0:2|0:2,0:2:0:0:
256,85,239518,5,2,0:2:0:0:
17,160,240375,2,0,L|18:85,2,50,2|2|2,0:2|0:2|0:2,0:2:0:0:
56,192,240890,2,0,L|169:192,1,99.9999999999999,2|0,0:2|0:2,0:2:0:0:
256,192,241575,2,0,L|312:192,2,50,2|2|2,0:2|0:2|0:2,0:2:0:0:
