osu file format v14

[General]
AudioFilename: audio.mp3
AudioLeadIn: 0
PreviewTime: 153295
Countdown: 0
SampleSet: Soft
StackLeniency: 0.4
Mode: 0
LetterboxInBreaks: 0
EpilepsyWarning: 1
WidescreenStoryboard: 1

[Editor]
Bookmarks: 11413,34001,39648,50942,62236,84824,108824,131413,142707,154001,165295,175530,175883,176589,181295,199177,210471,221766,227413,250001,272589,295177,306471,313530
DistanceSpacing: 0.9
BeatDivisor: 6
GridSize: 4
TimelineZoom: 3.399999

[Metadata]
Title:The Journey
TitleUnicode:The Journey
Artist:Seven Lions
ArtistUnicode:Seven Lions
Creator:-M4x
Version:The Good Die Young
Source:
Tags:dubstep rock edm creation EP
BeatmapID:1021739
BeatmapSetID:478387

[Difficulty]
HPDrainRate:6
CircleSize:4.5
OverallDifficulty:8.5
ApproachRate:9
SliderMultiplier:1.7
SliderTickRate:1

[Events]
//Background and Video events
0,0,"BG.jpg",0,0
//Break Periods
//Storyboard Layer 0 (Background)
//Storyboard Layer 1 (Fail)
//Storyboard Layer 2 (Pass)
//Storyboard Layer 3 (Foreground)
//Storyboard Sound Samples

[TimingPoints]
119,352.941176470588,4,2,99,30,1,0
119,-350,4,2,99,30,0,0
8589,-500,4,2,0,5,0,0
8942,-500,4,2,0,10,0,0
9295,-500,4,2,0,15,0,0
9648,-500,4,2,0,20,0,0
10001,-500,4,2,0,25,0,0
10354,-500,4,2,0,30,0,0
10707,-500,4,2,0,35,0,0
11060,-500,4,2,0,35,0,0
11413,-200,4,2,1,60,0,0
11530,-200,4,2,0,25,0,0
17060,-166.666666666667,4,2,0,25,0,0
22707,-166.666666666667,4,2,1,60,0,0
22824,-166.666666666667,4,2,0,25,0,0
34001,-200,4,2,0,25,0,0
34295,-200,4,2,0,5,0,0
34354,-181.818181818182,4,2,0,30,0,0
34648,-181.818181818182,4,2,0,5,0,0
34707,-166.666666666667,4,2,0,35,0,0
35001,-166.666666666667,4,2,0,5,0,0
35060,-153.846153846154,4,2,0,40,0,0
35354,-153.846153846154,4,2,0,5,0,0
35413,-142.857142857143,4,2,0,45,0,0
35707,-142.857142857143,4,2,0,5,0,0
35766,-133.333333333333,4,2,0,50,0,0
36060,-133.333333333333,4,2,0,5,0,0
36118,-125,4,2,0,55,0,0
36413,-125,4,2,0,5,0,0
36471,-117.647058823529,4,2,0,60,0,0
36766,-117.647058823529,4,2,0,5,0,0
36824,-111.111111111111,4,2,0,65,0,0
37118,-111.111111111111,4,2,0,5,0,0
37177,-105.263157894737,4,2,0,70,0,0
37471,-105.263157894737,4,2,0,5,0,0
37530,-100,4,2,0,75,0,0
37824,-100,4,2,0,5,0,0
37883,-90.9090909090909,4,2,0,80,0,0
38177,-90.9090909090909,4,2,0,5,0,0
38236,-90.9090909090909,4,2,0,65,0,0
39648,-133.333333333333,4,2,0,50,0,1
41060,-200,4,2,0,50,0,1
45295,-133.333333333333,4,2,0,50,0,1
46707,-200,4,2,0,50,0,1
48118,-133.333333333333,4,2,0,50,0,1
48824,-200,4,2,0,50,0,1
49530,-133.333333333333,4,2,0,50,0,1
50589,-133.333333333333,4,2,0,50,0,0
50942,-133.333333333333,4,2,0,50,0,1
52354,-200,4,2,0,50,0,1
54471,-133.333333333333,4,2,0,50,0,1
55177,-200,4,2,0,50,0,1
57295,-133.333333333333,4,2,0,50,0,1
58001,-200,4,2,0,50,0,1
62236,-133.333333333333,4,2,0,50,0,0
70707,-200,4,2,0,50,0,0
71060,-200,4,2,0,25,0,0
72118,-200,4,2,0,30,0,0
72471,-200,4,2,0,35,0,0
72824,-200,4,2,0,40,0,0
73177,-200,4,2,0,45,0,0
73530,-133.333333333333,4,2,0,50,0,0
82001,-133.333333333333,4,2,0,25,0,0
82354,-200,4,2,0,30,0,0
83413,-133.333333333333,4,2,0,35,0,0
83766,-133.333333333333,4,2,0,40,0,0
84118,-133.333333333333,4,2,0,45,0,0
84354,-133.333333333333,4,2,0,50,0,0
84824,-300,4,2,99,40,0,0
84883,-300,4,2,99,5,0,0
87648,-300,4,2,99,40,0,0
87707,-300,4,2,99,5,0,0
90118,-300,4,2,99,40,0,0
90530,-300,4,2,99,5,0,0
93295,-300,4,2,99,40,0,0
93354,-300,4,2,99,5,0,0
95413,-300,4,2,99,40,0,0
95766,-300,4,2,99,20,0,0
95883,-300,4,2,99,40,0,0
96001,-300,4,2,99,20,0,0
96118,-250,4,2,99,40,0,0
96177,-250,4,2,99,5,0,0
98942,-250,4,2,99,40,0,0
99001,-250,4,2,99,5,0,0
101060,-250,4,2,99,40,0,0
101824,-250,4,2,99,5,0,0
104589,-1000,4,2,99,40,0,0
106942,-250,4,2,99,40,0,0
107060,-250,4,2,99,20,0,0
107177,-250,4,2,99,40,0,0
107295,-250,4,2,99,20,0,0
107413,-250,4,2,99,40,0,0
108824,-133.333333333333,4,2,0,50,0,1
111648,-166.666666666667,4,2,0,50,0,1
112354,-133.333333333333,4,2,0,50,0,1
113060,-200,4,2,0,50,0,1
115177,-133.333333333333,4,2,0,50,0,1
115530,-200,4,2,0,50,0,1
116236,-133.333333333333,4,2,0,50,0,1
116589,-200,4,2,0,50,0,1
122942,-133.333333333333,4,2,0,50,0,1
124354,-200,4,2,0,50,0,1
128589,-133.333333333333,4,2,0,50,0,1
130001,-200,4,2,0,50,0,1
131413,-200,4,2,98,50,0,0
132824,-200,4,2,98,10,0,0
134236,-200,4,2,98,50,0,0
135648,-200,4,2,98,20,0,0
137060,-200,4,2,98,50,0,0
142354,-200,4,2,98,40,0,0
142707,-200,4,2,8,50,0,0
153295,-200,4,2,66,50,0,0
153648,-200,4,2,8,50,0,0
153707,-200,4,2,0,5,0,0
153766,-200,4,2,0,50,0,0
153824,-200,4,2,0,5,0,0
153883,-200,4,2,0,50,0,0
153942,-200,4,2,0,5,0,0
154001,-100,4,2,1,70,0,1
158589,-200,4,2,1,70,0,1
160354,-133.333333333333,4,2,1,70,0,1
163177,-200,4,2,1,70,0,1
166001,-100,4,2,1,70,0,1
169883,-200,4,2,1,70,0,1
170236,-100,4,2,1,70,0,1
171648,-133.333333333333,4,2,1,70,0,1
175530,-83.3333333333333,4,2,1,70,0,1
176236,-66.6666666666667,4,2,1,70,0,0
176589,-76.9230769230769,4,2,1,70,0,1
178001,-83.3333333333333,4,2,1,70,0,1
178354,-166.666666666667,4,2,1,70,0,1
179413,-83.3333333333333,4,2,1,70,0,1
180471,-166.666666666667,4,2,1,70,0,1
181177,-166.666666666667,4,2,1,70,0,1
182236,-100,4,2,1,70,0,1
186824,-100,4,2,0,70,0,1
187177,-100,4,2,1,70,0,1
187530,-100,4,2,0,70,0,1
187883,-76.9230769230769,4,2,1,70,0,1
189295,-83.3333333333333,4,2,1,70,0,1
189648,-166.666666666667,4,2,1,70,0,1
190707,-83.3333333333333,4,2,1,70,0,1
191766,-166.666666666667,4,2,1,70,0,1
192471,-166.666666666667,4,2,1,70,0,1
193530,-100,4,2,1,70,0,1
198354,-66.6666666666667,4,2,1,70,0,1
198471,-100,4,2,1,70,0,1
199177,-200,4,2,0,50,0,0
201648,-133.333333333333,4,2,0,50,0,0
210471,-133.333333333333,4,2,3,50,0,0
221766,-200,4,2,0,50,0,0
222471,-133.333333333333,4,2,0,50,0,0
223177,-100,4,2,0,50,0,0
223883,-80,4,2,0,50,0,0
224589,-66.6666666666667,4,2,0,50,0,0
224942,-66.6666666666667,4,2,0,50,0,0
225295,-57.1428571428571,4,2,0,50,0,0
227413,-133.333333333333,4,2,0,50,0,1
228471,-133.333333333333,4,2,0,60,0,1
228824,-133.333333333333,4,2,0,50,0,1
229707,-133.333333333333,4,2,0,60,0,1
229883,-133.333333333333,4,2,0,70,0,1
230060,-133.333333333333,4,2,0,80,0,1
230236,-133.333333333333,4,2,0,60,0,1
230766,-90.9090909090909,4,2,0,50,0,1
231648,-133.333333333333,4,2,0,50,0,1
236589,-200,4,2,0,50,0,1
237295,-133.333333333333,4,2,0,50,0,1
240118,-200,4,2,0,50,0,1
250001,-133.333333333333,4,2,0,50,0,0
258824,-200,4,2,0,25,0,0
259883,-200,4,2,0,30,0,0
260236,-200,4,2,0,35,0,0
260589,-200,4,2,0,40,0,0
260942,-200,4,2,0,45,0,0
261295,-133.333333333333,4,2,0,50,0,0
269766,-133.333333333333,4,2,0,25,0,0
270118,-200,4,2,0,30,0,0
271177,-200,4,2,0,35,0,0
271530,-200,4,2,0,40,0,0
271883,-200,4,2,0,45,0,0
272118,-133.333333333333,4,2,0,50,0,0
272589,-300,4,2,99,40,0,0
272648,-300,4,2,99,5,0,0
275413,-300,4,2,99,40,0,0
275471,-300,4,2,99,5,0,0
277883,-300,4,2,99,40,0,0
278295,-300,4,2,99,5,0,0
281060,-300,4,2,99,40,0,0
281118,-300,4,2,99,5,0,0
283177,-300,4,2,99,40,0,0
283530,-300,4,2,99,20,0,0
283648,-300,4,2,99,40,0,0
283766,-300,4,2,99,20,0,0
283883,-250,4,2,99,40,0,0
283942,-250,4,2,99,5,0,0
286707,-250,4,2,99,40,0,0
286766,-250,4,2,99,5,0,0
288824,-250,4,2,99,40,0,0
289589,-250,4,2,99,5,0,0
292354,-1000,4,2,99,40,0,0
292413,-1000,4,2,99,5,0,0
295177,-142.857142857143,4,2,0,40,0,0
298001,-142.857142857143,4,2,0,35,0,0
300824,-166.666666666667,4,2,0,30,0,0
303648,-200,4,2,0,23,0,0
309295,-200,4,2,0,15,0,0

[Colours]
Combo1 : 204,255,255
Combo2 : 167,167,167
Combo3 : 100,100,100
Combo4 : 250,173,88
Combo5 : 248,114,24
Combo6 : 215,0,0
Combo7 : 241,80,80
Combo8 : 230,230,230
SliderTrackOverride : 40,40,40
SliderBorder : 250,250,250

[HitObjects]
54,304,119,6,0,B|94:260|176:252|176:252|65:198|60:76|60:76|101:75|132:48|132:48|136:188|272:192|272:192|292:100|352:64|352:64|356:212|476:244|476:244|457:275|466:310,1,1117.14285714286
256,192,8589,12,0,11060,0:0:0:0:
305,254,11413,6,0,P|331:249|344:241,2,28.3333333333333,4|0|0,0:3|0:0|0:0,0:0:0:0:
211,237,11766,2,0,P|185:242|172:250,2,28.3333333333333
176,334,12118,2,0,L|186:372,2,28.3333333333333
274,181,12471,2,0,L|264:143,2,28.3333333333333
103,281,12824,102,0,L|95:308,2,28.3333333333333
256,304,13177,2,0,P|280:308|308:304,2,28.3333333333333
104,192,13530,2,0,P|89:192|76:196,2,28.3333333333333
256,80,13883,2,0,P|270:80|283:84,2,28.3333333333333
408,192,14236,6,0,L|412:240,2,28.3333333333333
328,284,14589,2,0,L|324:332,2,28.3333333333333
256,164,14942,2,0,L|253:192,2,28.3333333333333
171,256,15295,2,0,L|173:284,2,28.3333333333333
310,352,15648,102,0,P|335:354|356:349,2,28.3333333333333
416,138,16001,2,0,P|418:113|413:92,2,28.3333333333333
202,32,16354,2,0,P|177:30|156:35,2,28.3333333333333
96,246,16707,2,0,P|94:271|99:292,2,28.3333333333333
361,272,17060,5,0,0:0:0:0:
361,272,17177,2,0,L|375:235,1,33.9999989624024
313,139,17413,1,0,0:0:0:0:
313,139,17530,2,0,L|338:169,1,33.9999989624024
451,166,17766,1,0,0:0:0:0:
451,166,17883,2,0,L|411:172,1,33.9999989624024
301,298,18118,1,0,0:0:0:0:
301,298,18236,2,0,L|340:291,1,33.9999989624024
147,265,18471,102,0,P|145:292|147:307,2,33.9999989624024
72,220,18824,2,0,P|80:205|91:192,2,33.9999989624024
79,100,19177,2,0,P|54:111|42:121,2,33.9999989624024
145,298,19530,2,0,P|144:281|147:265,2,33.9999989624024
367,298,19883,5,0,0:0:0:0:
365,265,20001,2,0,L|361:205,1,33.9999989624024
466,182,20236,1,0,0:0:0:0:
464,215,20354,2,0,L|460:274,1,33.9999989624024
289,252,20589,1,0,0:0:0:0:
287,219,20707,2,0,L|283:159,1,33.9999989624024
396,72,20942,1,0,0:0:0:0:
394,105,21060,2,0,L|390:164,1,33.9999989624024
267,33,21295,101,0,0:0:0:0:
281,62,21413,2,0,L|307:115,1,33.9999989624024
137,57,21648,1,0,0:0:0:0:
163,75,21766,2,0,L|212:107,1,33.9999989624024
68,168,22001,6,0,P|64:187|67:213,2,33.9999989624024
184,268,22354,2,0,P|184:284|180:301,2,33.9999989624024
452,240,22707,101,4,0:3:0:0:
452,240,22824,2,0,P|456:264|456:292,1,33.9999989624024
352,312,23060,1,0,2:0:0:0:
352,312,23177,2,0,P|329:303|304:289,1,33.9999989624024,0|0,2:0|2:0,2:0:0:0:
339,189,23413,1,0,2:0:0:0:
339,189,23530,2,0,P|357:173|382:159,1,33.9999989624024,0|0,2:0|2:0,2:0:0:0:
456,273,23766,2,0,P|455:256|452:240,2,33.9999989624024
235,116,24118,6,0,L|188:124,2,33.9999989624024
78,148,24471,2,0,L|108:184,2,33.9999989624024
184,268,24824,2,0,L|200:223,2,33.9999989624024
261,45,25177,2,0,L|214:53,2,33.9999989624024
367,86,25530,101,0,0:0:0:0:
365,119,25648,2,0,L|361:179,1,33.9999989624024
466,202,25883,1,0,0:0:0:0:
464,169,26001,2,0,L|460:110,1,33.9999989624024
289,132,26236,1,0,0:0:0:0:
287,165,26354,2,0,L|283:225,1,33.9999989624024
396,312,26589,1,0,0:0:0:0:
394,279,26707,2,0,L|390:220,1,33.9999989624024
267,351,26942,5,0,0:0:0:0:
281,322,27060,2,0,L|307:269,1,33.9999989624024
137,327,27295,1,0,0:0:0:0:
163,309,27413,2,0,L|212:277,1,33.9999989624024
68,216,27648,102,0,P|64:197|67:171,2,33.9999989624024
168,72,28001,2,0,P|172:91|169:117,2,33.9999989624024
392,48,28354,6,0,P|412:72|420:88,2,33.9999989624024
432,152,28707,2,0,P|429:183|423:200,2,33.9999989624024
386,253,29060,2,0,P|362:273|346:281,2,33.9999989624024
282,291,29413,2,0,P|250:288|233:282,2,33.9999989624024
440,344,29766,102,0,P|460:320|468:304,2,33.9999989624024
480,240,30119,2,0,P|477:208|471:191,2,33.9999989624024
434,139,30472,2,0,P|410:119|394:111,2,33.9999989624024
330,101,30825,2,0,P|298:103|281:109,2,33.9999989624024
182,308,31177,5,0,0:0:0:0:
182,308,31295,2,0,P|159:313|141:313,1,33.9999989624024
136,148,31530,1,0,0:0:0:0:
136,148,31648,2,0,P|130:125|130:107,1,33.9999989624024
296,103,31883,1,0,0:0:0:0:
296,103,32001,2,0,P|318:97|336:97,1,33.9999989624024
341,262,32236,1,0,0:0:0:0:
341,262,32354,2,0,P|346:284|346:302,1,33.9999989624024
146,293,32589,101,0,0:0:0:0:
146,293,32707,2,0,P|120:293|101:287,1,33.9999989624024
143,110,32942,1,0,0:0:0:0:
143,110,33060,2,0,P|143:84|149:65,1,33.9999989624024
359,110,33295,5,0,0:0:0:0:
359,109,33413,2,0,P|342:107|325:107,1,33.9999989624024
326,323,33648,1,0,0:0:0:0:
326,323,33766,2,0,P|329:306|328:289,1,33.9999989624024
127,326,34001,102,0,P|88:324|48:340,1,70.8333333333333,2|0,0:0|0:0,0:0:0:0:
68,320,34354,2,0,P|84:288|88:236,1,77.9166690444947,2|0,0:0|0:0,0:0:0:0:
64,173,34707,2,0,P|65:129|85:77,1,84.9999974060059,2|0,0:0|0:0,0:0:0:0:
89,74,35060,2,0,B|133:18|133:18|148:46,1,92.0833291180931,2|0,0:0|0:0,0:0:0:0:
234,101,35413,6,0,P|276:96|333:121,1,99.1666636403403,2|0,0:0|0:0,0:0:0:0:
340,133,35766,2,0,L|332:245,1,106.250004053116,2|0,0:0|0:0,0:0:0:0:
392,292,36118,2,0,P|436:311|504:302,1,113.333333333333,2|0,0:0|0:0,0:0:0:0:
512,289,36471,2,0,L|505:166,1,120.416668963432,2|0,0:0|0:0,0:0:0:0:
340,133,36824,102,0,L|328:273,1,127.499996109009,2|0,0:0|0:0,0:0:0:0:
184,288,37177,2,0,L|319:273,1,134.583329739571,2|0,0:0|0:0,0:0:0:0:
213,363,37530,2,0,P|146:361|102:297,1,141.666666666667,2|0,0:0|0:0,0:0:0:0:
172,133,37883,2,0,L|186:302,1,155.833338088989,2|0,0:0|0:0,0:0:0:0:
280,332,38236,5,4,3:0:0:0:
350,230,38471,1,4,3:0:0:0:
213,363,38707,101,4,3:0:0:0:
415,195,38942,1,8,3:0:0:0:
138,348,39177,5,8,3:0:0:0:
487,215,39413,1,12,3:0:0:0:
34,122,39648,38,0,B|70:83|81:26|81:26|115:73|175:94,1,212.500008106232,14|0,1:0|0:0,0:0:0:0:
121,207,40354,2,0,L|113:166,2,42.5000016212464,2|2|2,1:2|1:2|1:2,1:2:0:0:
321,203,40707,2,0,L|312:244,2,42.5000016212464,2|2|2,1:2|1:2|1:2,1:2:0:0:
143,320,41060,6,0,B|34:310|34:310|87:291,1,141.666666666667,10|0,1:0|0:0,0:0:0:0:
384,235,41766,2,0,B|493:225|493:225|440:206,1,141.666666666667,10|0,1:0|0:0,0:0:0:0:
67,60,42471,102,0,B|52:97|52:97|61:131|61:131|41:171|67:216,1,141.666666666667,14|0,1:0|0:0,0:0:0:0:
120,276,43177,2,2,L|127:228,1,28.3333333333333,10|2,1:2|1:2,1:2:0:0:
137,170,43413,1,2,1:2:0:0:
209,226,43530,1,2,1:2:0:0:
202,269,43648,1,2,1:2:0:0:
195,311,43766,1,2,1:2:0:0:
350,279,43883,6,0,B|396:275|432:287|450:307|450:307|430:298|408:300,1,141.666666666667,10|0,1:0|0:0,0:0:0:0:
164,90,44589,2,0,B|117:86|81:98|63:118|63:118|83:109|105:111,1,141.666666666667,10|0,1:0|0:0,0:0:0:0:
451,203,45295,102,0,B|458:171|458:171|474:148|474:148|464:119|464:119|472:77|449:41,1,170.000006484986,14|0,1:0|0:0,0:0:0:0:
379,100,45824,1,4,3:0:0:0:
366,111,45883,1,4,3:0:0:0:
358,126,45942,1,8,3:0:0:0:
354,142,46001,2,0,L|363:224,1,42.5000016212464,8|4,3:1|3:0,3:0:0:0:
290,297,46236,2,4,L|281:215,1,42.5000016212464,4|4,3:0|3:0,3:0:0:0:
179,193,46471,2,4,L|185:244,1,42.5000016212464,4|4,3:0|3:0,3:0:0:0:
58,347,46707,6,0,B|19:308|19:308|30:215,1,141.666666666667,10|0,1:0|0:0,0:0:0:0:
129,15,47413,2,0,L|112:163,1,141.666666666667,10|0,1:0|0:0,0:0:0:0:
323,230,48118,102,0,P|341:220|354:203,1,42.5000016212464,8|0,1:0|0:0,0:0:0:0:
283,165,48353,2,0,P|265:175|252:192,1,42.5000016212464,0|0,1:0|0:0,0:0:0:0:
343,305,48589,2,0,P|363:299|380:286,1,42.5000016212464,0|0,1:0|0:0,0:0:0:0:
370,97,48824,2,2,L|362:150,1,28.3333333333333,10|2,1:2|1:2,1:2:0:0:
354,203,49060,1,2,1:2:0:0:
444,166,49177,1,2,1:2:0:0:
451,123,49295,1,2,1:2:0:0:
458,81,49413,1,2,1:2:0:0:
264,111,49530,6,0,L|163:123,1,85.0000032424928,8|0,1:0|1:0,0:0:0:0:
61,328,50001,1,4,3:0:0:0:
59,311,50060,1,4,3:0:0:0:
57,294,50118,1,4,3:0:0:0:
55,276,50177,1,4,3:0:0:0:
52,256,50236,2,0,L|181:240,1,127.500004863739,8|0,1:0|1:0,0:0:0:0:
401,183,50942,102,0,B|409:210|409:210|353:325|353:325|334:271,1,212.500008106232,14|0,1:0|0:0,0:0:0:0:
348,114,51648,2,0,P|386:95|429:100,1,85.0000032424928,8|0,1:0|0:0,0:0:0:0:
239,322,52001,2,0,P|197:325|159:307,1,85.0000032424928
15,73,52354,6,0,B|67:54|67:54|131:64,1,113.333333333333,10|0,1:0|0:0,0:0:0:0:
217,195,52942,1,0,0:0:0:0:
217,195,53060,2,0,B|165:214|165:214|99:202|99:202|127:186,1,141.666666666667,10|0,1:0|0:0,0:0:0:0:
388,62,53766,102,0,B|396:95|396:95|385:123|385:123|396:154|396:154|383:210,1,141.666666666667,14|0,1:0|0:0,0:0:0:0:
462,259,54471,2,0,L|482:176,1,85.0000032424928,8|0,1:0|0:0,0:0:0:0:
365,276,54824,2,0,L|344:358,1,85.0000032424928
50,259,55177,6,0,P|19:212|30:150,1,113.333333333333,10|0,1:0|0:0,0:0:0:0:
147,276,55766,1,0,0:0:0:0:
147,276,55883,2,0,B|183:315|170:374|170:374|168:348|154:329,1,141.666666666667,10|0,1:0|0:0,0:0:0:0:
73,57,56589,102,0,B|108:67|108:67|143:46|178:43|178:43|215:52,1,141.666666666667,14|0,1:0|0:0,0:0:0:0:
255,146,57295,2,0,P|291:124|320:92,1,85.0000032424928,8|0,1:0|0:0,0:0:0:0:
172,129,57648,2,0,P|135:150|107:183,1,85.0000032424928
356,333,58001,6,0,L|472:357,1,113.333333333333,10|0,1:0|0:0,0:0:0:0:
396,251,58589,1,0,0:0:0:0:
396,251,58707,2,0,B|308:232|308:232|241:246,1,141.666666666667,10|0,1:0|0:0,0:0:0:0:
45,355,59413,102,0,L|186:326,1,141.666666666667,14|0,1:0|0:0,0:0:0:0:
183,238,60118,2,0,L|128:250,1,56.6666666666667,8|0,1:0|0:0,0:0:0:0:
41,149,60471,5,8,3:0:0:0:
44,199,60588,1,8,3:0:0:0:
77,238,60706,1,8,3:0:0:0:
127,250,60823,101,4,3:0:0:0:
169,66,61177,1,8,3:0:0:0:
344,140,61530,2,0,P|373:138|397:119,1,56.6666666666667,12|0,3:1|0:1,3:1:0:0:
256,260,61883,1,4,3:0:0:0:
344,140,62060,5,2,0:0:0:0:
345,128,62118,1,2,0:0:0:0:
346,116,62177,1,2,0:0:0:0:
348,105,62236,69,4,3:0:0:0:
104,92,62589,1,0,0:0:0:0:
173,245,62824,1,4,3:0:0:0:
173,245,62942,2,0,L|294:200,2,127.500004863739,8|0|0,1:0|0:0|0:0,0:0:0:0:
439,151,64001,1,4,3:0:0:0:
256,320,64354,1,8,1:0:0:0:
73,151,64707,1,0,0:0:0:0:
78,343,65060,6,0,P|130:286|113:225,1,127.500004863739,4|0,3:0|0:0,0:0:0:0:
51,85,65648,1,0,0:0:0:0:
51,85,65766,2,0,P|3:137|18:193,2,127.500004863739,8|0|0,1:0|0:0|0:0,0:0:0:0:
209,38,66707,102,0,L|202:106,1,42.5000016212464,4|0,3:0|3:0,3:0:0:0:
279,139,66942,2,0,L|283:96,1,42.5000016212464,4|0,3:0|3:0,3:0:0:0:
213,225,67177,2,0,L|201:352,1,127.500004863739,8|0,1:0|0:0,0:0:0:0:
88,84,67883,6,0,L|100:211,1,127.500004863739,4|0,3:0|0:0,0:0:0:0:
412,211,68471,1,4,3:0:0:0:
412,211,68589,2,0,L|424:84,1,127.500004863739,8|0,1:0|0:0,0:0:0:0:
180,23,69295,101,0,0:0:0:0:
332,23,69648,1,4,3:0:0:0:
256,224,70001,1,8,1:0:0:0:
89,84,70354,1,0,0:0:0:0:
360,144,70707,5,4,3:0:0:0:
256,192,71060,2,0,L|168:184,2,85
352,264,72118,101,4,3:0:0:0:
458,188,72471,1,4,3:0:0:0:
377,347,72824,5,8,1:0:0:0:
431,99,73177,1,4,3:0:0:0:
194,318,73530,102,0,B|130:329|130:329|52:299,1,127.500004863739,4|0,3:0|0:0,0:0:0:0:
309,239,74118,1,4,3:0:0:0:
309,239,74236,2,0,B|373:228|373:228|451:258,1,127.500004863739,8|0,1:0|0:0,0:0:0:0:
227,169,74942,5,0,0:0:0:0:
130,203,75295,1,4,3:0:0:0:
256,20,75648,1,8,1:0:0:0:
353,54,76001,1,0,0:0:0:0:
146,223,76354,102,0,B|139:263|139:263|168:297|170:351,1,127.500004863739,4|0,3:0|0:0,0:0:0:0:
45,238,76942,1,0,0:0:0:0:
45,238,77060,2,0,B|51:197|51:197|22:162|20:109,1,127.500004863739,8|0,1:0|0:0,0:0:0:0:
485,76,77766,6,0,L|494:130,1,42.5000016212464,4|0,3:0|0:0,0:0:0:0:
467,238,78001,2,0,L|458:184,1,42.5000016212464,4|0,3:0|0:0,0:0:0:0:
405,22,78236,2,0,L|398:63,1,42.5000016212464,4|0,3:0|0:0,0:0:0:0:
366,223,78471,102,0,B|372:263|372:263|343:298|341:351,1,127.500004863739,8|0,1:0|0:0,0:0:0:0:
100,58,79177,6,0,P|174:53|216:92,1,127.500004863739,4|0,3:0|0:0,0:0:0:0:
110,298,79766,1,4,3:0:0:0:
110,298,79883,2,0,P|78:241|109:170,1,127.500004863739,8|0,1:0|0:0,0:0:0:0:
212,85,80589,101,0,0:0:0:0:
388,161,80942,1,4,0:3:0:0:
169,230,81295,1,8,1:0:0:0:
345,306,81648,1,0,0:0:0:0:
418,277,82001,5,0,0:0:0:0:
418,277,82354,2,0,P|422:318|402:360,2,85
214,167,83413,101,4,3:0:0:0:
122,252,83766,1,0,0:0:0:0:
345,306,84118,1,8,1:0:0:0:
322,108,84354,6,0,L|369:117,1,42.5000016212464,4|0,3:0|0:0,0:0:0:0:
441,209,84589,2,0,L|399:216,1,42.5000016212464,4|0,3:0|0:0,0:0:0:0:
143,290,84824,70,0,B|162:299|187:297|187:297|227:348|227:348|281:317|281:317|308:330|335:331|335:331|295:268|343:202|407:217,1,396.666666666667,4|0,3:0|2:0,0:0:0:0:
153,98,87648,2,0,B|139:150|144:214|144:214|100:228|100:228|57:271|57:271|49:197|53:145|53:145|38:164|8:172,1,396.666666666667,2|8,0:3|0:3,0:0:0:0:
224,235,90471,6,0,B|209:170|224:124|224:124|281:128|325:173|325:173|325:226|348:280|348:280|375:260|407:260,1,396.666666666667,6|0,0:3|0:0,0:0:0:0:
406,346,93295,2,0,B|465:338|512:360|512:360|509:282|475:249|475:249|457:189|475:139,1,340,2|0,0:3|3:0,0:0:0:0:
266,113,95648,102,0,L|249:106,1,18.8888888888889,8|0,0:3|0:0,0:0:0:0:
96,149,95883,2,0,L|78:141,1,18.8888888888889,4|0,0:3|0:0,0:0:0:0:
304,51,96118,6,0,B|238:27|238:27|181:66|181:66|113:59|59:106|59:106|128:143|128:143|115:164|112:199|112:199|110:168|77:140,1,476,6|0,0:3|0:0,0:0:0:0:
34,213,98942,2,0,B|16:285|85:332|85:332|131:283|202:281|202:281|235:346|317:349,1,408,2|0,0:3|3:0,0:0:0:0:
463,170,101413,1,4,0:3:0:0:
289,266,101766,102,0,B|358:295|419:255|419:255|368:229|357:171|374:137|374:137|294:145|254:112|254:112|302:98|308:55,1,476,6|0,0:3|0:0,0:0:0:0:
167,74,104589,6,0,P|205:108|255:112,1,102,2|0,0:0|3:0,0:0:0:0:
234,14,106942,102,0,L|239:40,1,22.6666666666667,8|0,0:3|0:0,0:0:0:0:
370,159,107177,2,0,L|373:136,1,22.6666666666667,4|0,0:3|0:0,0:0:0:0:
254,112,107413,5,4,0:0:0:0:
310,124,108824,38,0,B|340:104|408:117|380:141|439:166|501:123,1,170.000006484986,14|0,1:0|0:0,0:0:0:0:
438,66,109354,1,4,3:0:0:0:
423,56,109412,1,4,3:0:0:0:
408,49,109471,1,4,3:0:0:0:
392,43,109530,2,4,P|356:37|334:42,2,42.5000016212464,8|4|4,1:0|3:0|3:0,3:0:0:0:
343,200,109883,6,0,P|234:166|233:88,1,170.000006484986,10|0,1:0|0:0,0:0:0:0:
310,124,110413,1,4,3:0:0:0:
325,118,110471,1,4,3:0:0:0:
342,115,110530,1,4,3:0:0:0:
359,117,110589,2,4,P|387:128|402:141,2,42.5000016212464,8|4|4,1:0|3:0|3:0,3:0:0:0:
400,257,110942,2,0,B|334:301|253:278|253:278|266:309|257:338,1,212.500008106232,10|0,1:0|0:0,0:0:0:0:
36,263,111648,102,0,B|94:246|148:266|148:266|157:298|185:318,1,169.999994812012,14|0,1:0|0:0,0:0:0:0:
295,349,112354,1,2,1:2:0:0:
345,338,112472,1,2,1:2:0:0:
393,328,112589,1,2,1:2:0:0:
447,315,112707,1,2,1:2:0:0:
393,304,112824,1,2,1:2:0:0:
338,293,112942,1,2,1:2:0:0:
223,250,113060,6,0,P|184:195|216:130,1,141.666666666667,10|0,1:0|0:0,0:0:0:0:
373,81,113766,2,0,B|472:110|472:110|457:93|454:76,1,141.666666666667,10|0,1:0|0:0,0:0:0:0:
353,306,114471,102,0,P|297:304|256:268,1,113.333333333333,10|0,1:0|0:0,0:0:0:0:
192,316,115001,1,4,3:0:0:0:
186,326,115060,1,4,3:0:0:0:
181,335,115118,1,4,3:0:0:0:
175,345,115177,2,4,L|127:333,1,42.5000016212464,4|4,3:0|3:0,3:0:0:0:
84,264,115413,1,0,0:0:0:0:
332,227,115530,6,0,B|376:222|376:222|403:235|403:235|450:230,1,113.333333333333,10|0,1:0|0:0,0:0:0:0:
356,144,116060,1,4,3:0:0:0:
344,145,116119,1,4,3:0:0:0:
334,146,116177,1,4,3:0:0:0:
322,147,116236,2,0,L|268:135,1,42.5000016212464,8|4,1:0|3:0,0:0:0:0:
167,108,116471,1,4,3:0:0:0:
42,218,116589,2,0,L|53:369,1,141.666666666667,10|0,1:0|0:0,0:0:0:0:
470,166,117295,102,0,L|459:15,1,141.666666666667,14|0,1:0|0:0,0:0:0:0:
392,139,118001,2,2,L|387:188,1,28.3333333333333,10|2,1:2|1:2,1:2:0:0:
379,246,118237,1,2,1:2:0:0:
466,192,118354,1,2,1:2:0:0:
460,236,118472,1,2,1:2:0:0:
455,278,118590,1,2,1:2:0:0:
325,349,118707,6,0,B|227:309|227:309|250:308|263:299,1,141.666666666667,10|0,1:0|0:0,0:0:0:0:
474,137,119413,2,0,L|453:291,1,141.666666666667,10|0,1:0|0:0,0:0:0:0:
172,360,120118,102,0,P|153:326|154:295,1,70.8333333333333,10|0,1:0|0:0,0:0:0:0:
227,309,120471,1,2,1:2:0:0:
172,220,120589,1,2,1:2:0:0:
187,116,120707,1,2,1:2:0:0:
304,168,120824,2,0,P|273:170|247:185,1,56.6666666666667,10|4,1:0|3:0,0:0:0:0:
251,193,121118,1,4,3:0:0:0:
251,204,121177,6,0,B|274:306|274:306|285:262,1,141.666666666667,10|0,1:0|0:0,0:0:0:0:
377,228,121883,1,2,1:2:0:0:
371,330,122001,1,2,1:2:0:0:
282,270,122118,1,2,1:2:0:0:
396,220,122236,2,0,P|442:221|456:311,1,141.666666666667,10|0,1:0|0:0,0:0:0:0:
258,356,122942,102,0,B|218:364|177:349|177:349|143:361|143:361|100:340|50:347,1,212.500008106232,14|0,1:0|0:0,0:0:0:0:
4,258,123648,1,2,1:2:0:0:
51,248,123766,1,2,1:2:0:0:
96,238,123884,1,2,1:2:0:0:
193,276,124001,2,0,P|211:282|267:282,2,42.5000016212464,2|2|2,1:2|1:2|1:2,0:0:0:0:
81,130,124354,6,0,B|89:71|132:29|132:29|135:48|150:67,1,141.666666666667,10|0,1:0|0:0,0:0:0:0:
340,278,125060,2,0,B|332:337|289:379|289:379|286:360|271:341,1,141.666666666667,10|0,1:0|0:0,0:0:0:0:
12,206,125766,102,0,L|83:211,1,70.8333333333333,10|0,1:0|0:0,0:0:0:0:
93,220,126118,1,2,1:2:0:0:
192,166,126236,1,2,1:2:0:0:
228,301,126354,1,2,1:2:0:0:
379,246,126471,2,0,L|316:241,1,56.6666666666667,10|4,1:0|3:0,0:0:0:0:
311,232,126766,1,4,3:0:0:0:
301,222,126824,6,0,L|452:231,1,141.666666666667,10|0,1:0|0:0,0:0:0:0:
456,140,127530,1,2,1:2:0:0:
388,75,127647,1,2,1:2:0:0:
300,90,127765,1,2,1:2:0:0:
192,166,127883,2,0,B|262:148|262:148|300:88,1,141.666666666667,10|0,1:0|0:0,0:0:0:0:
366,122,128589,102,0,B|311:211|311:211|194:242,1,212.500008106232,14|0,1:0|0:0,0:0:0:0:
101,192,129295,1,2,1:2:0:0:
147,179,129413,1,2,1:2:0:0:
191,166,129531,1,2,1:2:0:0:
256,88,129648,2,0,P|252:56|229:17,2,42.5000016212464,2|2|2,1:2|1:2|1:2,0:0:0:0:
101,192,130001,6,0,B|83:198|60:216|60:216|97:169|100:126,1,141.666666666667,10|0,1:0|0:0,0:0:0:0:
411,192,130707,2,0,B|429:198|452:216|452:216|415:169|412:126,1,141.666666666667,10|0,1:0|0:0,0:0:0:0:
256,316,131413,37,4,1:3:0:0:
256,316,132824,6,0,L|296:324,1,28.3333333333333,2|0,0:0|0:0,0:0:0:0:
403,293,133177,1,2,0:0:0:0:
430,286,133530,102,0,L|394:294,1,28.3333333333333,2|0,0:0|0:0,0:0:0:0:
283,321,133883,1,2,0:0:0:0:
341,54,134236,5,4,0:3:0:0:
452,150,135648,102,0,L|460:110,1,28.3333333333333,2|0,0:0|0:0,0:0:0:0:
341,54,136001,1,2,0:0:0:0:
334,26,136354,6,0,L|342:62,1,28.3333333333333,2|0,0:0|0:0,0:0:0:0:
457,123,136707,1,2,0:0:0:0:
452,150,137060,101,4,0:3:0:0:
447,177,139883,1,4,0:3:0:0:
274,98,142354,6,0,L|211:108,1,56.6666666666667
171,54,142707,102,0,P|152:75|150:87,1,28.3333333333333,6|2,0:0|0:0,0:0:0:0:
100,271,143060,1,2,0:0:0:0:
118,291,143413,6,0,P|99:270|97:258,1,28.3333333333333,2|2,0:0|0:0,0:0:0:0:
171,54,143766,1,2,0:0:0:0:
362,94,144118,102,0,P|333:95|323:102,1,28.3333333333333,6|2,0:0|0:0,0:0:0:0:
158,197,144471,1,2,0:0:0:0:
156,224,144824,6,0,P|157:195|164:185,1,28.3333333333333,2|2,0:0|0:0,0:0:0:0:
362,94,145177,1,2,0:0:0:0:
470,264,145530,102,0,P|449:245|436:243,1,28.3333333333333,6|2,0:0|0:0,0:0:0:0:
252,192,145883,1,2,0:0:0:0:
232,210,146236,6,0,P|253:191|265:188,1,28.3333333333333,2|2,0:0|0:0,0:0:0:0:
470,264,146589,1,2,0:0:0:0:
302,375,146942,102,0,P|320:354|323:341,1,28.3333333333333,6|2,0:0|0:0,0:0:0:0:
374,157,147295,1,2,0:0:0:0:
356,137,147648,6,0,P|375:158|377:170,1,28.3333333333333,2|2,0:0|0:0,0:0:0:0:
302,375,148001,1,2,0:0:0:0:
106,332,148354,102,0,P|134:330|144:323,1,28.3333333333333,6|2,0:0|0:0,0:0:0:0:
311,228,148707,1,2,0:0:0:0:
312,201,149060,6,0,P|310:229|303:239,1,28.3333333333333,2|2,0:0|0:0,0:0:0:0:
106,332,149413,1,2,0:0:0:0:
78,327,149766,102,0,P|105:332|117:328,1,28.3333333333333,6|2,0:0|0:0,0:0:0:0:
302,279,150119,1,2,0:0:0:0:
312,253,150472,6,0,P|302:279|293:287,1,28.3333333333333,2|2,0:0|0:0,0:0:0:0:
78,327,150825,1,2,0:0:0:0:
163,70,151177,102,0,P|140:94|138:109,1,28.3333333333333,6|2,0:0|0:0,0:0:0:0:
78,327,151530,1,2,0:0:0:0:
98,345,151883,6,0,P|75:320|73:305,1,28.3333333333333,2|2,0:0|0:0,0:0:0:0:
163,70,152236,1,2,0:0:0:0:
256,192,152354,12,0,153295,0:0:0:0:
368,176,153648,102,0,L|381:181,1,14.1666666666667,8|0,0:3|0:0,0:0:0:0:
355,188,153766,2,0,L|368:193,1,14.1666666666667,8|0,0:3|0:0,0:0:0:0:
342,200,153883,2,0,L|355:205,1,14.1666666666667,8|0,0:3|0:0,0:0:0:0:
303,79,154001,86,0,P|297:52|294:24,1,56.6666666666667,4|0,0:3|0:0,0:0:0:0:
256,208,154237,1,0,0:0:0:0:
207,112,154354,2,0,P|215:84|218:56,1,56.6666666666667
256,224,154590,1,0,0:0:0:0:
327,97,154707,2,0,P|315:70|307:43,1,56.6666666666667,8|0,0:0|0:0,0:0:0:0:
256,240,154943,1,0,0:0:0:0:
184,127,155060,2,0,P|196:101|204:74,1,56.6666666666667
256,256,155295,1,0,0:0:0:0:
440,234,155413,5,2,0:0:0:0:
466,242,155530,1,2,0:0:0:0:
493,250,155648,1,2,0:0:0:0:
463,104,155766,2,0,P|456:73|453:48,2,56.6666666666667,4|0|0,0:3|0:0|0:0,0:0:0:0:
427,245,156118,101,10,0:0:0:0:
453,253,156235,1,2,0:0:0:0:
480,261,156353,1,2,0:0:0:0:
449,114,156471,2,0,P|442:83|439:58,2,56.6666666666667
304,272,156824,6,0,P|297:299|294:327,1,56.6666666666667,4|0,0:3|0:0,0:0:0:0:
256,176,157060,1,0,0:0:0:0:
208,304,157177,2,0,P|215:335|218:360,1,56.6666666666667
256,160,157413,1,0,0:0:0:0:
327,256,157530,2,0,P|315:282|307:309,1,56.6666666666667,8|0,0:0|0:0,0:0:0:0:
256,144,157766,1,0,0:0:0:0:
185,287,157883,2,0,P|196:313|204:340,1,56.6666666666667
256,128,158118,1,0,0:0:0:0:
452,139,158236,101,2,0:0:0:0:
481,229,158354,2,0,B|486:250|486:250|473:328,1,56.6666666666667,2|0,0:0|0:0,0:0:0:0:
400,335,158589,38,0,B|395:314|395:314|408:236,1,56.6666666666667,4|0,0:3|0:0,0:0:0:0:
173,355,158942,85,8,0:0:0:0:
118,347,159060,1,0,0:0:0:0:
63,339,159177,1,0,0:0:0:0:
8,329,159295,1,0,0:0:0:0:
48,321,159413,1,0,0:0:0:0:
87,313,159530,1,0,0:0:0:0:
158,277,159648,101,4,0:3:0:0:
162,266,159766,1,0,0:0:0:0:
166,255,159883,1,0,0:0:0:0:
170,244,160001,1,0,0:0:0:0:
174,233,160118,1,0,0:0:0:0:
178,222,160236,1,0,0:0:0:0:
187,189,160354,6,0,L|183:130,2,42.5000016212464,8|0|0,0:0|0:0|0:0,0:0:0:0:
51,216,160707,2,0,L|47:278,1,42.5000016212464
238,332,160942,1,0,0:0:0:0:
238,332,161060,2,0,L|235:289,2,42.5000016212464
72,234,161413,102,0,L|70:277,2,42.5000016212464,4|0|0,0:3|0:0|0:0,0:0:0:0:
263,167,161766,2,0,L|266:210,2,42.5000016212464,8|0|0,0:0|0:0|0:0,0:0:0:0:
383,328,162118,2,0,L|381:371,2,42.5000016212464
486,162,162471,5,4,0:3:0:0:
454,150,162588,1,0,0:0:0:0:
420,151,162706,1,0,0:0:0:0:
389,165,162823,1,0,0:0:0:0:
365,189,162941,1,0,0:0:0:0:
352,220,163059,1,0,0:0:0:0:
383,329,163177,102,0,P|381:343|377:357,2,28.3333333333333,8|0|0,0:0|0:0|0:0,0:0:0:0:
447,262,163530,2,0,P|445:248|440:235,2,28.3333333333333
250,38,163883,6,0,P|244:54|243:68,2,28.3333333333333
186,159,164236,2,0,P|181:146|180:132,2,28.3333333333333,4|0|0,0:3|0:0|0:0,0:0:0:0:
332,132,164589,101,8,0:0:0:0:
336,120,164707,1,0,0:0:0:0:
346,119,164824,1,0,0:0:0:0:
353,127,164942,1,0,0:0:0:0:
349,138,165060,1,0,0:0:0:0:
338,139,165177,1,0,0:0:0:0:
243,65,165295,5,4,0:3:0:0:
201,47,165412,1,0,0:0:0:0:
156,47,165530,1,0,0:0:0:0:
116,67,165647,1,0,0:0:0:0:
87,101,165765,1,0,0:0:0:0:
75,145,165883,1,0,0:0:0:0:
76,239,166001,102,0,P|79:267|86:295,1,56.6666666666667,8|0,0:0|0:0,0:0:0:0:
190,307,166236,1,0,0:0:0:0:
190,307,166354,2,0,P|197:338|200:363,2,56.6666666666667
399,278,166707,5,2,0:0:0:0:
425,270,166824,1,2,0:0:0:0:
452,262,166942,1,2,0:0:0:0:
322,307,167060,2,0,P|315:338|312:363,2,56.6666666666667,4|0|0,0:3|0:0|0:0,0:0:0:0:
411,245,167413,101,10,0:0:0:0:
437,237,167530,1,2,0:0:0:0:
464,229,167648,1,2,0:0:0:0:
302,280,167766,2,0,P|295:311|292:336,2,56.6666666666667
384,18,168118,6,0,L|341:72,1,56.6666666666667,4|0,0:3|0:0,0:0:0:0:
241,192,168354,1,0,0:0:0:0:
241,192,168471,2,0,L|309:200,1,56.6666666666667
464,229,168707,1,0,0:0:0:0:
464,229,168824,2,0,L|438:163,1,56.6666666666667,8|0,0:0|0:0,0:0:0:0:
384,18,169060,101,0,0:0:0:0:
384,18,169177,2,0,L|348:62,2,56.6666666666667
241,192,169530,5,2,0:0:0:0:
360,284,169648,2,0,L|357:227,1,56.6666666666667,2|0,0:0|0:0,0:0:0:0:
453,256,169883,22,0,L|455:312,1,56.6666666666667,4|0,0:3|0:0,0:0:0:0:
309,135,170236,70,0,L|307:79,2,56.6666666666667,8|0|0,0:0|0:0|0:0,0:0:0:0:
171,239,170589,2,0,L|169:296,2,56.6666666666667
214,365,170942,5,4,0:3:0:0:
229,357,171059,1,0,0:0:0:0:
241,346,171177,1,0,0:0:0:0:
251,331,171294,1,0,0:0:0:0:
256,315,171412,1,0,0:0:0:0:
257,298,171530,1,0,0:0:0:0:
255,268,171648,102,0,P|251:247|252:215,2,42.5000016212464,8|0|0,0:0|0:0|0:0,0:0:0:0:
403,225,172001,2,0,P|402:246|399:267,1,42.5000016212464
305,154,172236,1,0,0:0:0:0:
305,154,172354,2,0,P|305:132|309:111,2,42.5000016212464
473,295,172707,6,0,P|465:314|450:329,2,42.5000016212464,4|0|0,0:3|0:0|0:0,0:0:0:0:
233,82,173060,2,0,P|242:63|257:48,2,42.5000016212464,8|0|0,0:0|0:0|0:0,0:0:0:0:
64,149,173413,101,0,0:0:0:0:
68,160,173531,1,0,0:0:0:0:
72,171,173648,1,0,0:0:0:0:
76,182,173766,5,4,0:3:0:0:
103,214,173883,1,0,0:0:0:0:
143,226,174001,1,0,0:0:0:0:
184,220,174118,1,0,0:0:0:0:
222,201,174236,1,0,0:0:0:0:
244,164,174354,1,0,0:0:0:0:
247,121,174471,102,0,P|240:94|221:67,2,42.5000016212464,8|0|0,0:0|0:0|0:0,0:0:0:0:
358,12,174824,2,0,P|348:30|344:51,2,42.5000016212464
446,168,175177,5,0,0:0:0:0:
436,209,175295,1,0,0:0:0:0:
442,253,175413,1,0,0:0:0:0:
431,294,175530,102,0,L|355:316,2,67.9999979248048,4|0|0,0:3|0:0|0:0,0:0:0:0:
177,365,175883,2,0,L|111:345,2,67.9999979248048,4|0|0,0:3|0:0|0:0,0:0:0:0:
235,130,176236,6,0,B|235:154|222:172|222:172|332:149|366:277,1,212.500008106232,8|0,0:0|0:0,0:0:0:0:
359,270,176589,102,0,L|345:395,2,73.6666632944744,4|0|0,0:3|0:0|0:0,0:0:0:0:
50,277,176942,2,0,L|64:152,1,73.6666632944744
154,133,177177,1,0,0:0:0:0:
154,133,177295,6,0,L|140:258,1,73.6666632944744,8|0,0:0|0:0,0:0:0:0:
332,158,177530,1,0,0:0:0:0:
332,158,177648,2,0,L|323:84,2,73.6666632944744
232,50,178000,101,2,0:0:0:0:
222,183,178118,1,2,0:0:0:0:
214,318,178236,1,2,0:0:0:0:
84,260,178354,38,0,L|89:164,1,67.9999979248048,4|0,0:3|0:0,0:0:0:0:
235,326,178707,85,10,0:0:0:0:
227,191,178825,1,2,0:0:0:0:
217,58,178943,1,2,0:0:0:0:
324,162,179060,22,0,P|330:193|310:245,1,67.9999979248048
130,347,179413,70,0,L|53:336,1,67.9999979248048,4|0,0:3|0:0,0:0:0:0:
16,250,179648,1,0,0:0:0:0:
16,250,179766,2,0,L|93:261,1,67.9999979248048
322,292,180001,1,0,0:0:0:0:
322,292,180118,2,0,P|329:259|321:227,2,67.9999979248048,8|0|0,0:0|0:0|0:0,0:0:0:0:
212,343,180471,38,0,P|204:311|209:278,1,67.9999979248048
83,259,180824,85,2,0:0:0:0:
216,243,180942,1,2,0:0:0:0:
350,227,181060,1,2,0:0:0:0:
442,142,181177,22,0,P|448:111|432:56,1,67.9999979248048,4|0,0:3|0:0,0:0:0:0:
388,231,181530,69,10,0:0:0:0:
255,215,181648,1,2,0:0:0:0:
121,199,181766,1,2,0:0:0:0:
30,273,181883,38,0,B|24:300|24:300|40:344,1,67.9999979248048
139,343,182236,86,0,L|194:330,1,56.6666666666667,4|0,0:3|0:0,0:0:0:0:
255,215,182471,1,0,0:0:0:0:
255,215,182589,2,0,L|242:160,2,56.6666666666667
249,343,182942,102,0,L|194:330,1,56.6666666666667,8|0,0:0|0:0,0:0:0:0:
133,215,183177,1,0,0:0:0:0:
133,215,183295,2,0,L|146:160,2,56.6666666666667
242,160,183648,6,0,L|255:215,1,56.6666666666667
370,276,183883,1,0,0:0:0:0:
370,276,184001,2,0,L|425:263,2,56.6666666666667,4|0|0,0:3|0:0|0:0,0:0:0:0:
269,160,184354,102,0,L|256:215,1,56.6666666666667,8|0,0:0|0:0,0:0:0:0:
141,276,184589,1,0,0:0:0:0:
141,276,184707,2,0,L|86:263,2,56.6666666666667
202,130,185060,5,4,0:3:0:0:
184,169,185177,1,0,0:0:0:0:
210,203,185295,1,0,0:0:0:0:
252,200,185413,1,0,0:0:0:0:
269,160,185530,1,0,0:0:0:0:
244,126,185648,1,0,0:0:0:0:
199,132,185766,101,8,0:0:0:0:
240,124,185883,1,0,0:0:0:0:
268,156,186001,1,0,0:0:0:0:
254,197,186118,1,0,0:0:0:0:
213,204,186236,1,0,0:0:0:0:
184,172,186354,1,0,0:0:0:0:
199,132,186471,1,0,0:0:0:0:
240,124,186588,1,0,0:0:0:0:
268,156,186706,1,0,0:0:0:0:
254,197,186824,37,4,0:3:0:0:
323,136,186942,1,4,0:3:0:0:
384,227,187060,1,4,0:3:0:0:
479,169,187177,1,8,0:0:0:0:
254,197,187530,85,8,0:3:0:0:
332,127,187648,1,4,0:3:0:0:
403,231,187766,1,4,0:3:0:0:
512,164,187883,102,0,P|468:167|435:148,2,73.6666632944744,4|0|0,0:3|0:0|0:0,0:0:0:0:
359,58,188236,2,0,P|315:55|282:74,2,73.6666632944744,0|0|0,0:3|0:0|0:0,0:0:0:0:
433,186,188589,6,0,P|443:221|439:258,1,73.6666632944744,8|0,0:0|0:0,0:0:0:0:
282,266,188824,1,0,0:0:0:0:
282,266,188942,2,0,P|277:230|287:195,2,73.6666632944744
367,369,189295,101,2,0:0:0:0:
359,234,189413,1,2,0:0:0:0:
349,101,189531,1,2,0:0:0:0:
433,186,189648,38,0,P|463:200|497:204,1,67.9999979248048,4|0,0:3|0:0,0:0:0:0:
364,73,190000,85,10,0:0:0:0:
354,206,190118,1,2,0:0:0:0:
346,341,190236,1,2,0:0:0:0:
244,245,190354,22,0,P|213:230|179:226,1,67.9999979248048
63,328,190707,70,0,P|94:343|128:347,1,67.9999979248048,4|0,0:3|0:0,0:0:0:0:
249,332,190942,1,0,0:0:0:0:
249,332,191060,2,0,P|281:323|310:305,2,67.9999979248048
394,215,191413,2,0,P|413:188|423:156,2,67.9999979248048,8|0|0,0:0|0:0|0:0,0:0:0:0:
386,84,191766,38,0,P|399:115|402:148,1,67.9999979248048
333,261,192118,85,2,0:0:0:0:
200,245,192236,1,2,0:0:0:0:
66,229,192354,1,2,0:0:0:0:
165,107,192471,22,0,P|171:138|155:193,1,67.9999979248048,4|0,0:3|0:0,0:0:0:0:
86,255,192824,69,10,0:0:0:0:
219,239,192942,1,2,0:0:0:0:
353,223,193060,1,2,0:0:0:0:
291,361,193177,38,0,P|284:327|290:294,1,67.9999979248048
457,186,193530,86,0,P|463:219|457:252,2,56.6666666666667,4|0|0,0:3|0:0|0:0,0:0:0:0:
378,70,193883,101,0,0:0:0:0:
368,98,194001,1,0,0:0:0:0:
346,117,194118,1,0,0:0:0:0:
319,128,194236,6,0,P|283:133|237:123,2,56.6666666666667,8|0|0,0:0|0:0|0:0,0:0:0:0:
191,212,194589,101,0,0:0:0:0:
166,196,194707,1,0,0:0:0:0:
153,170,194824,1,0,0:0:0:0:
148,141,194942,6,0,P|150:105|172:63,2,56.6666666666667
307,36,195295,101,4,0:3:0:0:
335,38,195413,1,0,0:0:0:0:
360,49,195530,1,0,0:0:0:0:
378,70,195648,6,0,P|370:96|369:125,2,56.6666666666667,8|0|0,0:0|0:0|0:0,0:0:0:0:
435,207,196001,102,0,P|487:231|500:232,2,56.6666666666667
195,281,196354,5,4,0:3:0:0:
184,254,196472,1,0,0:0:0:0:
188,226,196589,1,0,0:0:0:0:
203,202,196707,102,0,P|239:205|281:226,2,56.6666666666667
435,207,197060,5,8,0:0:0:0:
448,234,197178,1,0,0:0:0:0:
446,263,197295,1,0,0:0:0:0:
435,290,197413,102,0,P|414:319|374:344,2,56.6666666666667
216,321,197766,5,0,0:0:0:0:
187,321,197884,1,0,0:0:0:0:
162,330,198001,1,0,0:0:0:0:
141,339,198119,102,0,P|113:331|89:316,1,56.6666666666667
229,179,198354,6,0,P|227:160|219:137,1,42.5000016212464,4|2,0:3|0:0,0:0:0:0:
163,88,198471,2,0,P|202:51|215:180,1,283.333333333333,8|0,0:0|0:0,0:0:0:0:
117,192,199177,21,4,1:0:0:0:
155,323,201648,102,0,P|117:327|78:295,1,85.0000032424928,2|0,0:3|0:0,0:0:0:0:
133,260,202000,1,4,1:0:0:0:
136,250,204471,5,4,0:3:0:0:
347,318,204824,1,4,1:0:0:0:
357,323,207295,102,0,P|394:327|434:295,1,85.0000032424928,2|0,0:3|0:0,0:0:0:0:
379,260,207647,1,4,1:0:0:0:
66,234,210471,5,8,0:1:0:0:
168,298,210589,2,0,L|173:255,1,42.5000016212464
66,234,210824,2,0,B|76:335,1,85.0000032424928
256,352,211177,101,0,0:0:0:0:
344,298,211295,2,0,L|338:255,1,42.5000016212464
238,169,211530,2,0,B|246:253,1,85.0000032424928
344,298,211883,6,0,L|339:251,2,42.5000016212464,8|0|0,0:1|0:0|0:0,0:0:0:0:
191,305,212236,2,0,P|245:329|284:314,1,85.0000032424928
352,260,212589,102,0,L|347:213,2,42.5000016212464
220,136,212942,2,0,B|228:220,1,85.0000032424928
446,150,213295,5,8,0:1:0:0:
344,86,213413,2,0,L|338:128,1,42.5000016212464
446,150,213648,2,0,B|436:49,1,85.0000032424928
256,32,214001,101,0,0:0:0:0:
168,86,214119,2,0,L|173:128,1,42.5000016212464
274,215,214354,2,0,B|265:130,1,85.0000032424928
168,86,214707,6,0,L|173:133,2,42.5000016212464,8|0|0,0:1|0:0|0:0,0:0:0:0:
321,79,215060,2,0,P|267:55|228:70,1,85.0000032424928
160,124,215413,102,0,L|165:171,2,42.5000016212464
292,248,215766,2,0,B|283:163,1,85.0000032424928
121,319,216118,6,0,P|128:340|140:357,2,42.5000016212464,8|0|0,0:1|0:0|0:0,0:0:0:0:
101,217,216471,1,0,0:0:0:0:
383,326,216707,1,0,0:0:0:0:
383,326,216824,102,0,P|404:319|421:307,2,42.5000016212464,8|0|0,0:1|0:0|0:0,0:0:0:0:
281,347,217177,1,0,0:0:0:0:
390,64,217413,1,0,0:0:0:0:
390,64,217530,6,0,P|383:43|371:26,2,42.5000016212464,8|0|0,0:1|0:0|0:0,0:0:0:0:
411,167,217883,1,0,0:0:0:0:
128,57,218118,1,0,0:0:0:0:
128,57,218236,102,0,P|107:64|90:76,2,42.5000016212464,8|0|0,0:1|0:0|0:0,0:0:0:0:
231,37,218589,1,0,0:0:0:0:
121,319,218824,1,0,0:0:0:0:
121,319,218942,6,0,L|120:264,2,42.5000016212464,8|0|0,0:1|0:0|0:0,0:0:0:0:
344,276,219295,1,0,0:0:0:0:
52,228,219530,1,0,0:0:0:0:
52,228,219648,102,0,L|53:173,2,42.5000016212464,8|0|0,0:1|0:0|0:0,0:0:0:0:
200,320,220001,1,0,0:0:0:0:
391,65,220236,1,0,0:0:0:0:
391,65,220354,6,0,L|392:120,2,42.5000016212464,8|0|0,0:1|0:0|0:0,0:0:0:0:
168,108,220707,1,0,0:0:0:0:
460,156,220942,1,0,0:0:0:0:
460,156,221060,102,0,L|459:211,2,42.5000016212464,8|0|0,0:1|0:0|0:0,0:0:0:0:
312,64,221413,1,0,0:0:0:0:
257,358,221766,6,0,L|257:318,2,28.3333333333333,2|2|2,0:0|0:0|0:0,0:0:0:0:
158,313,222118,2,0,P|150:273|150:237,1,56.6666666666667,2|0,0:0|0:0,0:0:0:0:
257,358,222471,102,0,L|257:314,2,42.5000016212464,2|2|2,0:0|0:0|0:0,0:0:0:0:
358,289,222824,2,0,P|367:242|367:201,1,85.0000032424928,2|0,0:0|0:0,0:0:0:0:
257,358,223177,6,0,L|257:296,2,56.6666666666667,2|2|2,0:0|0:0|0:0,0:0:0:0:
127,242,223530,2,0,P|115:182|115:128,1,113.333333333333,2|0,0:0|0:0,0:0:0:0:
257,358,223883,102,0,L|257:284,2,70.8333333333333,2|2|2,0:0|0:0|0:0,0:0:0:0:
401,203,224236,2,0,P|415:129|415:62,1,141.666666666667,2|0,0:0|0:0,0:0:0:0:
257,358,224589,6,0,L|257:265,2,85.0000032424928,2|2|2,0:0|0:0|0:0,0:0:0:0:
101,171,224942,2,0,B|84:95|85:38|85:38|102:57|126:75,1,170.000006484986,2|0,0:0|0:0,0:0:0:0:
257,358,225295,102,0,L|257:251,2,99.1666676123937,2|2|2,0:0|0:0|0:0,0:0:0:0:
435,150,225648,2,0,B|469:99|453:25|453:25|426:66|389:77,1,198.333335224787,2|0,0:0|0:0,0:0:0:0:
24,256,226000,5,12,3:0:0:0:
172,114,226236,1,12,3:0:0:0:
28,303,226471,101,8,3:0:0:0:
168,66,226707,1,8,3:0:0:0:
55,341,226941,5,4,3:0:0:0:
140,28,227177,1,4,3:0:0:0:
321,345,227413,38,0,B|357:308|345:261|345:261|388:259|414:226|414:226|468:235|468:235|430:178|450:108,1,340.000012969971,14|0,1:0|0:0,0:0:0:0:
411,33,228471,6,0,L|412:43,10,10.6250004053116
244,56,228824,102,0,P|322:67|346:192,1,212.500008106232,10|0,1:0|0:0,0:0:0:0:
263,301,229530,6,0,L|254:309,22,10.6250004053116
384,340,230236,102,0,P|446:342|494:282,1,127.500004863739,14|0,1:0|0:0,0:0:0:0:
465,102,230766,6,0,B|413:38|413:38|376:108|376:108|418:159|418:159|390:210|419:270,1,342.833343795777,0|2,1:0|1:0,1:0:0:0:
498,213,231530,1,0,0:0:0:0:
294,327,231648,102,0,B|254:332|229:348|229:348|199:328|199:328|120:340|78:291,1,212.500008106232,10|0,1:0|0:0,0:0:0:0:
56,56,232354,2,0,B|95:50|120:34|120:34|150:54|150:54|230:43|271:91,1,212.500008106232,10|0,1:0|0:0,0:0:0:0:
467,214,233060,6,0,B|469:239|488:253|488:253|420:294|442:379,1,170.000006484986,10|0,1:0|0:0,0:0:0:0:
402,330,233589,101,0,0:0:0:0:
398,315,233648,1,0,0:0:0:0:
394,300,233707,1,0,0:0:0:0:
389,285,233766,2,0,L|334:299,1,42.5000016212464
256,240,234001,5,0,0:0:0:0:
179,260,234118,1,0,0:0:0:0:
112,331,234236,1,0,0:0:0:0:
25,286,234353,1,0,0:0:0:0:
118,123,234471,102,0,B|185:6|185:6|178:84,1,212.500008106232,10|0,1:0|0:0,0:0:0:0:
179,260,235177,2,0,B|111:376|111:376|118:298,1,212.500008106232,10|0,1:0|0:0,0:0:0:0:
178,84,235883,6,0,L|171:126,1,42.5000016212464,8|0,0:0|0:0,0:0:0:0:
83,164,236118,2,0,L|89:121,1,42.5000016212464,8|0,0:0|0:0,0:0:0:0:
268,46,236354,2,0,L|261:88,1,42.5000016212464,8|0,0:0|0:0,0:0:0:0:
156,233,236589,102,2,L|164:180,1,28.3333333333333,10|2,1:2|1:2,1:2:0:0:
172,127,236825,1,2,1:2:0:0:
82,164,236942,1,2,1:2:0:0:
75,207,237060,1,2,1:2:0:0:
68,249,237178,1,2,1:2:0:0:
269,330,237295,6,0,P|313:322|373:322,1,85.0000032424928,8|0,1:0|1:0,0:0:0:0:
136,273,237766,1,4,3:0:0:0:
151,263,237825,1,4,3:0:0:0:
165,253,237883,1,4,3:0:0:0:
181,243,237942,1,4,3:0:0:0:
194,233,238001,2,0,P|131:245|67:248,1,127.500004863739,8|0,1:0|1:0,0:0:0:0:
467,64,238707,102,0,B|493:170|436:158|461:273,1,212.500008106232,14|0,1:0|0:0,0:0:0:0:
321,115,239413,2,0,L|314:31,1,85.0000032424928
198,31,239766,2,0,L|190:115,1,85.0000032424928
34,320,240118,6,0,L|22:191,1,113.333333333333,10|0,1:0|0:0,0:0:0:0:
189,115,240707,1,0,0:0:0:0:
189,115,240824,2,0,L|204:279,1,141.666666666667,10|0,1:0|0:0,0:0:0:0:
469,317,241530,102,0,B|427:298|374:342|327:316,1,141.666666666667,14|0,1:0|0:0,0:0:0:0:
357,183,242236,2,0,L|365:265,1,56.6666666666667
193,284,242589,2,0,L|201:202,1,56.6666666666667
441,44,242942,6,0,L|453:168,1,113.333333333333,10|0,1:0|0:0,0:0:0:0:
198,227,243530,1,0,0:0:0:0:
198,227,243648,2,0,L|208:114,1,113.333333333333,10|0,1:0|0:0,0:0:0:0:
481,167,244236,1,0,0:0:0:0:
481,167,244354,102,0,B|461:226|502:246|480:309,1,141.666666666667,14|0,1:0|0:0,0:0:0:0:
256,360,245060,2,0,P|210:346|188:321,1,56.6666666666667
353,249,245413,2,0,P|399:263|421:288,1,56.6666666666667
96,304,245766,6,0,P|80:264|96:160,1,141.666666666667,10|0,1:0|0:0,0:0:0:0:
416,304,246471,2,0,P|432:264|416:160,1,141.666666666667,10|0,1:0|0:0,0:0:0:0:
255,38,247177,102,0,B|249:85|249:85|263:129|263:129|257:176,1,141.666666666667,10|0,1:0|0:0,0:0:0:0:
199,297,247883,2,0,P|166:273|153:250,1,56.6666666666667,8|0,1:0|0:0,0:0:0:0:
255,38,248236,5,8,3:0:0:0:
249,84,248353,1,8,3:0:0:0:
262,129,248471,1,8,3:0:0:0:
256,176,248588,101,4,3:0:0:0:
255,346,248942,1,8,3:0:0:0:
81,222,249119,5,2,0:0:0:0:
76,233,249177,1,2,0:0:0:0:
72,244,249236,1,2,0:0:0:0:
68,255,249295,102,0,P|61:214|68:189,1,56.6666666666667,8|0,1:0|0:0,0:0:0:0:
256,256,249648,1,4,3:0:0:0:
179,70,249825,5,2,0:0:0:0:
184,81,249883,1,2,0:0:0:0:
188,92,249942,1,2,0:0:0:0:
192,102,250001,69,4,3:0:0:0:
356,33,250354,1,0,0:0:0:0:
451,184,250589,1,4,3:0:0:0:
451,184,250707,2,0,B|458:225|458:225|417:312,2,127.500004863739,8|0|0,0:0|0:0|0:0,0:0:0:0:
356,33,251766,1,0,0:0:0:0:
256,236,252001,1,4,3:0:0:0:
256,236,252118,2,0,P|298:211|384:212,1,127.500004863739,8|0,0:0|0:0,0:0:0:0:
68,140,252824,6,0,P|39:193|75:259,1,127.500004863739,4|0,3:0|0:0,0:0:0:0:
256,336,253530,1,8,0:0:0:0:
448,250,253883,2,0,P|473:194|444:140,1,127.500004863739
356,280,254471,102,0,L|364:328,1,42.5000016212464,0|0,3:0|0:0,0:0:0:0:
448,250,254707,2,0,L|454:291,1,42.5000016212464,0|0,3:0|0:0,0:0:0:0:
256,336,254942,1,8,0:0:0:0:
57,291,255177,6,0,L|64:250,1,42.5000016212464,0|0,3:0|0:0,0:0:0:0:
149,321,255413,2,0,L|156:280,1,42.5000016212464,0|0,3:0|0:0,0:0:0:0:
92,68,255648,102,0,P|80:112|136:176,1,127.500004863739,4|0,3:0|0:0,0:0:0:0:
316,118,256236,1,4,3:0:0:0:
316,118,256354,2,0,B|353:119|375:96|375:96|394:123|426:129,1,127.500004863739,8|0,0:0|0:0,0:0:0:0:
154,107,257060,5,0,0:0:0:0:
320,46,257413,1,4,3:0:0:0:
256,276,257766,1,8,0:0:0:0:
160,212,258118,1,0,0:0:0:0:
456,184,258471,101,4,3:0:0:0:
416,339,258824,2,0,P|409:297|416:255,2,85
135,280,259883,5,4,3:0:0:0:
271,244,260236,1,4,3:0:0:0:
48,244,260589,101,8,0:0:0:0:
354,287,260942,1,4,3:0:0:0:
114,42,261295,6,0,B|92:113|141:108|112:186,1,127.500004863739,4|0,3:0|0:0,0:0:0:0:
305,241,261883,1,4,3:0:0:0:
305,241,262001,2,0,B|283:170|332:175|303:97,1,127.500004863739,8|0,0:0|0:0,0:0:0:0:
446,241,262707,101,0,0:0:0:0:
256,340,263060,1,4,3:0:0:0:
66,241,263413,1,8,0:0:0:0:
126,322,263766,1,0,0:0:0:0:
376,264,264118,6,0,B|384:216|384:216|372:172|372:172|396:200,1,127.500004863739,4|0,3:0|0:0,0:0:0:0:
144,256,264707,1,0,0:0:0:0:
144,256,264824,2,0,B|136:304|136:304|148:348|148:348|124:320,1,127.500004863739,8|0,0:0|0:0,0:0:0:0:
144,107,265530,102,0,L|107:59,1,42.5000016212464,4|0,3:0|0:0,0:0:0:0:
246,148,265766,2,0,L|305:139,1,42.5000016212464,4|0,3:0|0:0,0:0:0:0:
159,216,266001,2,0,L|136:271,1,42.5000016212464,4|0,3:0|0:0,0:0:0:0:
368,184,266236,6,0,B|376:136|376:136|364:92|364:92|388:120,1,127.500004863739,8|0,0:0|0:0,0:0:0:0:
72,300,266942,102,0,L|240:312,1,127.500004863739,4|0,3:0|0:0,0:0:0:0:
256,84,267530,1,4,3:0:0:0:
256,84,267648,2,0,L|88:72,1,127.500004863739,8|0,0:0|0:0,0:0:0:0:
448,192,268354,5,0,0:0:0:0:
340,52,268707,1,4,3:0:0:0:
448,192,269060,1,8,0:0:0:0:
340,332,269413,1,0,0:0:0:0:
408,192,269766,101,0,0:0:0:0:
172,300,270118,2,0,P|160:260|176:212,2,85
256,356,271177,5,4,3:0:0:0:
60,300,271530,1,0,0:0:0:0:
335,226,271883,1,8,0:0:0:0:
60,300,272118,102,0,L|3:295,1,42.5000016212464,4|0,3:0|0:0,0:0:0:0:
256,356,272354,2,0,L|298:352,1,42.5000016212464,4|0,3:0|0:0,0:0:0:0:
177,160,272589,102,0,B|182:221|227:256|227:256|271:230|271:230|336:226|336:226|270:173|281:69,1,396.666666666667,4|0,3:0|0:0,0:0:0:0:
336,227,275413,2,0,B|369:274|436:272|436:272|361:295|318:382|318:382|295:364|263:354|263:354|244:376|214:382,1,396.666666666667,2|8,0:3|0:3,0:0:0:0:
116,246,278236,102,0,B|135:288|201:309|201:309|199:237|248:204|248:204|157:141|196:55,1,396.666666666667,4|0,3:0|0:0,0:0:0:0:
113,78,281060,2,0,B|123:109|157:143|204:137|204:137|228:190|288:208|288:208|300:142|359:130,1,340,2|0,0:3|3:0,0:0:0:0:
372,229,283413,6,0,L|371:211,1,18.8888888888889,8|0,0:3|0:0,0:0:0:0:
191,297,283648,2,0,L|189:315,1,18.8888888888889,4|0,0:3|0:0,0:0:0:0:
193,61,283883,102,0,B|267:62|320:108|320:108|327:148|376:186|422:192|422:192|372:129|412:76|412:76|453:84|479:54,1,476,6|0,0:3|0:0,0:0:0:0:
241,158,286707,2,0,B|208:171|133:225|123:303|123:303|159:244|246:215|310:265,1,408,2|0,0:3|3:0,0:0:0:0:
237,380,289177,1,4,0:3:0:0:
357,194,289530,6,0,B|284:159|231:227|231:227|158:198|166:128|166:128|100:133|48:79|48:79|89:101|121:92,1,476,6|0,0:3|0:0,0:0:0:0:
154,8,292354,102,0,P|164:63|116:92,1,119,2|0,0:0|0:0,0:0:0:0:
78,199,295177,5,0,0:0:0:0:
78,199,295530,2,0,B|52:216|18:218|18:218|46:234|64:261,1,118.999996368408,2|0,0:0|0:0,0:0:0:0:
256,336,296236,1,0,0:0:0:0:
453,254,296589,2,0,B|466:234|494:218|494:218|460:216|434:199,2,118.999996368408,2|2|0,0:0|0:0|0:0,0:0:0:0:
256,336,297648,1,2,0:0:0:0:
78,262,298001,1,0,0:0:0:0:
150,34,298354,102,0,B|154:78|154:78|145:105|145:105|151:162,1,118.999996368408,2|0,0:0|0:0,0:0:0:0:
164,311,299060,1,2,0:0:0:0:
356,246,299413,2,0,B|400:250|400:250|427:241|427:241|484:247,2,118.999996368408,2|2|0,0:0|0:0|0:0,0:0:0:0:
164,311,300471,1,2,0:0:0:0:
256,132,300824,1,0,0:0:0:0:
328,212,301177,6,0,P|360:184|368:124,1,101.999996887207,2|0,0:0|0:0,0:0:0:0:
256,36,301883,1,2,0:0:0:0:
143,127,302236,2,0,P|148:177|184:212,2,101.999996887207,2|0|2,0:0|0:0|0:0,0:0:0:0:
256,160,303295,1,2,0:0:0:0:
256,36,303648,1,0,0:0:0:0:
112,152,304001,102,0,B|71:162|71:162|31:146,1,85,2|0,0:0|0:0,0:0:0:0:
79,78,304707,1,2,0:0:0:0:
106,236,305060,2,0,B|66:246|66:246|26:230,2,85,2|0|2,0:0|0:0|0:0,0:0:0:0:
256,160,306118,2,0,L|248:76,1,85,2|0,0:0|0:0,0:0:0:0:
334,262,306824,6,0,P|368:287|415:287,2,85,2|0|0,0:0|0:0|0:0,0:0:0:0:
463,237,307883,1,2,0:0:0:0:
399,132,308236,2,0,L|391:216,2,85,2|0|2,0:0|0:0|0:0,0:0:0:0:
409,289,309295,1,0,0:0:0:0:
226,340,309648,101,2,0:0:0:0:
144,313,310001,1,0,0:0:0:0:
144,227,310354,1,0,0:0:0:0:
226,201,310707,1,2,0:0:0:0:
277,270,311060,1,0,0:0:0:0:
226,340,311413,1,0,0:0:0:0:
144,313,311766,1,2,0:0:0:0:
226,201,312118,1,4,0:0:0:0:
