osu file format v14

[General]
AudioFilename: audio.mp3
AudioLeadIn: 0
PreviewTime: 112736
Countdown: 0
SampleSet: Soft
StackLeniency: 0.7
Mode: 0
LetterboxInBreaks: 1
EpilepsyWarning: 1
WidescreenStoryboard: 1

[Editor]
Bookmarks: 13636,39236,64836,67236,69636,70436,76036,80036,83236,90436,103236,112836,116036,138836,148836,154436
DistanceSpacing: 1.4
BeatDivisor: 4
GridSize: 8
TimelineZoom: 0.7999998

[Metadata]
Title:Slow Dive
TitleUnicode:Slow Dive
Artist:Seven Lions
ArtistUnicode:Seven Lions
Creator:Xayler
Version:Hard
Source:
Tags:melodic dubstep dance edm electronic ambient where i won't be found ep seeking blue records james flannigan jonawaga
BeatmapID:1434831
BeatmapSetID:677685

[Difficulty]
HPDrainRate:5
CircleSize:4
OverallDifficulty:6
ApproachRate:7.2
SliderMultiplier:1.4
SliderTickRate:1

[Events]
//Background and Video events
0,0,"Voidsector.jpg",0,0
//Break Periods
2,26636,28736
2,29836,31936
2,33169,35136
2,36436,38336
//Storyboard Layer 0 (Background)
//Storyboard Layer 1 (Fail)
//Storyboard Layer 2 (Pass)
//Storyboard Layer 3 (Foreground)
//Storyboard Sound Samples

[TimingPoints]
836,400,4,2,1,10,1,0
13036,-400,4,2,1,10,0,0
13536,-400,4,2,1,5,0,0
13636,-400,4,2,1,10,0,0
19836,-400,4,2,1,5,0,0
20036,-400,4,2,1,10,0,0
22436,-400,4,2,1,5,0,0
22536,-400,4,2,1,10,0,0
26436,-400,4,2,1,20,0,0
29636,-400,4,2,1,20,0,0
29702,-400,4,2,1,5,0,0
32836,-400,4,2,1,20,0,0
32902,-400,4,2,1,5,0,0
36036,-400,4,2,1,20,0,0
36102,-400,4,2,1,5,0,0
39236,-200,4,2,1,20,0,0
40336,-200,4,2,1,5,0,0
40436,-200,4,2,1,20,0,0
40736,-200,4,2,1,5,0,0
40836,-200,4,2,1,20,0,0
43536,-200,4,2,1,5,0,0
43636,-200,4,2,1,20,0,0
43936,-200,4,2,1,5,0,0
44036,-200,4,2,1,20,0,0
45636,-200,4,2,1,20,0,0
47536,-200,4,2,1,5,0,0
47636,-200,4,2,1,20,0,0
47936,-200,4,2,1,5,0,0
48036,-200,4,2,1,20,0,0
49136,-200,4,2,1,5,0,0
49236,-200,4,2,1,20,0,0
50736,-200,4,2,1,5,0,0
50836,-200,4,2,1,20,0,0
52036,-133.333333333333,4,2,1,40,0,0
64836,-100,4,2,1,70,0,0
77636,-100,4,2,1,40,0,0
78436,-100,4,2,1,70,0,0
82336,-100,4,2,1,5,0,0
82436,-100,4,2,1,70,0,0
86736,-100,4,2,1,5,0,0
86836,-100,4,2,1,70,0,0
90436,-133.333333333333,4,2,1,40,0,0
101136,-133.333333333333,4,2,1,5,0,0
101236,-133.333333333333,4,2,1,40,0,0
108336,-133.333333333333,4,2,1,5,0,0
108436,-133.333333333333,4,2,1,40,0,0
109636,-100,4,2,1,70,0,0
114436,-133.333333333333,4,2,1,40,0,0
116036,-200,4,2,1,30,0,0
116336,-200,4,2,1,5,0,0
116436,-100,4,2,1,40,0,0
116736,-100,4,2,1,5,0,0
116836,-80,4,2,1,80,0,1
119236,-200,4,2,1,30,0,0
120036,-80,4,2,1,80,0,1
122436,-133.333333333333,4,2,1,40,0,0
122736,-133.333333333333,4,2,1,5,0,0
122836,-133.333333333333,4,2,1,40,0,0
123136,-133.333333333333,4,2,1,5,0,0
123236,-80,4,2,1,80,0,1
125636,-100,4,2,1,40,0,0
125936,-100,4,2,1,5,0,0
126036,-100,4,2,1,40,0,0
126436,-80,4,2,1,80,0,1
128836,-200,4,2,1,30,0,0
129636,-80,4,2,1,80,0,1
132036,-200,4,2,1,30,0,0
132336,-200,4,2,1,5,0,0
132436,-133.333333333333,4,2,1,40,0,0
132736,-133.333333333333,4,2,1,5,0,0
132836,-80,4,2,1,80,0,1
135236,-200,4,2,1,30,0,0
136036,-80,4,2,1,80,0,1
138436,-133.333333333333,4,2,1,30,0,0
139236,-80,4,2,1,80,0,1
141636,-200,4,2,1,30,0,0
142436,-133.333333333333,4,2,1,60,0,0
144036,-200,4,2,1,60,0,0
144736,-200,4,2,1,5,0,0
144836,-200,4,2,1,30,0,0
145136,-200,4,2,1,5,0,0
145236,-100,4,2,1,40,0,0
145536,-100,4,2,1,5,0,0
145636,-80,4,2,1,80,0,1
148036,-133.333333333333,4,2,1,40,0,0
151236,-133.333333333333,4,2,1,40,0,0
151536,-133.333333333333,4,2,1,5,0,0
151636,-133.333333333333,4,2,1,40,0,0
152336,-133.333333333333,4,2,1,5,0,0
152436,-133.333333333333,4,2,1,40,0,0
153136,-133.333333333333,4,2,1,5,0,0
153236,-133.333333333333,4,2,1,40,0,0
153936,-133.333333333333,4,2,1,5,0,0
154036,-133.333333333333,4,2,1,40,0,0
154436,-133.333333333333,4,2,1,30,0,0
154836,-133.333333333333,4,2,1,5,0,0

[Colours]
Combo1 : 255,128,64
Combo2 : 128,0,255
Combo3 : 255,0,0
Combo4 : 128,0,128

[HitObjects]
97,283,13636,6,0,B|122:265|138:203|88:161|88:161|140:203|178:198|219:178|219:178|219:293|378:293|378:180,1,542.5
373,112,20036,2,0,B|357:143|377:178|377:178|338:169|311:192|311:192|324:153|302:121,1,210
256,192,22536,12,0,26436,0:0:0:0:
319,256,29636,5,0,0:0:0:0:
319,256,32836,6,0,L|320:263,2,5.83333333333333
319,256,36036,6,0,L|318:250,3,5.83333333333333
443,83,39236,6,0,L|445:122,1,35,2|0,0:0|0:0,0:0:0:0:
373,147,39636,2,0,L|371:112,1,35
378,35,40036,2,0,P|355:43|327:43,1,52.5,2|0,0:0|0:0,0:0:0:0:
311,36,40436,2,0,P|284:35|260:44,1,52.5
245,52,40836,2,0,L|249:135,1,70,2|0,0:0|0:0,0:0:0:0:
228,274,41636,2,0,P|259:248|321:249,1,105,2|0,0:0|0:0,0:0:0:0:
394,272,42436,6,0,P|398:251|394:228,1,35,2|0,0:0|0:0,0:0:0:0:
350,175,42836,2,0,P|346:154|350:131,1,35
384,72,43236,2,0,P|361:64|333:64,1,52.5,2|0,0:0|0:0,0:0:0:0:
317,68,43636,2,0,P|290:69|266:60,1,52.5
252,50,44036,2,0,L|256:133,2,70,2|0|2,0:0|0:0|0:0,0:0:0:0:
110,323,45636,6,0,P|131:327|154:323,1,35,2|0,0:0|0:0,0:0:0:0:
218,303,46036,2,0,P|239:299|262:303,1,35
323,331,46436,2,0,P|361:341|401:330,1,70,2|0,0:0|0:0,0:0:0:0:
463,304,47036,1,0,0:0:0:0:
463,304,47236,2,0,P|471:281|471:253,1,52.5,2|0,0:0|0:0,0:0:0:0:
464,237,47636,2,0,P|455:212|455:186,1,52.5
463,170,48036,2,0,L|461:135,1,35,2|0,0:0|0:0,0:0:0:0:
475,62,48436,1,0,0:0:0:0:
475,62,48636,1,0,0:0:0:0:
403,89,48836,6,0,P|376:89|352:80,1,52.5,2|0,0:0|0:0,0:0:0:0:
337,71,49236,1,0,0:0:0:0:
301,139,49436,2,0,L|306:247,1,105
313,320,50236,1,0,0:0:0:0:
242,288,50436,2,0,P|217:279|191:279,1,52.5,2|0,0:0|0:0,0:0:0:0:
174,283,50836,1,0,0:0:0:0:
134,216,51036,2,0,L|137:146,1,70
382,201,52036,6,0,L|383:253,1,52.5000020027161,2|0,0:0|0:0,0:0:0:0:
458,216,52436,2,0,L|456:163,1,52.5000020027161
493,88,52836,2,0,P|443:99|393:76,1,105.000004005432,8|0,0:0|0:0,0:0:0:0:
239,11,53636,2,0,L|243:121,1,105.000004005432,2|0,0:0|0:0,0:0:0:0:
215,199,54236,1,0,0:0:0:0:
215,199,54436,2,0,P|262:177|312:189,1,105.000004005432,8|0,0:0|0:0,0:0:0:0:
341,358,55236,6,0,P|346:334|339:305,1,52.5000020027161,2|0,0:0|0:0,0:0:0:0:
274,264,55636,1,0,0:0:0:0:
274,264,55836,1,0,0:0:0:0:
195,294,56036,2,0,P|171:299|142:292,1,52.5000020027161,8|0,0:0|0:0,0:0:0:0:
102,219,56436,2,0,L|105:114,2,105.000004005432,0|2|0,0:0|0:0|0:0,0:0:0:0:
65,296,57436,1,0,0:0:0:0:
65,296,57636,1,8,0:0:0:0:
190,77,58236,1,0,0:0:0:0:
190,77,58436,6,0,L|242:78,1,52.5000020027161,2|0,0:0|0:0,0:0:0:0:
321,111,58836,2,0,L|373:109,1,52.5000020027161
455,81,59236,2,0,P|434:128|445:178,1,105.000004005432,8|0,0:0|0:0,0:0:0:0:
487,257,59836,1,0,0:0:0:0:
487,257,60036,2,0,L|382:253,1,105.000004005432,2|0,0:0|0:0,0:0:0:0:
309,221,60636,1,0,0:0:0:0:
309,221,60836,1,8,0:0:0:0:
170,315,61236,2,0,L|118:316,1,52.5000020027161
37,341,61636,6,0,P|58:293|46:243,1,105.000004005432,2|0,0:0|0:0,0:0:0:0:
5,176,62236,1,0,0:0:0:0:
5,176,62436,1,8,0:0:0:0:
230,50,63036,1,2,0:0:0:0:
230,50,63236,2,0,L|282:51,1,52.5000020027161,2|2,0:0|0:0,0:0:0:0:
365,26,63636,1,0,0:0:0:0:
365,26,63836,2,0,P|370:50|363:79,1,52.5000020027161,2|8,0:0|0:0,0:0:0:0:
347,246,64436,1,8,3:0:0:0:
361,163,64636,1,8,3:0:0:0:
436,203,64836,6,0,L|432:281,1,70,2|0,0:0|0:0,0:0:0:0:
379,355,65236,1,0,0:0:0:0:
379,355,65436,1,0,0:0:0:0:
294,305,65636,2,0,P|262:296|225:303,1,70,8|0,0:0|0:0,0:0:0:0:
141,352,66036,1,0,0:0:0:0:
141,352,66236,1,0,0:0:0:0:
86,270,66436,6,0,L|89:200,1,70,2|0,0:0|0:0,0:0:0:0:
142,117,66836,2,0,P|174:108|211:115,1,70
292,229,67236,2,0,P|274:160|320:90,1,140,8|0,0:0|0:0,0:0:0:0:
379,39,67836,1,0,0:0:0:0:
379,39,68036,6,0,P|310:57|240:11,1,140,2|0,0:0|0:0,0:0:0:0:
161,56,68636,1,0,0:0:0:0:
161,56,68836,2,0,P|152:88|159:125,1,70,8|0,0:0|0:0,0:0:0:0:
236,184,69236,2,0,P|245:152|238:115,1,70
151,218,69636,5,2,0:0:0:0:
151,218,69836,1,2,0:0:0:0:
229,277,70036,2,0,L|299:274,1,70
406,183,70436,2,0,P|375:244|393:310,1,140,8|0,0:0|0:0,0:0:0:0:
476,372,71036,1,0,0:0:0:0:
476,372,71236,6,0,P|414:341|348:359,1,140,2|0,0:0|0:0,0:0:0:0:
257,338,71836,1,0,0:0:0:0:
257,338,72036,2,0,L|254:268,1,70,8|0,0:0|0:0,0:0:0:0:
225,179,72436,1,0,0:0:0:0:
225,179,72636,1,0,0:0:0:0:
154,111,72836,6,0,P|215:79|281:98,1,140,2|0,0:0|0:0,0:0:0:0:
341,181,73436,1,0,0:0:0:0:
341,181,73636,2,0,P|373:190|410:183,1,70,8|0,0:0|0:0,0:0:0:0:
472,108,74036,1,2,0:0:0:0:
472,108,74236,1,2,0:0:0:0:
505,199,74436,6,0,L|497:339,1,140,2|0,0:0|0:0,0:0:0:0:
416,292,75036,1,0,0:0:0:0:
416,292,75236,2,0,P|384:283|347:290,1,70,8|0,0:0|0:0,0:0:0:0:
286,366,75636,2,0,P|318:375|355:368,1,70
260,281,76036,5,2,0:0:0:0:
260,281,76236,1,2,0:0:0:0:
170,320,76436,2,0,L|100:317,1,70
9,354,76836,2,0,P|0:322|7:285,1,70,8|0,0:0|0:0,0:0:0:0:
15,267,77136,1,0,0:0:0:0:
28,250,77236,1,2,0:0:0:0:
100,317,77436,1,0,0:0:0:0:
72,162,77636,5,2,0:0:0:0:
259,98,78036,1,0,0:0:0:0:
259,98,78236,1,0,0:0:0:0:
307,183,78436,2,0,P|314:217|305:251,1,70,8|0,0:0|0:0,0:0:0:0:
258,337,78836,1,0,0:0:0:0:
258,337,79036,1,0,0:0:0:0:
355,330,79236,6,0,L|425:333,1,70,2|0,0:0|0:0,0:0:0:0:
499,268,79636,2,0,P|505:233|496:200,1,70
382,118,80036,2,0,P|369:185|406:242,1,140,8|0,0:0|0:0,0:0:0:0:
504,273,80636,1,0,0:0:0:0:
504,273,80836,6,0,P|436:260|379:297,1,140,2|0,0:0|0:0,0:0:0:0:
299,351,81436,1,0,0:0:0:0:
299,351,81636,2,0,P|305:316|296:283,1,70,8|0,0:0|0:0,0:0:0:0:
240,203,82036,2,0,L|360:208,1,105
376,191,82436,6,0,P|370:226|379:259,1,70,2|0,0:0|0:0,0:0:0:0:
471,289,82836,2,0,P|477:254|468:221,1,70
397,100,83236,2,0,P|465:95|510:44,1,140,8|0,0:0|0:0,0:0:0:0:
423,10,83836,1,0,0:0:0:0:
423,10,84036,6,0,P|354:14|309:65,1,140,2|0,0:0|0:0,0:0:0:0:
320,166,84636,1,0,0:0:0:0:
320,166,84836,2,0,L|250:163,1,70,8|0,0:0|0:0,0:0:0:0:
170,106,85236,2,0,L|100:109,1,70
19,164,85636,6,0,P|1:98|33:38,1,140,2|0,0:0|0:0,0:0:0:0:
106,113,86236,1,0,0:0:0:0:
106,113,86436,2,0,L|210:108,1,105,8|0,0:0|0:0,0:0:0:0:
243,94,86836,1,2,0:0:0:0:
231,191,87036,1,2,0:0:0:0:
277,277,87236,6,0,P|323:227|323:158,1,140,2|0,0:0|0:0,0:0:0:0:
287,73,87836,1,0,0:0:0:0:
287,73,88036,2,0,L|357:76,1,70,8|0,0:0|0:0,0:0:0:0:
450,45,88436,2,0,P|456:80|447:113,1,70
473,212,88836,5,2,0:0:0:0:
473,212,89036,1,2,0:0:0:0:
379,183,89236,1,8,0:0:0:0:
353,88,89436,1,2,0:0:0:0:
284,211,89636,1,8,0:0:0:0:
284,211,90436,6,0,B|208:236|208:184|128:212,1,157.500006008148,2|0,0:0|0:0,0:0:0:0:
47,197,91236,2,0,P|103:209|114:298,1,157.500006008148,8|0,0:0|0:0,0:0:0:0:
71,370,92036,2,0,L|180:367,1,105.000004005432,2|0,0:0|0:0,0:0:0:0:
253,373,92636,1,0,0:0:0:0:
253,373,92836,2,0,P|229:329|238:272,1,105.000004005432,8|0,0:0|0:0,0:0:0:0:
349,152,93636,6,0,B|273:177|273:125|193:153,1,157.500006008148,2|0,0:0|0:0,0:0:0:0:
114,129,94436,2,0,P|170:141|181:230,1,157.500006008148,8|0,0:0|0:0,0:0:0:0:
115,281,95236,2,0,P|166:273|211:298,1,105.000004005432,2|0,0:0|0:0,0:0:0:0:
267,369,95836,1,0,0:0:0:0:
267,369,96036,2,0,L|376:366,1,105.000004005432,8|0,0:0|0:0,0:0:0:0:
451,218,96836,6,0,P|425:172|433:121,1,105.000004005432,2|0,0:0|0:0,0:0:0:0:
472,50,97436,1,0,0:0:0:0:
472,50,97636,2,0,B|394:22|394:74|318:49,1,157.500006008148,8|0,0:0|0:0,0:0:0:0:
238,24,98436,2,0,P|263:68|256:119,1,105.000004005432,2|0,0:0|0:0,0:0:0:0:
204,185,99036,1,0,0:0:0:0:
204,185,99236,2,0,B|280:210|280:158|357:185,1,157.500006008148,8|0,0:0|0:0,0:0:0:0:
431,225,100036,6,0,L|428:329,1,105.000004005432,2|0,0:0|0:0,0:0:0:0:
352,307,100636,1,0,0:0:0:0:
352,307,100836,2,0,P|315:294|271:303,1,78.7500030040742,8|0,0:0|0:0,0:0:0:0:
253,312,101236,2,0,P|226:316|197:307,1,52.5000020027161
134,269,101636,1,2,0:0:0:0:
134,269,101836,2,0,P|107:265|78:274,2,52.5000020027161,2|0|2,0:0|0:0|0:0,0:0:0:0:
209,308,102436,2,0,P|184:264|191:213,1,105.000004005432,8|0,0:0|0:0,0:0:0:0:
297,81,103236,6,0,P|347:73|393:98,1,105.000004005432,2|0,0:0|0:0,0:0:0:0:
485,238,104036,2,0,P|434:245|388:220,1,105.000004005432,2|0,0:0|0:0,0:0:0:0:
297,81,104836,2,0,L|300:185,1,105.000004005432,2|0,0:0|0:0,0:0:0:0:
214,330,105636,2,0,L|211:226,1,105.000004005432,2|0,0:0|0:0,0:0:0:0:
297,81,106436,6,0,P|251:55|200:63,1,105.000004005432,2|0,0:0|0:0,0:0:0:0:
114,207,107236,2,0,P|159:232|210:224,1,105.000004005432,2|0,0:0|0:0,0:0:0:0:
297,81,108036,2,0,L|300:182,1,78.7500030040742,2|0,0:0|0:0,0:0:0:0:
310,184,108436,2,0,L|306:256,1,52.5000020027161
343,312,108836,2,0,P|292:320|247:295,1,105.000004005432,2|0,0:0|0:0,0:0:0:0:
144,128,109636,5,2,0:0:0:0:
144,128,109836,1,0,0:0:0:0:
216,194,110036,2,0,P|248:203|285:196,1,70
390,101,110436,2,0,L|246:109,1,140,8|0,0:0|0:0,0:0:0:0:
385,215,111236,5,2,0:0:0:0:
385,215,111436,1,0,0:0:0:0:
313,281,111636,2,0,P|281:290|244:283,1,70
143,188,112036,2,0,L|287:196,1,140,8|0,0:0|0:0,0:0:0:0:
457,107,112836,6,0,P|466:139|459:176,1,70,8|0,0:0|0:0,0:0:0:0:
368,212,113236,2,0,P|359:180|366:143,1,70,8|0,0:0|0:0,0:0:0:0:
471,106,113636,2,0,P|480:138|473:175,1,70,8|0,0:0|0:0,0:0:0:0:
353,214,114036,2,0,P|344:182|351:145,1,70,8|0,0:0|0:0,0:0:0:0:
428,272,114436,6,0,P|386:304|324:302,1,105.000004005432,2|0,0:0|0:0,0:0:0:0:
171,271,115236,2,0,P|216:247|268:254,1,105.000004005432,2|0,0:0|0:0,0:0:0:0:
340,310,115836,1,0,0:0:0:0:
340,310,116036,6,0,L|337:253,1,52.5,2|0,0:0|0:0,0:0:0:0:
331,223,116436,6,0,P|380:240|428:216,1,105,2|0,0:0|0:0,0:0:0:0:
433,193,116836,6,0,P|414:147|424:103,1,87.5,8|0,0:0|0:0,0:0:0:0:
438,92,117136,1,0,0:0:0:0:
438,92,117236,2,0,P|395:96|355:78,1,87.5
265,23,117636,2,0,L|269:123,1,87.5,2|0,0:0|0:0,0:0:0:0:
280,134,117936,2,0,L|276:234,1,87.5,2|0,0:0|0:0,0:0:0:0:
260,242,118236,1,0,0:0:0:0:
186,168,118436,2,0,L|54:175,2,131.25,8|0|0,0:0|0:0|0:0,0:0:0:0:
280,121,119236,6,0,P|290:190|270:229,1,105,2|0,0:0|0:0,0:0:0:0:
182,268,120036,5,8,0:0:0:0:
278,332,120236,1,0,0:0:0:0:
278,332,120336,1,0,0:0:0:0:
278,332,120436,2,0,L|370:328,1,87.5
464,364,120836,2,0,P|443:326|452:275,1,87.5,2|0,0:0|0:0,0:0:0:0:
463,262,121136,2,0,P|467:219|446:181,1,87.5,2|0,0:0|0:0,0:0:0:0:
424,167,121436,1,8,0:0:0:0:
360,250,121636,2,0,L|226:255,2,131.25,8|0|0,0:0|0:0|0:0,0:0:0:0:
386,240,122336,1,0,0:0:0:0:
386,240,122436,6,0,L|377:157,1,78.7500030040742,2|0,0:0|0:0,0:0:0:0:
358,143,122836,2,0,P|319:137|282:150,1,78.7500030040742,2|0,0:0|0:0,0:0:0:0:
264,168,123236,6,0,P|283:214|273:258,1,87.5,8|0,0:0|0:0,0:0:0:0:
268,277,123536,1,0,0:0:0:0:
268,277,123636,2,0,P|314:258|358:268,1,87.5
437,322,124036,2,0,L|433:222,1,87.5,2|0,0:0|0:0,0:0:0:0:
422,211,124336,2,0,L|426:111,1,87.5,2|0,0:0|0:0,0:0:0:0:
442,103,124636,1,0,0:0:0:0:
341,134,124836,2,0,L|209:129,2,131.25,8|0|0,0:0|0:0|0:0,0:0:0:0:
442,103,125636,6,0,B|451:143|451:143|430:218,1,105,2|0,0:0|0:0,0:0:0:0:
412,223,126036,1,0,0:0:0:0:
303,43,126436,5,8,0:0:0:0:
252,138,126636,1,0,0:0:0:0:
252,138,126736,1,0,0:0:0:0:
252,138,126836,2,0,P|237:185|250:228,1,87.5
304,308,127236,2,0,P|266:329|215:320,1,87.5,2|0,0:0|0:0,0:0:0:0:
202,309,127536,2,0,P|159:305|121:326,1,87.5,2|0,0:0|0:0,0:0:0:0:
107,348,127836,1,0,0:0:0:0:
53,257,128036,2,0,L|58:122,2,131.25,8|0|0,0:0|0:0|0:0,0:0:0:0:
107,348,128836,6,0,P|144:311|156:260,1,105,2|0,0:0|0:0,0:0:0:0:
129,160,129636,6,0,P|171:155|211:173,1,87.5,8|0,0:0|0:0,0:0:0:0:
232,190,129936,1,0,0:0:0:0:
232,190,130036,2,0,P|271:208|314:203,1,87.5
396,136,130436,2,0,L|400:236,1,87.5,2|0,0:0|0:0,0:0:0:0:
411,247,130736,2,0,L|407:347,1,87.5,2|0,0:0|0:0,0:0:0:0:
391,355,131036,1,0,0:0:0:0:
308,289,131236,2,0,P|256:322|178:309,2,131.25,8|0|0,0:0|0:0|0:0,0:0:0:0:
231,217,132036,6,0,L|227:165,1,52.5,2|0,0:0|0:0,0:0:0:0:
212,143,132436,6,0,P|209:104|227:70,1,78.7500030040742,2|0,0:0|0:0,0:0:0:0:
247,52,132836,5,8,0:0:0:0:
328,136,133036,1,0,0:0:0:0:
328,136,133136,1,0,0:0:0:0:
328,136,133236,2,0,L|415:131,1,87.5
512,94,133636,2,0,P|522:135|507:176,1,87.5,2|0,0:0|0:0,0:0:0:0:
486,191,133936,2,0,P|471:231|481:273,1,87.5,2|0,0:0|0:0,0:0:0:0:
499,293,134236,1,8,0:0:0:0:
395,275,134436,2,0,L|263:282,2,131.25,8|0|0,0:0|0:0|0:0,0:0:0:0:
423,289,135136,1,0,0:0:0:0:
423,289,135236,6,0,P|401:242|409:191,1,105,2|0,0:0|0:0,0:0:0:0:
466,102,136036,6,0,P|426:84|383:89,1,87.5,8|0,0:0|0:0,0:0:0:0:
362,102,136336,1,0,0:0:0:0:
362,102,136436,2,0,P|320:107|280:89,1,87.5
198,21,136836,2,0,L|194:121,1,87.5,2|0,0:0|0:0,0:0:0:0:
183,132,137136,2,0,L|187:232,1,87.5,2|0,0:0|0:0,0:0:0:0:
203,240,137436,1,0,0:0:0:0:
294,188,137636,2,0,P|308:249|282:310,2,131.25,8|0|0,0:0|0:0|0:0,0:0:0:0:
327,87,138436,6,0,P|302:81|273:84,1,52.5000020027161,2|0,0:0|0:0,0:0:0:0:
195,107,138836,2,0,P|170:113|141:110,1,52.5000020027161,2|0,0:0|0:0,0:0:0:0:
47,68,139236,5,8,0:0:0:0:
70,179,139436,1,0,0:0:0:0:
70,179,139536,1,0,0:0:0:0:
70,179,139636,2,0,P|71:221|49:259,1,87.5
4,354,140036,2,0,P|42:337|85:344,1,87.5,2|0,0:0|0:0,0:0:0:0:
104,362,140336,2,0,P|145:369|185:352,1,87.5,2|0,0:0|0:0,0:0:0:0:
202,332,140636,1,0,0:0:0:0:
240,234,140836,2,0,L|233:102,2,131.25,8|0|0,0:0|0:0|0:0,0:0:0:0:
305,316,141636,6,0,P|355:328|403:310,1,105,2|0,0:0|0:0,0:0:0:0:
446,213,142436,6,0,P|395:205|349:230,1,105.000004005432,8|0,0:0|0:0,0:0:0:0:
441,89,143236,1,2,0:0:0:0:
441,89,143436,2,0,P|446:58|438:33,2,52.5000020027161,2|0|0,0:0|0:0|0:0,0:0:0:0:
359,156,144036,6,0,P|302:175|247:150,1,122.5,8|0,0:0|0:0,0:0:0:0:
227,127,144836,2,0,L|231:75,1,52.5,2|0,0:0|0:0,0:0:0:0:
246,43,145236,6,0,P|208:67|144:58,1,105,2|0,0:0|0:0,0:0:0:0:
128,47,145636,6,0,P|109:86|115:129,1,87.5,8|0,0:0|0:0,0:0:0:0:
125,148,145937,1,0,0:0:0:0:
125,148,146036,2,0,P|143:187|137:230,1,87.5
94,325,146436,2,0,P|132:308|175:315,1,87.5,2|0,0:0|0:0,0:0:0:0:
194,333,146736,2,0,P|235:340|275:323,1,87.5,2|0,0:0|0:0,0:0:0:0:
292,303,147036,1,8,0:0:0:0:
254,204,147236,2,0,L|261:72,2,131.25,8|0|0,0:0|0:0|0:0,0:0:0:0:
357,224,148036,6,0,P|371:174|349:128,1,105.000004005432,2|0,0:0|0:0,0:0:0:0:
303,290,148836,2,0,P|358:312|406:290,1,105.000004005432,8|0,0:0|0:0,0:0:0:0:
254,204,149636,2,0,P|219:203|189:216,1,52.5000020027161,2|2,0:0|0:0,0:0:0:0:
185,228,149936,1,0,0:0:0:0:
185,228,150036,2,0,L|193:265,2,26.2500010013581
129,165,150436,2,0,L|119:273,1,105.000004005432,8|0,0:0|0:0,0:0:0:0:
175,346,151036,1,0,0:0:0:0:
175,346,151136,1,0,0:0:0:0:
175,346,151236,6,0,L|258:344,1,78.7500030040742,2|0,0:0|0:0,0:0:0:0:
279,336,151636,2,0,P|277:309|269:285,1,52.5000020027161
230,210,152036,2,0,L|313:212,1,78.7500030040742,2|0,0:0|0:0,0:0:0:0:
334,204,152436,2,0,P|332:177|324:153,1,52.5000020027161
280,81,152836,6,0,P|240:71|201:76,1,78.7500030040742,2|0,0:0|0:0,0:0:0:0:
181,89,153236,2,0,L|183:153,1,52.5000020027161
214,220,153636,2,0,P|254:230|292:224,1,78.7500030040742,2|0,0:0|0:0,0:0:0:0:
314,212,154036,2,0,L|313:264,1,52.5000020027161
310,294,154336,1,0,0:0:0:0:
310,294,154436,6,0,P|359:296|384:253,1,105.000004005432,2|0,0:0|0:0,0:0:0:0:
