osu file format v14

[General]
AudioFilename: audio.mp3
AudioLeadIn: 0
PreviewTime: 112736
Countdown: 0
SampleSet: Soft
StackLeniency: 0.7
Mode: 0
LetterboxInBreaks: 1
EpilepsyWarning: 1
WidescreenStoryboard: 1

[Editor]
Bookmarks: 13636,20036,26436,39236,64836,77636,103236,112836,116036,138636,148836,154436
DistanceSpacing: 1
BeatDivisor: 2
GridSize: 8
TimelineZoom: 0.5999999

[Metadata]
Title:Slow Dive
TitleUnicode:Slow Dive
Artist:Seven Lions
ArtistUnicode:Seven Lions
Creator:Xayler
Version:Easy
Source:
Tags:melodic dubstep dance edm electronic ambient where i won't be found ep seeking blue records james flannigan jonawaga
BeatmapID:1433155
BeatmapSetID:677685

[Difficulty]
HPDrainRate:2
CircleSize:3
OverallDifficulty:2
ApproachRate:3
SliderMultiplier:1
SliderTickRate:1

[Events]
//Background and Video events
0,0,"Voidsector.jpg",0,0
//Break Periods
2,26636,28196
2,29836,31396
2,33036,34596
2,36236,37796
//Storyboard Layer 0 (Background)
//Storyboard Layer 1 (Fail)
//Storyboard Layer 2 (Pass)
//Storyboard Layer 3 (Foreground)
//Storyboard Sound Samples

[TimingPoints]
836,400,4,2,1,10,1,0
18436,-100,4,2,1,5,0,0
20036,-100,4,2,1,10,0,0
26436,-100,4,2,1,20,0,0
29636,-100,4,2,1,20,0,0
39236,-100,4,2,1,20,0,0
52036,-100,4,2,1,40,0,0
64836,-100,4,2,1,70,0,0
77636,-100,4,2,1,40,0,0
78436,-100,4,2,1,70,0,0
90436,-100,4,2,1,40,0,0
109636,-100,4,2,1,40,0,0
116036,-100,4,2,1,30,0,0
116836,-100,4,2,1,80,0,1
119236,-100,4,2,1,30,0,0
120036,-100,4,2,1,80,0,1
122436,-100,4,2,1,30,0,0
123236,-100,4,2,1,80,0,1
125636,-100,4,2,1,30,0,0
126036,-100,4,2,1,5,0,0
126436,-100,4,2,1,80,0,1
128836,-100,4,2,1,30,0,0
129636,-100,4,2,1,80,0,1
132036,-100,4,2,1,30,0,0
132836,-100,4,2,1,80,0,1
135236,-100,4,2,1,30,0,0
136036,-100,4,2,1,80,0,1
138436,-100,4,2,1,30,0,0
139236,-100,4,2,1,80,0,1
141636,-100,4,2,1,30,0,0
142436,-100,4,2,1,80,0,0
144836,-100,4,2,1,30,0,0
145636,-100,4,2,1,80,0,1
148036,-100,4,2,1,40,0,0
151236,-100,4,2,1,40,0,0
154436,-100,4,2,1,30,0,0
154836,-100,4,2,1,5,0,0

[Colours]
Combo1 : 255,128,64
Combo2 : 128,0,255
Combo3 : 255,0,0
Combo4 : 128,0,128

[HitObjects]
256,192,21636,12,0,26436,0:0:0:0:
181,117,29636,5,0,0:0:0:0:
181,117,32836,5,0,0:0:0:0:
181,117,36036,5,0,0:0:0:0:
336,272,39236,6,0,L|329:155,1,100,2|0,0:0|0:0,0:0:0:0:
237,135,40036,2,0,L|242:234,1,100,2|0,0:0|0:0,0:0:0:0:
253,334,40836,2,0,P|184:344|103:252,1,200,2|2,0:0|0:0,0:0:0:0:
289,181,42436,6,0,L|296:64,1,100,2|0,0:0|0:0,0:0:0:0:
388,44,43236,2,0,L|382:143,1,100,2|0,0:0|0:0,0:0:0:0:
368,242,44036,2,0,P|420:257|470:242,2,100,2|0|2,0:0|0:0|0:0,0:0:0:0:
257,75,45636,6,0,P|205:60|155:75,1,100,2|0,0:0|0:0,0:0:0:0:
111,157,46436,2,0,P|163:172|213:157,1,100,2|0,0:0|0:0,0:0:0:0:
306,163,47236,2,0,L|409:170,2,100,2|0|2,0:0|0:0|0:0,0:0:0:0:
257,75,48436,1,0,0:0:0:0:
181,141,48836,6,0,P|187:236|272:291,1,200,2|2,0:0|0:0,0:0:0:0:
465,327,50436,2,0,P|458:230|377:177,1,200,2|2,0:0|0:0,0:0:0:0:
186,234,52036,6,0,L|80:230,1,100,2|0,0:0|0:0,0:0:0:0:
48,137,52836,2,0,L|147:140,1,100,8|0,0:0|0:0,0:0:0:0:
247,152,53636,1,2,0:0:0:0:
418,49,54436,1,8,0:0:0:0:
324,225,55236,6,0,P|315:275|335:322,1,100,2|0,0:0|0:0,0:0:0:0:
422,365,56036,1,8,0:0:0:0:
417,265,56436,2,0,P|426:216|408:170,2,100,0|2|0,0:0|0:0|0:0,0:0:0:0:
333,319,57636,1,8,0:0:0:0:
187,181,58436,6,0,L|78:171,2,100,2|0|8,0:0|0:0|0:0,0:0:0:0:
277,137,59636,1,0,0:0:0:0:
360,192,60036,2,0,P|378:146|368:97,1,100,2|0,0:0|0:0,0:0:0:0:
287,39,60836,1,8,0:0:0:0:
128,161,61636,6,0,P|118:209|136:255,1,100,2|0,0:0|0:0,0:0:0:0:
211,321,62436,2,0,L|368:310,1,150,8|0,0:0|0:0,0:0:0:0:
443,255,63436,1,0,0:0:0:0:
408,161,63836,2,0,P|344:142|269:181,1,150
272,279,64836,5,2,0:0:0:0:
185,228,65236,2,0,L|85:234,1,100,0|8,0:0|0:0,0:0:0:0:
16,162,66036,1,0,0:0:0:0:
100,106,66436,2,0,L|199:113,1,100,2|0,0:0|0:0,0:0:0:0:
295,84,67236,1,8,0:0:0:0:
384,39,67636,2,0,P|395:93|380:139,1,100,0|2,0:0|0:0,0:0:0:0:
310,204,68436,5,0,0:0:0:0:
224,256,68836,2,0,P|213:310|228:356,1,100,8|0,0:0|0:0,0:0:0:0:
313,302,69636,2,0,L|419:305,1,100,2|0,0:0|0:0,0:0:0:0:
487,237,70436,1,8,0:0:0:0:
421,161,70836,2,0,P|408:113|419:64,2,100,0|2|0,0:0|0:0|0:0,0:0:0:0:
487,237,72036,6,0,P|499:284|488:333,1,100,8|0,0:0|0:0,0:0:0:0:
391,360,72836,2,0,L|287:355,1,100,2|0,0:0|0:0,0:0:0:0:
198,316,73636,2,0,P|185:268|196:219,1,100,8|0,0:0|0:0,0:0:0:0:
239,129,74436,1,2,0:0:0:0:
304,204,74836,6,0,P|352:215|400:202,1,100,0|8,0:0|0:0,0:0:0:0:
473,133,75636,1,0,0:0:0:0:
504,228,76036,2,0,P|515:276|502:324,2,100,2|0|8,0:0|0:0|0:0,0:0:0:0:
473,133,77236,2,0,P|424:121|376:134,1,100,0|2,0:0|0:0,0:0:0:0:
290,183,78036,5,0,0:0:0:0:
366,247,78436,2,0,L|362:349,1,100,8|0,0:0|0:0,0:0:0:0:
262,358,79236,2,0,P|213:369|165:356,1,100,2|0,0:0|0:0,0:0:0:0:
118,268,80036,2,0,P|166:256|214:269,1,100,8|0,0:0|0:0,0:0:0:0:
313,277,80836,1,2,0:0:0:0:
347,183,81236,6,0,L|340:70,1,100,0|8,0:0|0:0,0:0:0:0:
258,26,82036,2,0,P|210:40|175:75,2,100,0|2|0,0:0|0:0|0:0,0:0:0:0:
340,83,83236,2,0,L|452:86,1,100,8|0,0:0|0:0,0:0:0:0:
469,181,84036,2,0,L|369:178,1,100,2|0,0:0|0:0,0:0:0:0:
270,162,84836,6,0,P|259:210|272:258,1,100,8|0,0:0|0:0,0:0:0:0:
370,276,85636,2,0,P|381:324|368:372,1,100,2|0,0:0|0:0,0:0:0:0:
269,354,86436,2,0,L|165:357,1,100,8|0,0:0|0:0,0:0:0:0:
96,287,87236,6,0,P|48:276|0:289,2,100,2|0|8,0:0|0:0|0:0,0:0:0:0:
169,356,88436,1,0,0:0:0:0:
206,263,88836,2,0,L|201:162,1,100,2|0,0:0|0:0,0:0:0:0:
240,71,89636,1,8,0:0:0:0:
430,135,90436,6,0,P|441:183|428:231,1,100,2|0,0:0|0:0,0:0:0:0:
338,276,91236,2,0,L|237:271,1,100,8|0,0:0|0:0,0:0:0:0:
149,224,92036,2,0,P|138:272|151:320,1,100,2|0,0:0|0:0,0:0:0:0:
237,370,92836,1,8,0:0:0:0:
323,189,93636,6,0,P|336:141|325:92,1,100,2|0,0:0|0:0,0:0:0:0:
251,24,94436,2,0,L|151:28,1,100,8|0,0:0|0:0,0:0:0:0:
68,85,95236,2,0,P|57:133|70:181,1,100,2|0,0:0|0:0,0:0:0:0:
146,246,96036,1,8,0:0:0:0:
317,143,96836,6,0,L|416:147,1,100,2|0,0:0|0:0,0:0:0:0:
482,223,97636,2,0,P|495:270|484:319,1,100,8|0,0:0|0:0,0:0:0:0:
398,370,98436,2,0,L|298:365,1,100,2|0,0:0|0:0,0:0:0:0:
225,296,99236,2,0,P|214:247|227:199,1,100,8|0,0:0|0:0,0:0:0:0:
302,134,100036,6,0,P|312:85|299:37,1,100,2|0,0:0|0:0,0:0:0:0:
201,20,100836,2,0,L|101:24,1,100,8|0,0:0|0:0,0:0:0:0:
23,87,101636,2,0,P|9:134|20:183,1,100,2|0,0:0|0:0,0:0:0:0:
91,253,102436,1,8,0:0:0:0:
264,152,103236,6,0,P|312:141|360:154,1,100,2|0,0:0|0:0,0:0:0:0:
406,242,104036,2,0,P|357:252|309:239,1,100,2|0,0:0|0:0,0:0:0:0:
209,238,104836,2,0,L|213:337,1,100,2|0,0:0|0:0,0:0:0:0:
311,355,105636,1,2,0:0:0:0:
434,197,106436,6,0,P|445:149|432:101,1,100,2|0,0:0|0:0,0:0:0:0:
343,54,107236,2,0,P|332:102|345:150,1,100,2|0,0:0|0:0,0:0:0:0:
346,250,108036,2,0,P|297:260|249:247,1,100,2|0,0:0|0:0,0:0:0:0:
191,165,108836,1,2,0:0:0:0:
9,246,109636,6,0,L|13:345,1,100,2|0,0:0|0:0,0:0:0:0:
111,364,110436,2,0,P|160:360|203:335,1,100,2|0,0:0|0:0,0:0:0:0:
253,249,111236,2,0,L|249:150,1,100,2|0,0:0|0:0,0:0:0:0:
228,51,112036,2,0,P|277:54|320:79,1,100,2|0,0:0|0:0,0:0:0:0:
371,164,112836,6,0,P|381:213|368:261,1,100,8|8,0:0|0:0,0:0:0:0:
302,335,113636,1,8,0:0:0:0:
202,325,114036,1,8,0:0:0:0:
157,235,114436,2,0,L|57:239,2,100,2|0|2,0:0|0:0|0:0,0:0:0:0:
227,163,115636,1,0,0:0:0:0:
273,74,116036,6,0,P|224:64|176:77,1,100,2|0,0:0|0:0,0:0:0:0:
106,148,116836,2,0,L|110:247,1,100,8|0,0:0|0:0,0:0:0:0:
161,333,117636,2,0,P|210:343|258:330,1,100,2|0,0:0|0:0,0:0:0:0:
308,244,118436,2,0,P|260:231|211:241,1,100,8|0,0:0|0:0,0:0:0:0:
110,247,119236,6,0,B|140:144|76:144|108:40,1,200,2|8,0:0|0:0,0:0:0:0:
203,67,120436,1,0,0:0:0:0:
300,44,120836,2,0,L|399:48,1,100,2|0,0:0|0:0,0:0:0:0:
430,143,121636,2,0,L|331:139,1,100,8|0,0:0|0:0,0:0:0:0:
230,125,122436,6,0,B|201:218|265:218|235:321,1,200,2|8,0:0|0:0,0:0:0:0:
140,351,123636,1,0,0:0:0:0:
68,281,124036,2,0,P|58:232|71:184,1,100,2|0,0:0|0:0,0:0:0:0:
159,139,124836,2,0,P|169:188|156:236,1,100,8|0,0:0|0:0,0:0:0:0:
230,302,125636,6,0,L|329:298,1,100,2|0,0:0|0:0,0:0:0:0:
420,256,126436,2,0,P|430:207|417:159,1,100,8|0,0:0|0:0,0:0:0:0:
340,95,127236,2,0,P|291:85|243:98,1,100,2|0,0:0|0:0,0:0:0:0:
169,165,128036,2,0,P|159:214|172:262,1,100,8|0,0:0|0:0,0:0:0:0:
241,333,128836,6,0,B|334:362|334:298|437:328,1,200,2|8,0:0|0:0,0:0:0:0:
485,240,130036,1,0,0:0:0:0:
402,184,130436,2,0,P|392:135|405:87,1,100,2|0,0:0|0:0,0:0:0:0:
494,43,131236,2,0,P|504:92|491:140,1,100,8|0,0:0|0:0,0:0:0:0:
485,240,132036,6,0,B|392:269|392:205|289:235,1,200,2|8,0:0|0:0,0:0:0:0:
206,291,133236,1,0,0:0:0:0:
121,237,133636,2,0,L|117:138,1,100,2|0,0:0|0:0,0:0:0:0:
206,91,134436,2,0,L|210:190,1,100,8|0,0:0|0:0,0:0:0:0:
206,291,135236,6,0,B|299:320|299:256|402:286,1,200,2|8,0:0|0:0,0:0:0:0:
497,315,136436,1,0,0:0:0:0:
474,217,136836,2,0,P|463:168|476:120,1,100,2|0,0:0|0:0,0:0:0:0:
503,24,137636,2,0,P|454:13|406:26,1,100,8|0,0:0|0:0,0:0:0:0:
331,92,138436,6,0,L|335:191,1,100,2|0,0:0|0:0,0:0:0:0:
381,280,139236,2,0,P|332:290|284:277,1,100,8|0,0:0|0:0,0:0:0:0:
214,206,140036,2,0,P|203:157|216:109,1,100,2|0,0:0|0:0,0:0:0:0:
284,35,140836,2,0,P|332:24|380:37,1,100,8|0,0:0|0:0,0:0:0:0:
443,114,141636,6,0,B|472:207|408:207|438:310,1,200,2|8,0:0|0:0,0:0:0:0:
349,357,142836,1,0,0:0:0:0:
267,298,143236,2,0,P|256:249|269:201,1,100,2|0,0:0|0:0,0:0:0:0:
334,124,144036,2,0,P|344:75|331:27,1,100,8|0,0:0|0:0,0:0:0:0:
244,78,144836,6,0,B|151:107|151:43|48:73,1,200,2|8,0:0|0:0,0:0:0:0:
12,166,146036,1,0,0:0:0:0:
81,238,146436,2,0,L|180:234,1,100,2|0,0:0|0:0,0:0:0:0:
224,323,147236,2,0,L|125:327,1,100,8|0,0:0|0:0,0:0:0:0:
24,328,148036,6,0,B|-5:235|59:235|28:132,1,200,2|8,0:0|0:0,0:0:0:0:
55,36,149236,1,0,0:0:0:0:
130,101,149636,2,0,P|178:111|226:98,1,100,2|0,0:0|0:0,0:0:0:0:
307,39,150436,2,0,P|355:28|403:41,1,100,8|0,0:0|0:0,0:0:0:0:
469,116,151236,6,0,P|479:164|466:212,1,100,2|0,0:0|0:0,0:0:0:0:
391,279,152036,2,0,P|342:289|294:276,1,100,2|0,0:0|0:0,0:0:0:0:
238,193,152836,2,0,L|242:94,2,100,2|0|2,0:0|0:0|0:0,0:0:0:0:
190,281,154036,1,0,0:0:0:0:
119,209,154436,6,0,P|70:198|22:211,1,100,2|0,0:0|0:0,0:0:0:0:
