osu file format v14

[General]
AudioFilename: audio.mp3
AudioLeadIn: 0
PreviewTime: 106337
Countdown: 0
SampleSet: Drum
StackLeniency: 0.3
Mode: 0
LetterboxInBreaks: 0
WidescreenStoryboard: 0

[Editor]
DistanceSpacing: 1
BeatDivisor: 8
GridSize: 4
TimelineZoom: 2.3

[Metadata]
Title:Slow Dive
TitleUnicode:Slow Dive
Artist:Seven Lions
ArtistUnicode:Seven Lions
Creator:- Heatwave -
Version:Endlessly
Source:
Tags:melodic dubstep ambient edm dance electronic english Where I Won't Wont Be Found ep seeking blue records james flannigan slider
BeatmapID:2636324
BeatmapSetID:1268514

[Difficulty]
HPDrainRate:5
CircleSize:4.7
OverallDifficulty:8.6
ApproachRate:9.2
SliderMultiplier:2.2
SliderTickRate:1

[Events]
//Background and Video events
0,0,"166044.jpg",0,0
//Break Periods
//Storyboard Layer 0 (Background)
//Storyboard Layer 1 (Fail)
//Storyboard Layer 2 (Pass)
//Storyboard Layer 3 (Foreground)
//Storyboard Layer 4 (Overlay)
//Storyboard Sound Samples

[TimingPoints]
787,400,4,2,1,15,1,0
12587,-100,4,2,1,15,0,0
12987,-1000,4,2,1,15,0,0
26287,-100,4,2,99,5,0,0
26387,-1000,4,2,1,15,0,0
34387,-666.666666666667,4,2,1,18,0,0
35987,-555.555555555556,4,2,1,22,0,0
37587,-416.666666666667,4,2,1,28,0,0
39187,-416.666666666667,4,2,1,40,0,0
43987,-555.555555555556,4,2,1,40,0,0
46387,-416.666666666667,4,2,1,40,0,0
51987,-200,4,2,2,75,0,0
52587,-150.15015015015,4,2,2,75,0,0
52787,-100,4,2,2,75,0,0
53187,-150.15015015015,4,2,2,75,0,0
53587,-300.3003003003,4,2,2,75,0,0
54387,-150.15015015015,4,2,2,75,0,0
55187,-300.3003003003,4,2,2,75,0,0
55787,-150.15015015015,4,2,2,75,0,0
55987,-100,4,2,2,75,0,0
56387,-200,4,2,2,75,0,0
57587,-100,4,2,2,75,0,0
58387,-200,4,2,2,75,0,0
58987,-150.15015015015,4,2,2,75,0,0
59187,-100,4,2,2,75,0,0
59587,-150.15015015015,4,2,2,75,0,0
59987,-300.3003003003,4,2,2,75,0,0
60787,-100,4,2,2,75,0,0
61587,-300.3003003003,4,2,2,75,0,0
62187,-150.15015015015,4,2,2,75,0,0
62387,-100,4,2,2,75,0,0
63387,-150.15015015015,4,2,2,75,0,0
64787,-150.15015015015,4,2,1,75,0,0
65587,-100,4,2,1,75,0,0
66387,-300.3003003003,4,2,1,75,0,0
66987,-150.01500150015,4,2,1,75,0,0
67187,-100,4,2,1,75,0,0
67987,-300.3003003003,4,2,1,75,0,0
68787,-100,4,2,1,75,0,0
69987,-150.15015015015,4,2,1,75,0,0
70387,-100,4,2,1,75,0,0
71187,-300.3003003003,4,2,1,75,0,0
71987,-100,4,2,1,75,0,0
72387,-150.15015015015,4,2,1,75,0,0
72787,-300.3003003003,4,2,1,75,0,0
73587,-150.15015015015,4,2,1,75,0,0
73787,-100,4,2,1,75,0,0
74387,-300.3003003003,4,2,1,75,0,0
74987,-150.15015015015,4,2,1,75,0,0
75187,-100,4,2,1,75,0,0
75587,-150.01500150015,4,2,1,75,0,0
75987,-300.3003003003,4,2,1,75,0,0
77187,-300.3003003003,4,2,33,75,0,0
77387,-300.3003003003,4,2,1,75,0,0
77587,-660.06600660066,4,2,1,75,0,0
78387,-100,4,2,1,75,0,0
78787,-150.15015015015,4,2,1,75,0,0
79187,-300.3003003003,4,2,1,75,0,0
79987,-100,4,2,1,75,0,0
80787,-150.15015015015,4,2,1,75,0,0
81387,-100,4,2,1,75,0,0
82387,-300.3003003003,4,2,1,75,0,0
83187,-100,4,2,1,75,0,0
83587,-150.15015015015,4,2,1,75,0,0
83987,-300.3003003003,4,2,1,75,0,0
84787,-100,4,2,1,75,0,0
85387,-150.15015015015,4,2,1,75,0,0
85587,-200,4,2,1,75,0,0
86387,-150.15015015015,4,2,1,75,0,0
86587,-100,4,2,1,75,0,0
87187,-200,4,2,1,75,0,0
87987,-150.15015015015,4,2,1,75,0,0
88387,-300.3003003003,4,2,1,75,0,0
88987,-300.3003003003,4,2,2,75,0,0
89187,-300.3003003003,4,2,1,75,0,0
90387,-200,4,2,1,55,0,0
93587,-150.15015015015,4,2,1,55,0,0
94387,-200,4,2,1,55,0,0
95987,-150.01500150015,4,2,1,55,0,0
96787,-200,4,2,1,55,0,0
98387,-300.3003003003,4,2,1,55,0,0
99187,-150.15015015015,4,2,1,55,0,0
99987,-200,4,2,1,55,0,0
102387,-300.3003003003,4,2,1,55,0,0
109587,-200,4,2,1,58,0,0
110387,-172.413793103448,4,2,1,61,0,0
111187,-151.515151515152,4,2,1,67,0,0
111987,-133.333333333333,4,2,1,75,0,0
114387,-1000,4,2,1,85,0,0
115587,-500,4,2,1,85,0,0
115987,-400,4,3,1,85,0,1
116787,-83.3333333333333,4,3,1,85,0,1
117887,-111.111111111111,4,3,1,85,0,1
118187,-83.3333333333333,4,3,1,85,0,1
118387,-166.666666666667,4,3,1,85,0,1
118687,-111.111111111111,4,3,1,85,0,1
118987,-83.3333333333333,4,3,1,85,0,1
119187,-400,4,3,1,85,0,1
119987,-83.3333333333333,4,3,1,85,0,1
120787,-166.666666666667,4,3,1,85,0,1
121087,-111.111111111111,4,3,1,85,0,1
121387,-83.3333333333333,4,3,1,85,0,1
121587,-111.111111111111,4,3,1,85,0,1
121887,-74.0740740740741,4,3,1,85,0,1
122187,-55.5555555555556,4,3,1,85,0,1
122387,-333.333333333333,4,3,1,85,0,1
123187,-83.3333333333333,4,3,1,85,0,1
123987,-166.666666666667,4,3,1,85,0,1
124287,-111.111111111111,4,3,1,85,0,1
124587,-83.3333333333333,4,3,1,85,0,1
124787,-83.3333333333333,4,3,1,85,0,1
125587,-400,4,3,1,85,0,1
126387,-83.3333333333333,4,3,1,85,0,1
127187,-74.0740740740741,4,3,1,85,0,1
127987,-68.9655172413793,4,3,1,85,0,1
128787,-400,4,3,1,85,0,1
129587,-83.3333333333333,4,3,1,85,0,1
130687,-111.111111111111,4,3,1,85,0,1
130987,-83.3333333333333,4,3,1,85,0,1
131187,-166.666666666667,4,3,1,85,0,1
131487,-111.111111111111,4,3,1,85,0,1
131787,-83.3333333333333,4,3,1,85,0,1
131987,-400,4,3,1,85,0,1
132337,-400,4,3,1,85,0,1
132387,-83.3333333333333,4,3,1,85,0,1
135187,-333.333333333333,4,3,1,85,0,1
135987,-83.3333333333333,4,3,1,85,0,1
137087,-111.111111111111,4,3,1,85,0,1
137387,-83.3333333333333,4,3,1,85,0,1
137587,-166.666666666667,4,3,1,85,0,1
137887,-111.111111111111,4,3,1,85,0,1
138187,-83.3333333333333,4,3,1,85,0,1
138387,-400,4,3,1,85,0,1
139187,-83.3333333333333,4,3,1,85,0,1
141587,-500,4,3,1,85,0,1
142387,-83.3333333333333,4,3,1,85,0,1
142787,-250,4,3,1,85,0,1
144787,-400,4,3,1,85,0,1
145137,-400,4,3,1,85,0,1
145187,-100,4,3,1,85,0,1
145587,-83.3333333333333,4,3,1,85,0,1
146687,-111.111111111111,4,3,1,85,0,1
146987,-83.3333333333333,4,3,1,85,0,1
147187,-166.666666666667,4,3,1,85,0,1
147487,-111.111111111111,4,3,1,85,0,1
147787,-83.3333333333333,4,3,1,85,0,1
147987,-400,4,3,1,85,0,1
148787,-83.3333333333333,4,3,1,85,0,1
149187,-333.333333333333,4,3,1,85,0,1
150387,-111.111111111111,4,3,1,85,0,1
150787,-166.666666666667,4,3,1,85,0,1
151187,-333.333333333333,4,3,1,75,0,1
154387,-400,4,2,1,25,0,0
155987,-266.666666666667,4,2,1,25,0,0
157587,-200,4,2,1,25,0,0
160787,-133.333333333333,4,2,1,29,0,0
162387,-114.285714285714,4,2,1,35,0,0
163987,-100,4,2,1,42,0,0
167187,-100,4,2,1,75,0,0
167587,-200,4,2,1,75,0,0
167987,-100,4,2,1,75,0,0
170787,-200,4,2,1,75,0,0
171187,-100,4,2,1,75,0,0
173187,-300.3003003003,4,2,1,75,0,0
173587,-100,4,2,1,75,0,0
175987,-150.15015015015,4,2,1,75,0,0
176187,-100,4,2,1,75,0,0
177987,-150.15015015015,4,2,1,75,0,0
178387,-100,4,2,1,75,0,0
179587,-100,4,2,33,75,0,0
179787,-100,4,2,1,75,0,0
179987,-300.3003003003,4,2,1,45,0,0
180787,-100,4,2,1,75,0,0
181187,-200,4,2,1,75,0,0
181587,-100,4,2,1,75,0,0
182787,-300.3003003003,4,2,1,75,0,0
183187,-100,4,2,1,75,0,0
185987,-303.030303030303,4,2,1,75,0,0
186387,-100,4,2,1,75,0,0
188787,-150.15015015015,4,2,1,75,0,0
188987,-100,4,2,1,75,0,0
190787,-200,4,2,1,75,0,0
191187,-100,4,2,1,75,0,0
192787,-200,4,2,1,65,0,0
213587,-200,4,2,1,73,0,0
215187,-200,4,2,1,85,0,0
218387,-1000,4,2,1,15,0,0
221087,-1000,4,2,1,15,0,0
221187,-200,4,2,1,55,0,0
221587,-400,4,3,1,85,0,1
222387,-75.0187546886722,4,3,1,85,0,1
223487,-100,4,3,1,85,0,1
223787,-75.0018750468762,4,3,1,85,0,1
223987,-150.15015015015,4,3,1,85,0,1
224287,-100,4,3,1,85,0,1
224587,-75.0018750468762,4,3,1,85,0,1
224787,-400,4,3,1,85,0,1
225587,-75.0187546886722,4,3,1,85,0,1
226687,-100,4,3,1,85,0,1
226987,-75.0187546886722,4,3,1,85,0,1
227187,-150.01500150015,4,3,1,85,0,1
227487,-100,4,3,1,85,0,1
227787,-75.0187546886722,4,3,1,85,0,1
227987,-400,4,3,1,85,0,1
228787,-75.0187546886722,4,3,1,85,0,1
229887,-100,4,3,1,85,0,1
230187,-75.0187546886722,4,3,1,85,0,1
230387,-150.15015015015,4,3,1,85,0,1
230687,-100,4,3,1,85,0,1
230987,-75.0187546886722,4,3,1,85,0,1
231187,-400,4,3,1,85,0,1
231987,-75.0187546886722,4,3,1,85,0,1
233587,-57.1428571428571,4,3,1,85,0,1
234387,-400,4,3,1,85,0,1
235187,-75.0187546886722,4,3,1,85,0,1
236287,-100,4,3,1,85,0,1
236587,-75.0187546886722,4,3,1,85,0,1
236787,-150.01500150015,4,3,1,85,0,1
237087,-100,4,3,1,85,0,1
237387,-75.0187546886722,4,3,1,85,0,1
237587,-400,4,3,1,85,0,1
237937,-400,4,3,1,85,0,1
237987,-100,4,3,1,85,0,1
238387,-75.187969924812,4,3,1,85,0,1
239487,-100,4,3,1,85,0,1
239787,-75.187969924812,4,3,1,85,0,1
239987,-150.01500150015,4,3,1,85,0,1
240287,-100,4,3,1,85,0,1
240587,-75.187969924812,4,3,1,85,0,1
240787,-400,4,3,1,85,0,1
241587,-75.0187546886722,4,3,1,85,0,1
242687,-100,4,3,1,85,0,1
242987,-75.0187546886722,4,3,1,85,0,1
243187,-150.01500150015,4,3,1,85,0,1
243487,-100,4,3,1,85,0,1
243787,-75.0187546886722,4,3,1,85,0,1
243987,-400,4,3,1,85,0,1
244787,-75.187969924812,4,3,1,85,0,1
245587,-66.6666666666667,4,3,1,85,0,1
246787,-57.1428571428571,4,3,1,85,0,1
247187,-333.333333333333,4,3,1,85,0,1
247987,-75.187969924812,4,3,1,85,0,1
248387,-200,4,3,1,85,0,1
249587,-285.714285714286,4,3,1,85,0,1
250387,-400,4,3,1,85,0,1
250737,-400,4,3,1,85,0,1
250787,-100,4,3,1,85,0,1
251187,-75.187969924812,4,3,1,85,0,1
252787,-100,4,3,1,85,0,1
253087,-75.0187546886722,4,3,1,85,0,1
253387,-50,4,3,1,85,0,1
253587,-333.333333333333,4,3,1,85,0,1
254387,-75.0187546886722,4,3,1,85,0,1
254787,-200,4,3,1,85,0,1
256787,-333.333333333333,4,3,1,65,0,1
259987,-200,4,2,1,55,0,0

[Colours]
Combo1 : 168,189,196
Combo2 : 101,161,182
Combo3 : 112,120,200
Combo4 : 97,173,138
Combo5 : 107,245,182
Combo6 : 130,142,255
Combo7 : 104,215,255
Combo8 : 255,84,15

[HitObjects]
256,192,787,12,0,12587,0:0:0:0:
153,198,12987,118,0,B|177:87|266:41|326:100|347:202|248:274|159:220|121:138|124:136|127:132|10:36|-62:99|-82:173|-13:246|54:245|116:106,1,731.5
43,25,26387,6,0,P|41:30|41:35,7,11,2|0|0|0|0|0|0|0,0:0|0:0|0:0|0:0|0:0|0:0|0:0|0:0,0:0:0:0:
10,95,27987,2,0,P|11:100|15:104,7,11
121,259,29587,102,0,L|118:246,7,11,2|0|0|0|0|0|0|0,0:0|0:0|0:0|0:0|0:0|0:0|0:0|0:0,0:0:0:0:
143,184,31187,2,0,L|140:171,7,11
298,42,32787,6,0,L|312:43,7,11,2|0|0|0|0|0|0|0,0:0|0:0|0:0|0:0|0:0|0:0|0:0|0:0,0:0:0:0:
379,15,34387,2,0,L|389:27,7,16.49999949646
482,146,35987,102,0,L|480:165,7,19.8000004833985,2|0|0|0|0|0|0|0,0:0|0:0|0:0|0:0|0:0|0:0|0:0|0:0,0:0:0:0:
427,225,37587,2,0,L|428:250,7,26.4000006445313
194,312,39187,21,2,0:0:0:0:
210,223,39387,1,0,0:0:0:0:
299,239,39587,1,0,0:0:0:0:
283,328,39787,1,0,0:0:0:0:
203,215,39987,2,0,L|197:160,1,52.8000012890625
298,57,40787,86,0,B|322:90|322:90|312:153,1,105.600002578125
40,118,42387,5,2,0:0:0:0:
110,153,42587,1,0,0:0:0:0:
166,97,42787,1,0,0:0:0:0:
130,27,42987,1,0,0:0:0:0:
52,39,43187,2,0,L|-9:48,1,52.8000012890625
110,153,43987,22,0,L|149:159,3,39.6000009667969
444,259,45587,101,2,0:0:0:0:
419,335,45787,1,0,0:0:0:0:
365,275,45987,1,0,0:0:0:0:
390,199,46187,1,0,0:0:0:0:
444,259,46387,2,0,L|501:268,1,52.8000012890625
436,125,47187,86,0,B|402:103|402:103|340:122,1,105.600002578125
340,122,48387,1,0,0:0:0:0:
340,122,48587,1,0,0:0:0:0:
266,263,48787,6,0,L|274:318,1,52.8000012890625,2|0,0:0|0:0,0:0:0:0:
270,322,49387,1,0,0:0:0:0:
147,273,50187,21,0,0:0:0:0:
142,279,50387,2,0,L|150:334,1,52.8000012890625
146,338,50987,1,0,0:0:0:0:
75,41,51987,22,0,B|128:47|128:47|134:50|134:50|183:56,1,110,2|2,1:2|0:0,0:0:0:0:
193,50,52587,2,0,L|184:8,1,36.6300008942871,2|0,1:2|0:0,0:0:0:0:
283,279,52787,38,0,P|341:279|316:171,1,165,10|0,0:0|0:0,0:0:0:0:
395,119,53187,2,0,P|364:101|330:111,1,73.2600017885743,2|0,0:0|0:0,0:0:0:0:
273,206,53587,2,0,L|282:278,1,73.2600017885743,2|0,0:0|0:0,0:0:0:0:
278,285,54187,1,0,1:0:0:0:
25,200,54387,86,0,B|87:229|131:187|111:158|162:114|220:144,1,219.780005365723,10|0,0:0|0:0,0:0:0:0:
225,151,55187,2,0,L|238:64,1,73.2600017885743,2|2,1:2|0:0,0:0:0:0:
242,85,55787,2,0,L|278:78,1,36.6300008942871,2|0,1:2|0:0,0:0:0:0:
486,164,55987,86,0,P|411:145|372:211,1,165,10|0,0:0|0:0,0:0:0:0:
299,291,56387,2,0,P|351:298|368:348,2,109.989001547392,2|0|0,0:0|0:0|0:0,0:0:0:0:
302,300,57387,1,0,1:0:0:0:
43,358,57587,6,0,B|53:267|53:267|59:252|59:252|57:237|57:237|68:140,1,220,8|0,0:0|0:0,0:0:0:0:
239,57,58187,1,2,0:0:0:0:
188,106,58387,2,0,P|139:88|137:37,1,110,2|2,1:2|0:0,0:0:0:0:
133,30,58987,2,0,L|177:21,1,36.6300008942871,2|0,1:2|0:0,0:0:0:0:
333,218,59187,38,0,B|258:208|258:208|247:210|247:210|170:200,1,165,10|0,0:0|0:0,0:0:0:0:
164,206,59587,2,0,L|176:278,1,73.2600017885743,2|0,0:0|0:0,0:0:0:0:
233,384,59987,2,0,P|250:352|284:341,1,73.2600017885743,2|0,0:0|0:0,0:0:0:0:
291,345,60587,1,0,1:0:0:0:
457,181,60787,86,0,P|407:241|333:217,1,165,10|0,0:0|0:0,0:0:0:0:
376,125,61187,1,2,0:0:0:0:
457,181,61387,1,2,0:0:0:0:
298,151,61587,2,0,L|224:139,1,73.2600017885743,2|2,1:2|0:0,0:0:0:0:
220,146,62187,2,0,L|159:157,1,36.6300008942871,2|0,1:2|0:0,0:0:0:0:
40,319,62387,86,0,B|17:345|-5:345|-5:345|40:391|105:388|142:342,1,220,8|0,0:0|0:0,0:0:0:0:
201,227,62987,2,0,P|204:254|212:280,1,55,2|0,1:2|0:0,0:0:0:0:
219,284,63187,1,2,0:0:0:0:
78,173,63387,2,0,P|99:122|112:69,1,109.890002682861,0|0,1:0|0:0,0:0:0:0:
109,61,63787,1,2,1:2:0:0:
259,239,63987,6,0,B|236:257|222:281|222:281|217:253|202:230,1,110,8|0,0:0|0:0,0:0:0:0:
109,61,64387,37,0,1:0:0:0:
270,36,64587,1,0,1:0:0:0:
431,11,64787,86,0,P|391:44|403:95,1,109.890002682861,0|0,1:0|0:0,0:0:0:0:
410,104,65187,2,0,P|448:100|477:122,1,73.2600017885743,2|2,0:0|1:2,0:0:0:0:
479,294,65587,86,0,B|375:279|375:279|367:281|367:281|261:265,1,220,10|2,0:0|0:0,0:0:0:0:
255,259,66187,1,2,0:0:0:0:
218,354,66387,2,0,P|185:369|151:360,1,73.2600017885743,2|2,0:0|0:0,0:0:0:0:
89,312,66987,2,0,P|105:303|115:288,1,36.6630005157972,2|0,1:2|0:0,0:0:0:0:
109,118,67187,6,0,B|170:93|212:138|198:155|247:200|306:172,1,220,10|2,0:0|0:0,0:0:0:0:
283,45,67787,1,2,0:0:0:0:
109,118,67987,38,0,L|120:181,1,54.9450013414307,0|0,1:0|0:0,0:0:0:0:
111,182,68387,1,2,0:0:0:0:
2,85,68587,1,2,1:2:0:0:
183,12,68787,86,0,B|288:26|288:26|293:30|293:30|399:45,1,220,10|2,0:0|0:0,0:0:0:0:
405,54,69387,1,2,0:0:0:0:
347,111,69587,1,2,0:0:0:0:
347,111,69787,2,0,P|365:131|391:136,1,55,0|0,1:0|0:0,0:0:0:0:
489,170,69987,2,0,P|455:182|436:212,1,73.2600017885743,2|0,1:2|0:0,0:0:0:0:
266,378,70387,86,0,B|256:287|256:287|250:272|250:272|252:257|252:257|241:160,1,220,10|2,0:0|0:0,0:0:0:0:
226,33,70987,1,2,0:0:0:0:
154,50,71187,2,0,P|160:85|191:102,1,73.2600017885743,0|0,1:0|0:0,0:0:0:0:
203,99,71787,1,0,1:0:0:0:
5,191,71987,6,0,P|48:136|133:172,1,165,10|0,0:0|0:0,0:0:0:0:
197,185,72387,2,0,L|184:257,1,73.2600017885743,2|2,0:0|0:0,0:0:0:0:
91,353,72787,2,0,B|68:325|68:325|79:288,1,73.2600017885743,2|2,0:0|0:0,0:0:0:0:
85,290,73387,1,0,1:0:0:0:
167,384,73587,38,0,L|203:377,1,36.6300008942871,10|0,0:0|0:0,0:0:0:0:
274,360,73787,2,0,L|328:350,1,55,0|0,1:0|0:0,0:0:0:0:
411,214,73987,2,0,B|418:230|418:230|293:209|293:209|308:193,1,165,2|0,0:0|0:0,0:0:0:0:
314,189,74387,2,0,L|324:268,1,73.2600017885743,0|2,1:0|0:0,0:0:0:0:
380,136,74987,2,0,L|388:86,1,36.6300008942871,2|0,1:2|0:0,0:0:0:0:
297,19,75187,86,0,P|274:75|176:73,1,165,10|0,0:0|0:0,0:0:0:0:
103,83,75587,2,0,P|82:54|92:20,1,73.3260010315944,2|2,0:0|1:2,0:0:0:0:
186,86,75987,2,0,L|180:126,1,36.6300008942871,2|0,0:0|1:0,0:0:0:0:
94,157,76387,2,0,L|100:197,1,36.6300008942871,2|0,1:2|0:0,0:0:0:0:
199,330,76787,85,10,0:0:0:0:
50,284,76987,1,0,1:0:0:0:
50,284,77087,1,0,1:0:0:0:
68,360,77187,37,4,0:0:0:0:
125,307,77387,85,0,1:0:0:0:
182,261,77587,38,0,L|187:228,1,33.3300013934968,0|2,1:0|0:0,0:0:0:0:
189,217,78187,1,2,1:2:0:0:
440,260,78387,86,0,P|415:332|340:321,1,165,10|0,0:0|0:0,0:0:0:0:
267,316,78787,2,0,P|253:283|270:252,1,73.2600017885743,2|2,0:0|0:0,0:0:0:0:
398,172,79187,2,0,L|325:162,1,73.2600017885743,2|2,0:0|0:0,0:0:0:0:
321,166,79787,1,0,1:0:0:0:
186,7,79987,86,0,B|248:-22|292:20|272:49|323:93|381:63,1,219.780005365723,10|2,0:0|0:0,0:0:0:0:
378,57,80587,1,2,0:0:0:0:
194,189,80787,2,0,P|209:160|135:103,1,146.520003577149,0|2,1:0|0:0,0:0:0:0:
123,261,81387,2,0,L|185:276,1,55,0|0,1:0|0:0,0:0:0:0:
412,164,81587,6,0,B|311:178|311:178|292:175|292:175|194:189,1,220,10|2,0:0|0:0,0:0:0:0:
198,195,82187,1,0,0:0:0:0:
290,321,82387,2,0,P|300:294|344:282,1,73.2600017885743,2|2,0:0|0:0,0:0:0:0:
346,287,82987,1,0,1:0:0:0:
400,69,83187,38,0,P|477:81|498:157,1,165,10|0,0:0|0:0,0:0:0:0:
446,247,83587,2,0,P|422:221|386:224,1,73.2600017885743,2|2,0:0|0:0,0:0:0:0:
290,321,83987,2,0,L|299:242,1,73.2600017885743,0|0,1:0|0:0,0:0:0:0:
293,241,84587,1,0,1:0:0:0:
297,63,84787,86,0,B|200:72|200:72|186:65|186:65|80:75,1,220,10|2,0:0|0:0,0:0:0:0:
87,83,85387,2,0,L|80:120,1,36.6300008942871,2|0,0:0|0:0,0:0:0:0:
47,213,85587,2,0,P|96:231|135:195,1,110,2|2,0:0|0:0,0:0:0:0:
81,126,86187,1,0,1:0:0:0:
143,200,86387,86,0,L|179:193,1,36.6300008942871,10|0,0:0|0:0,0:0:0:0:
250,176,86587,2,0,L|304:166,1,55,0|0,1:0|0:0,0:0:0:0:
358,310,86787,2,0,B|365:326|365:326|240:305|240:305|255:289,1,165,2|0,0:0|0:0,0:0:0:0:
391,205,87187,6,0,P|440:222|439:273,1,110,2|2,1:2|0:0,0:0:0:0:
430,275,87787,1,0,1:0:0:0:
305,166,87987,2,0,L|323:58,1,109.890002682861,10|0,0:0|0:0,0:0:0:0:
272,0,88387,2,0,P|250:15|245:41,1,54.9450013414307,0|0,1:0|0:0,0:0:0:0:
323,58,88787,37,0,1:0:0:0:
228,195,88987,1,8,0:0:0:0:
335,322,89187,1,0,0:0:0:0:
430,185,89387,1,0,1:0:0:0:
77,203,89587,85,8,0:0:0:0:
77,203,90387,86,0,B|131:228|177:183|160:158|205:106|265:132,1,220,2|10,1:2|0:0,0:0:0:0:
392,307,91987,2,0,P|361:275|297:288,1,110,2|2,0:0|0:0,0:0:0:0:
330,384,92587,1,0,1:0:0:0:
475,377,92787,2,0,L|462:259,1,110,10|0,0:0|0:0,0:0:0:0:
370,53,93587,6,0,B|389:-8|311:-24|284:6|277:72|319:118,1,219.780005365723,2|0,1:2|1:0,0:0:0:0:
457,143,94387,2,0,B|412:128|379:162|391:178|361:212|312:199,1,165,10|0,0:0|0:0,0:0:0:0:
199,242,95187,2,0,B|206:193|206:193|209:188|209:188|217:134,1,110,2|2,0:0|0:0,0:0:0:0:
211,125,95787,1,0,1:0:0:0:
15,69,95987,2,0,P|117:62|100:153,1,219.978003094783,10|0,0:0|0:0,0:0:0:0:
14,282,96787,38,0,P|20:249|95:239,1,110,2|2,1:2|0:0,0:0:0:0:
93,240,97387,1,0,1:0:0:0:
312,357,97587,2,0,B|234:349|234:349|229:351|229:351|148:342,1,165,10|0,0:0|0:0,0:0:0:0:
199,242,98387,2,0,L|275:232,1,73.2600017885743,2|2,0:0|0:0,0:0:0:0:
279,237,98987,1,0,1:0:0:0:
300,77,99187,2,0,P|226:22|195:119,1,219.780005365723,10|0,0:0|0:0,0:0:0:0:
279,237,99987,86,0,L|389:247,1,110,2|2,1:2|0:0,0:0:0:0:
395,255,100587,1,0,1:0:0:0:
465,86,100787,2,0,P|450:129|386:130,1,110,10|2,0:0|0:0,0:0:0:0:
304,27,101587,1,2,0:0:0:0:
304,17,101787,2,0,P|349:8|382:63,1,110,0|0,1:0|1:0,0:0:0:0:
300,177,102387,2,0,L|293:104,1,73.2600017885743,10|0,0:0|0:0,0:0:0:0:
53,169,103187,85,0,1:0:0:0:
44,96,103587,1,0,1:0:0:0:
110,65,103987,1,0,1:0:0:0:
160,118,104387,1,0,1:0:0:0:
124,182,104787,1,0,1:0:0:0:
53,169,105187,1,0,1:0:0:0:
44,96,105587,1,0,1:0:0:0:
110,65,105987,1,0,1:0:0:0:
185,271,106387,5,0,1:0:0:0:
199,196,106787,1,0,1:0:0:0:
124,182,107187,1,0,1:0:0:0:
110,257,107587,1,0,1:0:0:0:
261,304,107987,37,0,1:0:0:0:
275,379,108387,1,0,1:0:0:0:
350,365,108787,1,0,1:0:0:0:
336,290,109187,1,0,1:0:0:0:
267,94,109587,86,0,L|321:104,1,55,8|0,0:0|1:0,0:0:0:0:
256,161,109987,2,0,L|310:171,1,55,0|0,1:0|1:0,0:0:0:0:
167,23,110387,86,0,L|104:35,1,63.8000019470215,8|0,0:0|1:0,0:0:0:0:
178,90,110787,2,0,L|115:102,1,63.8000019470215,0|0,1:0|1:0,0:0:0:0:
97,302,111187,6,0,P|74:275|76:240,1,72.5999997784424,8|0,0:0|1:0,0:0:0:0:
147,216,111587,2,0,P|170:243|168:278,1,72.5999997784424,0|0,1:0|1:0,0:0:0:0:
291,85,111987,38,0,P|265:115|268:155,1,82.5000031471254,8|0,0:0|1:0,0:0:0:0:
389,195,112387,2,0,P|415:165|412:125,1,82.5000031471254,0|0,1:0|1:0,0:0:0:0:
104,41,112787,85,8,0:0:0:0:
292,85,112987,1,0,1:0:0:0:
156,225,113187,1,8,0:0:0:0:
209,7,113387,1,0,1:0:0:0:
298,201,113587,85,8,0:0:0:0:
43,139,113787,1,0,1:0:0:0:
292,85,113987,1,8,0:0:0:0:
151,255,114187,1,0,1:0:0:0:
30,53,114387,6,0,L|43:-8,1,60.5,0|0,1:0|0:0,0:0:0:0:
48,0,115587,2,0,L|60:2,2,11,8|0|0,0:0|0:0|0:0,0:0:0:0:
192,172,115987,38,0,L|112:155,1,82.5,0|0,1:0|0:0,0:0:0:0:
245,337,116787,86,0,P|261:310|291:299,1,65.9999979858399,8|0,0:0|0:0,0:0:0:0:
480,331,116987,1,2,0:0:0:0:
482,348,117087,2,0,P|421:329|406:268,1,131.99999597168,2|0,0:0|0:0,0:0:0:0:
281,176,117387,2,0,P|313:171|334:143,1,65.9999979858399,2|0,0:0|0:0,0:0:0:0:
483,109,117587,86,0,B|453:89|451:53|451:53|437:86|402:93,1,131.99999597168,2|0,0:0|1:0,0:0:0:0:
326,15,117887,2,0,B|299:13|285:-9|285:-9|288:17|268:34,1,98.9999969787599,2|0,0:0|0:0,0:0:0:0:
169,20,118187,2,0,B|153:28|137:19|137:19|148:34|142:50,1,65.9999979858399,2|0,0:0|0:0,0:0:0:0:
37,244,118387,6,0,P|53:217|84:209,1,65.9999979858399,8|0,0:0|0:0,0:0:0:0:
179,123,118687,2,0,P|226:129|252:169,1,98.9999969787599,2|0,0:0|0:0,0:0:0:0:
356,233,118987,2,0,P|363:264|347:292,1,65.9999979858399,2|0,0:0|0:0,0:0:0:0:
199,360,119187,38,0,B|160:365|160:365|154:367|154:367|117:372,1,82.5,0|0,1:0|0:0,0:0:0:0:
25,182,119987,86,0,P|8:155|12:123,1,65.9999979858399,8|0,0:0|0:0,0:0:0:0:
206,61,120187,1,2,0:0:0:0:
201,46,120287,2,0,P|146:79|139:142,1,131.99999597168,2|0,0:0|0:0,0:0:0:0:
200,240,120587,2,0,P|221:216|253:213,1,65.9999979858399,2|0,0:0|0:0,0:0:0:0:
325,248,120787,86,0,B|324:281|324:281|344:254,1,65.9999979858399,2|0,0:0|1:0,0:0:0:0:
512,278,121087,2,0,B|494:325|494:325|483:277,1,98.9999969787599,2|0,0:0|0:0,0:0:0:0:
390,328,121387,2,0,B|405:357|405:357|409:323,1,65.9999979858399,0|0,1:0|0:0,0:0:0:0:
374,27,121587,6,0,P|416:48|418:95,1,98.9999969787599,8|0,0:0|0:0,0:0:0:0:
465,182,121887,2,0,P|409:227|339:212,1,148.500000566483,2|0,0:0|0:0,0:0:0:0:
235,290,122187,2,0,P|200:255|196:207,1,98.9999969787599,2|2,0:0|0:0,0:0:0:0:
147,23,122387,38,0,B|164:8|164:8|151:88,1,98.9999969787599,0|0,1:0|0:0,0:0:0:0:
6,300,123187,86,0,L|27:363,1,65.9999979858399,8|0,0:0|0:0,0:0:0:0:
105,177,123387,1,2,0:0:0:0:
112,170,123487,2,0,L|123:301,1,131.99999597168,2|0,0:0|0:0,0:0:0:0:
239,206,123787,2,0,L|231:272,1,65.9999979858399,2|0,0:0|0:0,0:0:0:0:
316,327,123987,86,0,P|291:347|259:349,1,65.9999979858399,2|0,0:0|1:0,0:0:0:0:
403,283,124287,2,0,P|439:314|436:362,1,98.9999969787599,2|0,0:0|0:0,0:0:0:0:
231,272,124587,2,0,P|256:251|288:249,1,65.9999979858399,2|0,0:0|0:0,0:0:0:0:
500,75,124787,6,0,B|486:84|478:99|478:99|477:83|468:69,1,65.9999979858399,8|0,0:0|0:0,0:0:0:0:
384,187,124987,1,2,0:0:0:0:
397,180,125087,2,0,P|377:114|309:106,1,131.99999597168,2|0,0:0|0:0,0:0:0:0:
244,0,125387,2,0,P|212:4|192:30,1,65.9999979858399,2|0,0:0|0:0,0:0:0:0:
84,168,125587,38,0,B|122:164|122:164|129:165|129:165|165:160,1,82.5,0|0,1:0|0:0,0:0:0:0:
357,197,126387,86,0,P|326:206|313:235,1,65.9999979858399,8|0,0:0|0:0,0:0:0:0:
170,346,126587,1,2,0:0:0:0:
165,337,126687,2,0,P|221:303|286:304,1,131.99999597168,2|0,0:0|0:0,0:0:0:0:
425,384,126987,2,0,P|404:359|402:326,1,65.9999979858399,2|0,0:0|0:0,0:0:0:0:
472,142,127187,86,0,P|429:199|357:197,1,148.500000566483,2|0,0:0|1:0,0:0:0:0:
300,23,127487,2,0,P|328:88|290:149,1,148.500000566483,2|0,0:0|0:0,0:0:0:0:
163,118,127787,2,0,P|196:131|212:169,1,74.2500002832413,0|0,1:0|0:0,0:0:0:0:
0,384,127987,6,0,P|51:325|129:319,1,159.500004867554,8|0,0:0|0:0,0:0:0:0:
255,273,128287,2,0,P|178:257|134:193,1,159.500004867554,2|0,0:0|0:0,0:0:0:0:
33,183,128587,2,0,P|25:144|38:107,1,79.7500024337769,2|0,0:0|0:0,0:0:0:0:
124,9,128787,38,0,L|208:19,1,82.5,0|0,1:0|0:0,0:0:0:0:
355,186,129587,86,0,P|331:162|340:115,1,65.9999979858399,8|0,0:0|0:0,0:0:0:0:
481,12,129787,1,2,0:0:0:0:
475,3,129887,2,0,P|427:43|438:118,1,131.99999597168,2|0,0:0|0:0,0:0:0:0:
486,204,130187,2,0,P|477:236|432:252,1,65.9999979858399,2|0,0:0|0:0,0:0:0:0:
323,384,130387,86,0,B|317:318|317:318|251:338,1,131.99999597168,2|0,0:0|1:0,0:0:0:0:
198,244,130687,2,0,B|165:206|165:206|133:246,1,98.9999969787599,2|0,0:0|0:0,0:0:0:0:
48,290,130987,2,0,B|15:281|15:281|14:315,1,65.9999979858399,2|0,0:0|0:0,0:0:0:0:
0,36,131187,6,0,P|1:67|28:85,1,65.9999979858399,8|0,0:0|0:0,0:0:0:0:
125,141,131487,2,0,P|135:94|179:75,1,98.9999969787599,2|0,0:0|0:0,0:0:0:0:
274,0,131787,2,0,P|275:31|302:49,1,65.9999979858399,2|0,0:0|0:0,0:0:0:0:
440,197,131987,38,0,L|434:145,1,48.125,0|0,1:0|0:0,0:0:0:0:
430,142,132387,2,0,B|377:228|462:241|409:330,1,197.99999395752
239,378,132787,86,0,P|262:357|265:324,1,65.9999979858399,8|0,0:0|0:0,0:0:0:0:
215,148,132987,1,2,0:0:0:0:
206,151,133087,2,0,P|234:207|297:208,1,131.99999597168,2|0,0:0|0:0,0:0:0:0:
338,52,133387,2,0,L|256:40,1,65.9999979858399,2|0,0:0|0:0,0:0:0:0:
58,155,133587,86,0,P|26:211|97:236,1,131.99999597168,2|0,0:0|1:0,0:0:0:0:
127,55,133887,2,0,P|94:0|37:48,1,131.99999597168,2|0,0:0|0:0,0:0:0:0:
174,159,134187,2,0,P|203:172|234:162,1,65.9999979858399,0|0,1:0|0:0,0:0:0:0:
379,101,134387,6,0,L|369:166,1,65.9999979858399,8|0,0:0|0:0,0:0:0:0:
245,167,134588,1,0,0:0:0:0:
234,161,134688,2,0,L|259:290,1,131.99999597168,2|0,0:0|0:0,0:0:0:0:
154,327,134988,2,0,L|186:385,1,65.9999979858399,2|2,0:0|0:0,0:0:0:0:
476,373,135187,38,0,B|485:357|485:357|401:366,1,98.9999969787599,0|0,1:0|0:0,0:0:0:0:
321,206,135987,86,0,P|352:213|369:240,1,65.9999979858399,8|0,0:0|0:0,0:0:0:0:
470,209,136187,1,2,0:0:0:0:
480,212,136287,2,0,P|486:148|438:106,1,131.99999597168,2|0,0:0|0:0,0:0:0:0:
347,17,136587,2,0,P|336:47|311:68,1,65.9999979858399,2|0,0:0|0:0,0:0:0:0:
153,77,136787,86,0,B|167:63|173:40|173:40|167:83|185:129,1,131.99999597168,2|0,0:0|1:0,0:0:0:0:
215,249,137087,2,0,B|218:263|230:276|230:276|205:256|168:250,1,98.9999969787599,2|0,0:0|0:0,0:0:0:0:
42,209,137387,2,0,B|32:206|21:209|21:209|40:201|56:181,1,65.9999979858399,2|0,0:0|0:0,0:0:0:0:
327,187,137587,6,0,P|296:196|279:224,1,65.9999979858399,8|2,0:0|0:0,0:0:0:0:
168,250,137887,2,0,P|167:298|203:329,1,98.9999969787599,2|0,0:0|0:0,0:0:0:0:
312,384,138187,2,0,P|325:355|355:342,1,65.9999979858399,2|0,0:0|0:0,0:0:0:0:
424,195,138387,38,0,B|427:160|427:160|429:156|429:156|432:113,1,82.5,0|0,1:0|0:0,0:0:0:0:
289,0,139187,86,0,P|283:32|258:52,1,65.9999979858399,8|0,0:0|0:0,0:0:0:0:
233,164,139387,1,2,0:0:0:0:
240,156,139487,2,0,P|200:112|131:116,1,131.99999597168,2|0,0:0|0:0,0:0:0:0:
57,17,139787,2,0,P|27:40|21:73,1,65.9999979858399,2|0,0:0|0:0,0:0:0:0:
23,235,139987,86,0,L|171:212,1,131.99999597168,2|0,0:0|1:0,0:0:0:0:
154,363,140287,2,0,L|302:386,1,131.99999597168,2|0,0:0|0:0,0:0:0:0:
256,242,140587,2,0,L|321:231,1,65.9999979858399,0|0,1:0|0:0,0:0:0:0:
494,225,140787,6,0,P|463:231|433:219,1,65.9999979858399,8|0,0:0|0:0,0:0:0:0:
348,288,140987,2,0,P|326:263|322:231,1,65.9999979858399,2|0,0:0|0:0,0:0:0:0:
344,35,141187,2,0,P|371:52|383:82,1,65.9999979858399,2|0,0:0|0:0,0:0:0:0:
455,161,141387,2,0,P|453:193|433:219,1,65.9999979858399,2|0,0:0|0:0,0:0:0:0:
349,372,141587,38,0,L|284:383,1,65.9999979858399,0|0,1:0|0:0,0:0:0:0:
148,373,142387,86,0,B|164:276|164:276|163:269|163:269|177:177,1,197.99999395752,8|0,0:0|0:0,0:0:0:0:
128,123,142787,86,0,P|100:141|104:192,1,88,0|0,1:0|0:0,0:0:0:0:
201,105,143387,2,0,P|198:71|152:49,1,88,0|0,1:0|1:0,0:0:0:0:
184,185,143987,6,0,B|255:174|255:174|261:176|261:176|339:164,1,154,8|0,0:0|0:0,0:0:0:0:
415,76,144787,38,0,L|421:28,1,48.125,0|0,1:0|0:0,0:0:0:0:
425,22,145187,2,0,B|339:2|361:80|273:65,1,165
510,166,145587,86,0,P|464:175|450:219,1,65.9999979858399,8|0,0:0|0:0,0:0:0:0:
309,217,145787,1,2,0:0:0:0:
312,205,145887,2,0,P|377:223|393:284,1,131.99999597168,2|0,0:0|0:0,0:0:0:0:
481,377,146187,2,0,P|445:363|418:380,1,65.9999979858399,2|0,0:0|0:0,0:0:0:0:
218,378,146387,86,0,L|246:244,1,131.99999597168,2|0,0:0|1:0,0:0:0:0:
135,236,146687,2,0,L|123:127,1,98.9999969787599,2|0,0:0|0:0,0:0:0:0:
23,156,146987,2,0,L|-2:89,1,65.9999979858399,0|0,1:0|0:0,0:0:0:0:
254,0,147187,6,0,B|262:13|263:29|263:29|273:16|289:9,1,65.9999979858399,8|0,0:0|0:0,0:0:0:0:
325,140,147487,2,0,B|342:124|350:101|350:101|359:124|380:140,1,98.9999969787599,2|0,0:0|0:0,0:0:0:0:
438,33,147787,2,0,B|450:42|457:57|457:57|461:41|474:29,1,65.9999979858399,2|0,0:0|0:0,0:0:0:0:
494,224,147987,38,0,P|453:212|423:254,1,96.25,0|0,1:0|0:0,0:0:0:0:
263,314,148787,86,0,P|316:280|384:378,1,197.99999395752,8|0,0:0|0:0,0:0:0:0:
379,365,149187,2,0,L|303:379,1,65.9999979858399,0|0,1:0|0:0,0:0:0:0:
263,314,149787,2,0,L|187:328,1,65.9999979858399,0|0,1:0|1:0,0:0:0:0:
36,174,150387,86,0,P|77:232|146:220,1,148.49999546814,8|0,0:0|0:0,0:0:0:0:
170,83,150787,2,0,P|154:126|190:155,1,98.9999969787599
258,108,151187,54,0,L|269:36,2,65.9999979858399,0|0|0,1:0|0:0|0:0,0:0:0:0:
262,114,152387,1,0,0:0:0:0:
348,57,152787,2,0,L|338:122,1,65.9999979858399
423,205,153587,2,0,P|376:198|352:238,1,98.9999969787599
309,324,154387,6,0,L|324:326,3,13.75,2|0|0|0,0:0|0:0|0:0|0:0,0:0:0:0:
202,306,154787,2,0,L|187:304,3,13.75
246,369,155187,2,0,L|244:384,3,13.75
264,262,155587,2,0,L|266:247,3,13.75
181,169,155987,102,0,L|179:148,7,20.6250007867813,2|0|0|0|0|0|0|0,0:0|0:0|0:0|0:0|0:0|0:0|0:0|0:0,0:0:0:0:
115,175,156787,2,0,L|113:154,7,20.6250007867813
204,287,157587,6,0,L|231:291,3,27.5,2|0|0|0,0:0|0:0|0:0|0:0,0:0:0:0:
261,359,157987,2,0,L|288:354,3,27.5
329,245,158387,2,0,L|356:240,3,27.5
386,173,158787,2,0,L|413:177,3,27.5
453,240,159187,102,0,P|463:230|476:228,7,27.5,2|0|0|0|0|0|0|0,0:0|0:0|0:0|0:0|0:0|0:0|0:0|0:0,0:0:0:0:
492,153,159987,2,0,P|480:146|472:134,7,27.5
410,11,160787,6,0,L|416:71,3,41.2500015735627,2|0|0|0,0:0|0:0|0:0|0:0,0:0:0:0:
344,16,161187,2,0,L|350:76,3,41.2500015735627
289,157,161587,2,0,L|295:97,3,41.2500015735627
223,152,161987,2,0,L|229:92,3,41.2500015735627
170,45,162387,102,0,P|155:63|132:69,7,48.1250004589558,2|0|0|0|0|0|0|0,0:0|0:0|0:0|0:0|0:0|0:0|0:0|0:0,0:0:0:0:
105,148,163187,2,0,P|81:144|64:127,3,48.1250004589558
8,20,163587,6,0,P|31:23|48:40,1,48.1250004589558
130,24,163787,2,0,P|138:45|132:68,1,48.1250004589558
223,176,163987,102,0,L|154:200,3,55,2|0|0|0,0:0|0:0|0:0|0:0,0:0:0:0:
296,187,164387,2,0,L|351:234,1,55
268,118,164587,2,0,L|278:45,1,55
249,247,164787,2,0,L|241:301,3,55
318,350,165187,2,0,L|326:296,3,55
399,192,165587,5,2,0:0:0:0:
393,198,165687,1,0,0:0:0:0:
384,203,165787,1,0,0:0:0:0:
373,206,165887,1,0,0:0:0:0:
364,206,165987,1,0,0:0:0:0:
352,203,166087,1,0,0:0:0:0:
342,194,166187,1,0,0:0:0:0:
337,177,166287,1,0,0:0:0:0:
342,156,166387,1,0,0:0:0:0:
358,141,166487,1,0,0:0:0:0:
387,130,166587,1,0,0:0:0:0:
427,131,166687,1,0,0:0:0:0:
474,152,166787,1,0,0:0:0:0:
503,202,166887,1,0,0:0:0:0:
505,270,166987,1,0,0:0:0:0:
466,333,167087,1,0,0:0:0:0:
403,286,167187,54,0,B|317:275|317:275|312:277|312:277|238:267,1,165,2|0,1:2|0:0,0:0:0:0:
235,274,167587,2,0,P|258:287|266:313,1,55,0|0,0:0|1:0,0:0:0:0:
114,145,167987,2,0,B|103:236|103:236|106:253|106:253|97:269|97:269|84:362,1,220,10|0,0:0|0:0,0:0:0:0:
109,131,168787,38,0,P|147:104|212:187,1,165,2|0,0:0|0:0,0:0:0:0:
141,207,169187,1,2,0:0:0:0:
9,72,169387,1,0,1:0:0:0:
279,86,169587,2,0,B|242:26|242:26|216:173,1,220,10|0,0:0|0:0,0:0:0:0:
394,347,170387,86,0,B|351:356|321:321|336:303|303:266|256:281,1,165,2|0,1:2|0:0,0:0:0:0:
264,289,170787,2,0,L|253:342,1,55,0|0,0:0|1:0,0:0:0:0:
488,279,171187,2,0,B|477:175|477:175|480:169|480:169|468:60,1,220,10|0,0:0|0:0,0:0:0:0:
187,137,171987,85,2,0:0:0:0:
359,160,172187,1,0,1:0:0:0:
199,32,172387,2,0,P|146:23|109:60,1,110,2|0,1:2|0:0,0:0:0:0:
260,248,172787,2,0,B|271:178|271:178|273:175|273:175|287:85,1,165,10|0,0:0|0:0,0:0:0:0:
239,24,173187,2,0,B|215:10|215:10|198:31,1,55
38,168,173587,6,0,B|107:157|107:157|114:158|114:158|201:145,1,165,2|0,1:2|0:0,0:0:0:0:
207,140,173987,1,2,0:0:0:0:
74,74,174187,1,0,1:0:0:0:
138,287,174387,2,0,B|124:225|211:203|250:260|215:339|168:366,1,220,10|0,0:0|0:0,0:0:0:0:
454,146,175187,38,0,P|438:202|338:207,1,165,2|0,0:0|0:0,0:0:0:0:
341,202,175587,1,2,0:0:0:0:
365,52,175787,1,0,1:0:0:0:
192,162,175987,86,0,L|228:155,1,36.6300008942871,10|0,0:0|0:0,0:0:0:0:
299,138,176187,2,0,L|353:128,1,55,0|0,1:0|0:0,0:0:0:0:
456,338,176387,2,0,B|470:322|470:322|345:301|345:301|352:317,1,165,2|0,0:0|0:0,0:0:0:0:
244,365,176787,86,0,B|223:324|250:287|271:297|299:259|272:214,1,165,2|0,1:2|0:0,0:0:0:0:
227,155,177187,1,2,0:0:0:0:
144,295,177387,1,0,1:0:0:0:
16,94,177587,2,0,P|27:45|142:36,1,165,10|0,0:0|0:0,0:0:0:0:
201,82,177987,2,0,P|167:91|157:125,1,73.2600017885743,2|0,0:0|1:0,0:0:0:0:
227,155,178387,5,2,0:0:0:0:
238,0,178587,1,0,1:0:0:0:
76,147,178787,2,0,B|82:201|82:201|82:206|82:206|89:256,1,110,2|0,1:2|0:0,0:0:0:0:
299,364,179187,37,10,0:0:0:0:
317,224,179387,1,0,1:0:0:0:
317,224,179487,1,0,1:0:0:0:
374,268,179587,101,4,0:0:0:0:
308,294,179787,85,0,1:0:0:0:
293,153,179987,38,0,P|332:135|364:165,1,91.5750022357178,2|0,1:2|0:0,0:0:0:0:
360,171,180587,1,0,1:0:0:0:
161,41,180787,86,0,P|178:116|116:163,1,165,10|0,0:0|0:0,0:0:0:0:
102,173,181187,2,0,P|95:146|72:132,1,55
67,322,181587,86,0,B|146:314|146:314|151:311|151:311|233:303,1,165,2|0,0:0|0:0,0:0:0:0:
235,297,181987,1,2,0:0:0:0:
116,163,182187,1,0,1:0:0:0:
320,123,182387,2,0,P|395:141|407:217,1,165,10|0,0:0|0:0,0:0:0:0:
351,308,182787,2,0,B|340:300|333:287|333:287|329:301|320:310,1,55
243,197,183187,6,0,B|322:206|322:206|326:209|326:209|405:217,1,165,2|0,1:2|0:0,0:0:0:0:
411,225,183587,1,0,0:0:0:0:
320,123,183787,1,0,1:0:0:0:
230,303,183987,2,0,B|174:319|130:277|148:251|100:206|40:231,1,220,10|0,0:0|0:0,0:0:0:0:
224,51,184787,38,0,P|240:107|146:126,1,165,2|0,0:0|0:0,0:0:0:0:
127,67,185187,1,2,0:0:0:0:
301,0,185387,1,0,1:0:0:0:
380,210,185587,2,0,B|298:217|298:217|294:215|294:215|216:223,1,165,10|0,0:0|0:0,0:0:0:0:
156,135,185987,2,0,B|143:159|143:159|141:131,1,54.4499998338318
106,367,186387,86,0,B|156:386|186:345|174:331|206:299|250:314,1,165,2|0,1:2|0:0,0:0:0:0:
256,324,186787,1,2,0:0:0:0:
105,260,186987,1,0,1:0:0:0:
287,111,187187,2,0,B|317:157|317:157|144:132,1,220,10|0,0:0|0:0,0:0:0:0:
82,4,187987,86,0,P|42:7|36:125,1,165,2|0,0:0|0:0,0:0:0:0:
79,166,188387,1,2,0:0:0:0:
164,29,188587,1,0,1:0:0:0:
298,242,188787,6,0,L|262:249,1,36.6300008942871,10|0,0:0|0:0,0:0:0:0:
191,266,188987,2,0,L|137:276,1,55,0|0,1:0|0:0,0:0:0:0:
101,83,189187,2,0,B|87:99|87:99|212:120|212:120|205:104,1,165,2|0,0:0|0:0,0:0:0:0:
298,242,189587,38,0,P|325:168|403:161,1,165,2|0,1:2|0:0,0:0:0:0:
466,222,189987,1,2,0:0:0:0:
381,313,190187,1,0,1:0:0:0:
206,201,190387,2,0,B|214:279|214:279|212:285|212:285|221:365,1,165,10|0,0:0|0:0,0:0:0:0:
216,372,190787,2,0,L|158:362,1,55,2|0,1:2|0:0,0:0:0:0:
29,162,191187,85,2,1:2:0:0:
114,246,191387,2,0,P|85:308|36:301,1,110,8|2,0:0|0:0,0:0:0:0:
29,162,191787,1,0,1:0:0:0:
283,138,191987,1,10,0:0:0:0:
283,138,192787,86,0,P|268:94|209:88,1,110,0|0,1:0|0:0,0:0:0:0:
150,249,193387,1,0,0:0:0:0:
144,242,193587,2,0,B|250:227|250:227|255:229|255:229|361:213,1,220,8|0,0:0|0:0,0:0:0:0:
365,221,194787,1,0,0:0:0:0:
283,138,194987,1,0,1:0:0:0:
234,347,195187,2,0,B|275:366|312:338|301:319|342:293|383:312,1,165,8|0,0:0|0:0,0:0:0:0:
512,207,195987,6,0,B|470:241|470:241|362:214,1,165,0|0,1:0|1:0,0:0:0:0:
247,49,196787,2,0,B|353:36|353:36|359:38|359:38|465:25,1,220,8|0,0:0|0:0,0:0:0:0:
462,33,197987,1,0,0:0:0:0:
416,132,198187,1,0,1:0:0:0:
247,49,198387,2,0,P|187:11|161:87,1,165,8|0,0:0|0:0,0:0:0:0:
268,199,199187,38,0,B|206:192|206:192|187:184|187:184|167:187|167:187|105:180,1,165,0|0,1:0|1:0,0:0:0:0:
316,97,199987,2,0,B|378:155|378:155|342:285,1,220,8|0,0:0|0:0,0:0:0:0:
336,291,201387,1,0,1:0:0:0:
260,374,201587,2,0,B|221:390|185:356|195:342|162:305|115:324,1,165,8|0,0:0|0:0,0:0:0:0:
25,192,202387,86,0,P|107:200|185:176,1,165,0|0,1:0|1:0,0:0:0:0:
277,6,203187,2,0,P|257:-3|211:59,1,110,8|0,0:0|0:0,0:0:0:0:
208,52,203987,1,0,0:0:0:0:
284,143,204187,2,0,B|344:135|344:135|349:136|349:136|393:130,1,110,0|0,1:0|1:0,0:0:0:0:
271,246,204787,2,0,P|196:250|185:176,1,165,8|0,0:0|0:0,0:0:0:0:
357,220,205587,85,0,1:0:0:0:
357,220,205987,1,0,1:0:0:0:
243,361,206387,1,0,1:0:0:0:
243,361,206787,1,0,1:0:0:0:
100,248,207187,5,0,1:0:0:0:
100,248,207587,1,0,1:0:0:0:
214,106,207987,1,0,1:0:0:0:
214,106,208387,1,0,1:0:0:0:
352,339,208787,37,0,1:0:0:0:
352,339,209187,1,0,1:0:0:0:
136,316,209587,85,0,1:0:0:0:
136,316,209987,1,0,1:0:0:0:
385,243,210387,85,0,1:0:0:0:
385,243,210787,1,0,1:0:0:0:
115,214,211187,5,0,1:0:0:0:
115,214,211587,1,0,1:0:0:0:
341,24,211987,37,8,0:0:0:0:
356,102,212187,1,0,1:0:0:0:
263,39,212387,1,0,1:0:0:0:
278,117,212587,1,0,1:0:0:0:
126,174,212787,85,8,0:0:0:0:
111,252,212987,1,0,1:0:0:0:
204,189,213187,1,0,1:0:0:0:
189,267,213387,1,0,1:0:0:0:
455,199,213587,85,8,0:0:0:0:
290,223,213787,1,0,1:0:0:0:
467,279,213987,1,0,1:0:0:0:
302,303,214187,1,0,1:0:0:0:
216,109,214387,5,8,0:0:0:0:
381,133,214587,1,0,1:0:0:0:
204,189,214787,1,0,1:0:0:0:
369,213,214987,1,0,1:0:0:0:
120,332,215187,37,8,0:0:0:0:
91,136,215387,1,0,1:0:0:0:
270,252,215587,1,8,0:0:0:0:
65,230,215787,1,0,1:0:0:0:
259,112,215987,85,8,0:0:0:0:
230,352,216187,1,0,1:0:0:0:
91,136,216387,1,8,0:0:0:0:
319,210,216587,1,0,1:0:0:0:
223,360,216787,85,0,1:0:0:0:
175,275,216987,1,0,1:0:0:0:
156,340,217187,1,0,1:0:0:0:
241,293,217387,1,0,1:0:0:0:
71,118,217587,5,8,0:0:0:0:
71,118,218387,38,0,P|118:174|190:174,1,148.5
228,80,221187,70,0,B|214:65|211:43|211:43|203:63|183:73,1,82.4999974822999,8|0,0:0|0:0,0:0:0:0:
163,282,221587,38,0,L|247:270,1,82.5,0|0,1:0|0:0,0:0:0:0:
393,383,222387,86,0,P|413:354|448:347,1,73.3150015997384,8|0,0:0|0:0,0:0:0:0:
481,229,222587,1,2,0:0:0:0:
474,240,222687,2,0,P|404:235|372:172,1,146.630003199477,2|0,0:0|0:0,0:0:0:0:
423,15,222987,2,0,P|429:50|409:79,1,73.3150015997384,2|0,0:0|0:0,0:0:0:0:
257,59,223187,86,0,P|272:129|271:235,1,146.630003199477,2|0,0:0|1:0,0:0:0:0:
115,204,223487,2,0,P|136:153|142:99,1,110,2|0,0:0|0:0,0:0:0:0:
48,36,223787,2,0,P|33:68|0:83,1,73.3150015997384,2|0,0:0|0:0,0:0:0:0:
55,364,223987,6,0,P|74:331|114:320,1,73.2600017885743,8|0,0:0|0:0,0:0:0:0:
199,205,224287,2,0,P|189:258|217:304,1,110,2|0,0:0|0:0,0:0:0:0:
382,370,224587,2,0,P|359:341|324:334,1,73.2600017885743,2|0,0:0|0:0,0:0:0:0:
206,211,224787,38,0,L|289:198,1,82.5,0|0,1:0|0:0,0:0:0:0:
475,72,225587,86,0,B|462:57|462:38|462:38|450:53|432:58,1,73.3150015997384,8|0,0:0|0:0,0:0:0:0:
271,102,225787,1,2,0:0:0:0:
270,90,225887,2,0,P|328:92|385:182,1,146.630003199477,2|0,0:0|0:0,0:0:0:0:
481,244,226187,2,0,P|430:258|413:296,1,73.3150015997384,2|0,0:0|0:0,0:0:0:0:
269,343,226387,86,0,L|287:197,1,146.630003199477,2|0,0:0|1:0,0:0:0:0:
176,318,226687,2,0,L|165:197,1,110,2|0,0:0|0:0,0:0:0:0:
87,341,226987,2,0,L|65:271,1,73.3150015997384,0|0,1:0|0:0,0:0:0:0:
211,120,227187,6,0,P|175:125|147:104,1,73.3260010315944,8|0,0:0|0:0,0:0:0:0:
27,20,227487,2,0,P|37:71|0:107,1,110,2|0,0:0|0:0,0:0:0:0:
167,27,227787,2,0,P|202:21|230:42,1,73.3260010315944,2|2,0:0|0:0,0:0:0:0:
287,197,227987,38,0,B|290:239|290:239|288:243|288:243|292:279,1,82.5,0|0,1:0|0:0,0:0:0:0:
335,53,228787,86,0,P|323:86|291:103,1,73.3150015997384,8|0,0:0|0:0,0:0:0:0:
147,104,228987,1,2,0:0:0:0:
155,96,229087,2,0,P|193:156|165:221,1,146.630003199477,2|0,0:0|0:0,0:0:0:0:
222,352,229387,2,0,P|197:325|161:320,1,73.3150015997384,2|0,0:0|0:0,0:0:0:0:
11,246,229587,86,0,B|36:273|39:312|39:312|52:276|89:259,1,146.630003199477,2|0,0:0|1:0,0:0:0:0:
165,221,229887,2,0,B|173:194|197:178|197:178|169:183|145:166,1,110,2|0,0:0|0:0,0:0:0:0:
63,121,230187,2,0,B|45:125|27:116|27:116|39:131|37:151,1,73.3150015997384,2|0,0:0|0:0,0:0:0:0:
274,11,230387,6,0,P|250:34|248:79,1,73.2600017885743,8|2,0:0|0:0,0:0:0:0:
197,178,230687,2,0,P|220:226|271:241,1,110,2|0,0:0|0:0,0:0:0:0:
366,333,230987,2,0,P|398:325|422:287,1,73.3150015997384,2|0,0:0|0:0,0:0:0:0:
467,95,231187,38,0,B|429:97|429:97|423:99|423:99|385:100,1,82.5,0|0,1:0|0:0,0:0:0:0:
304,300,231987,86,0,P|348:317|387:286,1,73.3150015997384,8|0,0:0|0:0,0:0:0:0:
130,283,232187,1,2,0:0:0:0:
139,274,232287,2,0,P|198:310|190:379,1,146.630003199477,2|0,0:0|0:0,0:0:0:0:
283,174,232587,2,0,P|270:207|237:220,1,73.3150015997384,2|0,0:0|0:0,0:0:0:0:
48,159,232787,86,0,B|121:151|121:151|129:152|129:152|193:144,1,146.630003199477,2|0,0:0|1:0,0:0:0:0:
373,241,233087,2,0,P|351:175|282:175,1,146.630003199477,2|0,0:0|0:0,0:0:0:0:
254,0,233387,2,0,P|243:45|195:56,1,73.3150015997384,0|0,1:0|0:0,0:0:0:0:
194,378,233587,6,0,B|153:348|153:348|295:330,1,192.500001835823,8|0,0:0|0:0,0:0:0:0:
484,224,233887,2,0,B|514:263|514:263|374:241,1,192.500001835823,2|0,0:0|0:0,0:0:0:0:
193,144,234187,2,0,B|167:186|167:186|195:223,1,96.2500009179115,2|0,0:0|0:0,0:0:0:0:
383,323,234387,38,0,L|373:241,1,82.5,0|0,1:0|0:0,0:0:0:0:
91,337,235187,86,0,P|63:291|81:258,1,73.3150015997384,8|0,0:0|0:0,0:0:0:0:
193,144,235387,1,2,0:0:0:0:
199,156,235487,2,0,P|128:159|89:102,1,146.630003199477,2|0,0:0|0:0,0:0:0:0:
145,249,235787,2,0,P|173:295|155:328,1,73.3150015997384,2|0,0:0|0:0,0:0:0:0:
419,355,235987,86,0,P|345:341|322:267,1,146.630003199477,2|0,0:0|1:0,0:0:0:0:
292,135,236287,2,0,P|324:185|386:183,1,110,2|0,0:0|0:0,0:0:0:0:
499,229,236587,2,0,P|463:235|439:262,1,73.3150015997384,2|0,0:0|0:0,0:0:0:0:
308,45,236787,6,0,B|289:39|280:22|280:22|273:40|255:49,1,73.3260010315944,8|0,0:0|0:0,0:0:0:0:
126,112,237087,2,0,P|158:109|211:174,1,110,2|0,0:0|0:0,0:0:0:0:
255,258,237387,2,0,P|220:266|201:296,1,73.3150015997384,2|0,0:0|0:0,0:0:0:0:
17,215,237587,38,0,L|8:167,1,48.125,0|0,1:0|0:0,0:0:0:0:
11,160,237987,2,0,B|55:136|91:173|77:188|109:222|155:206,1,165
401,203,238387,86,0,L|382:127,1,73.149996986313,8|0,0:0|0:0,0:0:0:0:
310,275,238587,1,2,0:0:0:0:
305,284,238687,2,0,L|269:142,1,146.299993972626,2|0,0:0|0:0,0:0:0:0:
321,0,238987,2,0,P|344:26|380:30,1,73.149996986313,2|0,0:0|0:0,0:0:0:0:
488,114,239187,86,0,P|420:135|400:202,1,146.299993972626,2|0,0:0|1:0,0:0:0:0:
305,284,239487,2,0,P|329:333|379:353,1,110,2|0,0:0|0:0,0:0:0:0:
451,246,239787,2,0,P|433:214|399:202,1,73.149996986313,0|0,1:0|0:0,0:0:0:0:
260,31,239987,6,0,L|187:39,1,73.3260010315944,8|0,0:0|0:0,0:0:0:0:
88,148,240287,2,0,L|197:160,1,110,2|0,0:0|0:0,0:0:0:0:
117,0,240587,2,0,L|44:8,1,73.3260010315944,2|2,0:0|0:0,0:0:0:0:
15,201,240787,38,0,L|0:120,1,82.5,0|0,1:0|0:0,0:0:0:0:
304,289,241587,86,0,P|278:314|242:319,1,73.3150015997384,8|0,0:0|0:0,0:0:0:0:
67,286,241787,1,2,0:0:0:0:
77,277,241887,2,0,P|143:302|166:370,1,146.630003199477,2|0,0:0|0:0,0:0:0:0:
201,247,242187,2,0,P|227:222|263:217,1,73.3150015997384,2|0,0:0|0:0,0:0:0:0:
377,239,242387,86,0,L|396:94,1,146.630003199477,2|0,0:0|1:0,0:0:0:0:
249,107,242687,2,0,L|263:217,1,110,2|0,0:0|0:0,0:0:0:0:
135,196,242987,2,0,L|145:124,1,73.3150015997384,2|0,0:0|0:0,0:0:0:0:
373,333,243187,6,0,B|387:343|396:360|396:360|397:342|409:327,1,73.3260010315944,8|2,0:0|0:0,0:0:0:0:
409,148,243487,2,0,B|438:151|462:140|462:140|447:163|444:191,1,110,2|0,0:0|0:0,0:0:0:0:
249,251,243787,2,0,B|241:232|226:222|226:222|245:223|262:216,1,73.3260010315944,2|0,0:0|0:0,0:0:0:0:
156,50,243987,38,0,L|73:42,1,82.5,0|0,1:0|0:0,0:0:0:0:
364,4,244787,86,0,P|329:12|306:40,1,73.149996986313,8|0,0:0|0:0,0:0:0:0:
446,190,244987,1,2,0:0:0:0:
456,177,245087,2,0,P|404:128|334:139,1,146.299993972626,2|0,0:0|0:0,0:0:0:0:
262,216,245387,2,0,P|290:237|302:272,1,73.149996986313,2|0,0:0|0:0,0:0:0:0:
414,367,245587,86,0,B|334:359|334:359|329:359|329:359|250:349,1,165.000006294251,2|0,0:0|1:0,0:0:0:0:
60,226,245887,2,0,P|37:307|131:323,1,165.000006294251,2|0,0:0|0:0,0:0:0:0:
137,119,246187,2,0,P|97:113|64:136,1,82.5000031471254,0|0,1:0|0:0,0:0:0:0:
301,272,246387,6,0,P|316:234|351:214,1,82.5000031471254,8|0,0:0|0:0,0:0:0:0:
407,135,246587,2,0,P|446:128|481:148,1,82.5000031471254,2|0,0:0|0:0,0:0:0:0:
414,367,246787,2,0,L|400:271,1,96.2500009179115,2|0,0:0|0:0,0:0:0:0:
298,160,246987,2,0,L|284:64,1,96.2500009179115,2|0,0:0|0:0,0:0:0:0:
233,0,247187,38,0,P|189:23|189:70,1,98.9999969787599,0|0,1:0|0:0,0:0:0:0:
301,178,247987,86,0,B|196:169|196:169|185:171|185:171|82:161,1,219.449990958939,8|0,0:0|0:0,0:0:0:0:
78,168,248387,86,0,P|125:192|131:245,1,110,0|0,1:0|0:0,0:0:0:0:
59,295,248987,2,0,P|12:270|6:218,1,110,0|0,1:0|1:0,0:0:0:0:
131,245,249587,6,0,B|136:303|136:303|135:308|135:308|141:360,1,115.49999647522,8|0,0:0|0:0,0:0:0:0:
299,113,250387,38,0,L|304:66,1,48.125,0|0,1:0|0:0,0:0:0:0:
310,73,250787,2,0,B|396:93|374:15|460:29,1,165
438,250,251187,86,0,P|419:280|384:288,1,73.149996986313,8|0,0:0|0:0,0:0:0:0:
180,308,251387,1,2,0:0:0:0:
186,315,251487,2,0,B|216:301|236:264|236:264|240:305|267:330,1,146.299993972626,2|0,0:0|0:0,0:0:0:0:
330,174,251787,2,0,B|316:186|314:206|314:206|304:188|289:181,1,73.149996986313,2|0,0:0|0:0,0:0:0:0:
121,33,251987,86,0,P|187:52|198:120,1,146.299993972626,2|0,0:0|1:0,0:0:0:0:
14,210,252287,2,0,P|64:162|128:187,1,146.299993972626,2|0,0:0|0:0,0:0:0:0:
289,181,252587,2,0,P|259:201|248:236,1,73.149996986313,0|0,1:0|0:0,0:0:0:0:
74,322,252787,6,0,B|65:334|48:343|48:343|86:331|123:331,1,110,8|0,0:0|0:0,0:0:0:0:
361,283,253087,2,0,B|372:299|395:311|395:311|344:296|294:296,1,146.630003199477,2|0,0:0|0:0,0:0:0:0:
128,187,253387,2,0,B|119:199|102:208|102:208|140:196|177:196,1,110,2|0,0:0|0:0,0:0:0:0:
350,132,253587,38,0,P|296:144|291:187,1,98.9999969787599,0|0,1:0|0:0,0:0:0:0:
472,264,254387,86,0,B|463:157|463:157|465:150|465:150|457:44,1,219.945004799215,8|0,0:0|0:0,0:0:0:0:
462,49,254787,2,0,P|428:89|377:79,1,109.972502399608,0|0,1:0|0:0,0:0:0:0:
309,19,255387,86,0,P|360:29|377:79,1,109.972502399608,0|0,1:0|1:0,0:0:0:0:
381,197,255987,6,0,L|209:174,1,165,8|0,0:0|0:0,0:0:0:0:
142,45,256787,38,0,L|151:112,2,65.9999979858399,0|0|0,1:0|0:0|0:0,0:0:0:0:
145,38,257987,1,0,0:0:0:0:
76,121,258387,2,0,L|67:55,2,65.9999979858399
157,350,259987,86,0,B|142:323|212:329|199:354|242:357|250:342,1,110,2|0,1:2|0:0,0:0:0:0:
