osu file format v14

[General]
AudioFilename: audio.mp3
AudioLeadIn: 0
PreviewTime: 151219
Countdown: 0
SampleSet: Soft
StackLeniency: 0.3
Mode: 0
LetterboxInBreaks: 0
WidescreenStoryboard: 0

[Editor]
Bookmarks: 27790,55219,81790,110076,137504,151219,178647,209504,236933,250647,264362,291790,322647,346647
DistanceSpacing: 0.9
BeatDivisor: 4
GridSize: 16
TimelineZoom: 3.699998

[Metadata]
Title:December (feat. Davey Havok)
TitleUnicode:December (feat. Davey Havok)
Artist:Seven Lions
ArtistUnicode:Seven Lions
Creator:Altai
Version:Snowpoint
Source:
Tags:electronic english edm dance music heatwave The Throes of Winter Casablanca Records Republic dubstep melodic drumstep
BeatmapID:2747688
BeatmapSetID:1323628

[Difficulty]
HPDrainRate:6
CircleSize:4.3
OverallDifficulty:8.5
ApproachRate:9.4
SliderMultiplier:2.4
SliderTickRate:1

[Events]
//Background and Video events
0,0,"cache_b10bf0b3-8462-474f-c76c-e35ff278f9cf.png",0,0
//Break Periods
//Storyboard Layer 0 (Background)
//Storyboard Layer 1 (Fail)
//Storyboard Layer 2 (Pass)
//Storyboard Layer 3 (Foreground)
//Storyboard Layer 4 (Overlay)
//Storyboard Sound Samples

[TimingPoints]
362,428.571428571429,4,2,1,60,1,0
27790,-142.857142857143,4,2,1,60,0,0
28647,-100,4,2,1,60,0,0
28969,-100,4,2,1,5,0,0
29076,-100,4,2,1,60,0,0
29504,-142.857142857143,4,2,1,60,0,0
30362,-100,4,2,1,60,0,0
30683,-100,4,2,1,5,0,0
30790,-100,4,2,1,60,0,0
31219,-142.857142857143,4,2,1,60,0,0
32076,-100,4,2,1,60,0,0
32397,-100,4,2,1,5,0,0
32504,-100,4,2,1,60,0,0
32933,-142.857142857143,4,2,1,60,0,0
33790,-100,4,2,1,60,0,0
34647,-142.857142857143,4,2,1,60,0,0
34969,-142.857142857143,4,2,1,5,0,0
35076,-83.3333333333333,4,2,1,60,0,0
35397,-83.3333333333333,4,2,1,5,0,0
35504,-100,4,2,1,60,0,0
35826,-100,4,2,1,5,0,0
35933,-100,4,2,1,60,0,0
36362,-142.857142857143,4,2,1,60,0,0
37219,-100,4,2,1,60,0,0
38076,-142.857142857143,4,2,1,60,0,0
38504,-95.2380952380952,4,2,1,60,0,0
38826,-95.2380952380952,4,2,1,5,0,0
38933,-100,4,2,1,60,0,0
39254,-100,4,2,1,5,0,0
39362,-100,4,2,1,60,0,0
39790,-105.263157894737,4,2,1,60,0,0
40004,-105.263157894737,4,2,1,5,0,0
40112,-105.263157894737,4,2,1,60,0,0
40326,-105.263157894737,4,2,1,5,0,0
40433,-105.263157894737,4,2,1,60,0,0
40540,-105.263157894737,4,2,1,5,0,0
40647,-1000,4,2,1,60,0,0
42254,-1000,4,2,1,5,0,0
42362,-100,4,2,1,60,0,0
43219,-142.857142857143,4,2,1,60,0,0
44076,-100,4,2,1,60,0,0
44397,-100,4,2,1,5,0,0
44504,-100,4,2,1,60,0,0
44933,-142.857142857143,4,2,1,60,0,0
45790,-100,4,2,1,60,0,0
46112,-100,4,2,1,5,0,0
46219,-100,4,2,1,60,0,0
47504,-100,4,2,1,60,0,0
47826,-100,4,2,1,5,0,0
47933,-100,4,2,1,60,0,0
48362,-142.857142857143,4,2,1,60,0,0
49219,-100,4,2,1,60,0,0
49540,-100,4,2,1,5,0,0
49647,-100,4,2,1,60,0,0
50076,-142.857142857143,4,2,1,60,0,0
50183,-142.857142857143,4,2,1,5,0,0
50290,-142.857142857143,4,2,1,60,0,0
50933,-100,4,2,1,60,0,0
51790,-142.857142857143,4,2,1,60,0,0
52647,-100,4,2,1,60,0,0
52969,-100,4,2,1,5,0,0
53076,-100,4,2,1,60,0,0
53504,-1000,4,2,1,60,0,0
55112,-1000,4,2,1,5,0,0
55219,-1000,4,2,1,65,0,0
55272,-1000,4,2,1,5,0,0
56933,-200,4,2,1,65,0,0
59933,-111.111111111111,4,2,1,65,0,0
60254,-111.111111111111,4,2,1,5,0,0
60362,-200,4,2,1,65,0,0
62076,-1000,4,2,1,65,0,0
62933,-74.0740740740741,4,2,1,65,0,0
63790,-142.857142857143,4,2,1,65,0,0
64647,-100,4,2,1,65,0,0
64969,-100,4,2,1,5,0,0
65076,-100,4,2,1,65,0,0
65504,-142.857142857143,4,2,1,65,0,0
66362,-100,4,2,1,65,0,0
66683,-100,4,2,1,5,0,0
66790,-100,4,2,1,65,0,0
67862,-50,4,2,1,65,0,0
67969,-50,4,2,1,5,0,0
68076,-1000,4,2,1,65,0,0
68826,-1000,4,2,1,5,0,0
68933,-100,4,2,1,65,0,0
69254,-100,4,2,1,5,0,0
69362,-100,4,2,1,65,0,0
69790,-74.0740740740741,4,2,1,65,0,0
70112,-74.0740740740741,4,2,1,5,0,0
70219,-100,4,2,1,65,0,0
71504,-74.0740740740741,4,2,1,65,0,0
71826,-74.0740740740741,4,2,1,5,0,0
71933,-74.0740740740741,4,2,1,65,0,0
72254,-74.0740740740741,4,2,1,5,0,0
72362,-100,4,2,1,65,0,0
73219,-74.0740740740741,4,2,1,65,0,0
73540,-74.0740740740741,4,2,1,5,0,0
73647,-74.0740740740741,4,2,1,65,0,0
74076,-100,4,2,1,65,0,0
74933,-171.673819742489,4,2,1,65,0,0
75790,-142.857142857143,4,2,1,65,0,0
76647,-100,4,2,1,65,0,0
76969,-100,4,2,1,5,0,0
77076,-142.857142857143,4,2,1,65,0,0
77397,-142.857142857143,4,2,1,5,0,0
77504,-142.857142857143,4,2,1,65,0,0
78362,-100,4,2,1,65,0,0
78683,-100,4,2,1,5,0,0
78790,-100,4,2,1,65,0,0
79219,-50,4,2,1,65,0,0
79647,-142.857142857143,4,2,1,65,0,0
79969,-142.857142857143,4,2,1,5,0,0
80076,-100,4,2,1,65,0,0
80183,-100,4,2,1,5,0,0
80290,-142.857142857143,4,2,1,65,0,0
80612,-142.857142857143,4,2,1,5,0,0
80719,-142.857142857143,4,2,1,65,0,0
81147,-142.857142857143,4,2,1,5,0,0
81254,-100,4,2,1,65,0,0
81683,-100,4,2,1,5,0,0
81790,-40,4,2,1,65,0,0
81897,-50,4,2,1,5,0,0
84362,-200,4,2,2,40,0,0
108362,-200,4,2,2,45,0,0
109326,-200,4,2,2,5,0,0
109433,-200,4,2,2,45,0,0
109647,-153.846153846154,4,2,2,45,0,0
109969,-153.846153846154,4,2,2,5,0,0
110076,-142.857142857143,4,2,1,50,0,0
130647,-142.857142857143,4,2,1,55,0,0
135790,-142.857142857143,4,2,1,60,0,0
136219,-142.857142857143,4,2,1,65,0,0
136647,-142.857142857143,4,2,1,70,0,0
137076,-142.857142857143,4,2,1,75,0,0
137504,-142.857142857143,4,2,1,80,0,0
138362,-133.333333333333,4,2,1,80,0,0
139004,-125,4,2,1,80,0,0
139647,-117.647058823529,4,2,1,80,0,0
140290,-111.111111111111,4,2,1,80,0,0
140933,-105.263157894737,4,2,1,80,0,0
141576,-100,4,2,1,80,0,0
142219,-95.2380952380952,4,2,1,80,0,0
142647,-90.9090909090909,4,2,1,80,0,0
144362,-100,4,2,1,90,0,0
150362,-66.6666666666667,4,2,1,90,0,0
150683,-66.6666666666667,4,2,1,5,0,0
150790,-100,4,2,1,85,0,0
151112,-100,4,2,1,5,0,0
151219,-1000,4,2,1,50,0,0
152076,-74.0740740740741,4,2,1,95,0,1
154647,-250,4,2,1,95,0,0
155076,-95.2380952380952,4,2,1,95,0,0
155504,-74.0740740740741,4,2,1,95,0,1
157433,-142.857142857143,4,2,1,95,0,1
158076,-66.6666666666667,4,2,1,95,0,0
158290,-142.857142857143,4,2,1,95,0,0
158933,-74.0740740740741,4,2,1,95,0,1
161504,-142.857142857143,4,2,1,95,0,0
161933,-66.6666666666667,4,2,1,95,0,0
162362,-74.0740740740741,4,2,1,95,0,1
164719,-100,4,2,1,95,0,1
164933,-1000,4,2,1,95,0,0
165790,-74.0740740740741,4,2,1,95,0,1
168362,-250,4,2,1,95,0,0
168790,-95.2380952380952,4,2,1,95,0,0
169219,-74.0740740740741,4,2,1,95,0,1
171576,-153.846153846154,4,2,1,95,0,1
171790,-57.1428571428571,4,2,1,95,0,0
172004,-100,4,2,1,95,0,0
172647,-74.0740740740741,4,2,1,95,0,1
175219,-74.0740740740741,4,2,1,95,0,0
176076,-66.6666666666667,4,2,1,95,0,1
177790,-66.6666666666667,4,2,1,95,0,1
178647,-100,4,2,1,95,0,0
179290,-133.333333333333,4,2,1,95,0,0
179504,-57.1428571428571,4,2,1,95,0,0
180362,-43.4782608695652,4,2,1,95,0,1
180897,-44.4444444444445,4,2,1,5,0,1
181004,-44.4444444444445,4,2,1,95,0,0
181219,-37.037037037037,4,2,1,95,0,1
181969,-37.037037037037,4,2,1,5,0,1
182076,-100,4,2,1,95,0,0
182719,-133.333333333333,4,2,1,95,0,0
182933,-57.1428571428571,4,2,1,95,0,0
183790,-44.4444444444445,4,2,1,95,0,1
184647,-66.6666666666667,4,2,1,95,0,0
185076,-66.6666666666667,4,2,1,95,0,1
185504,-100,4,2,1,95,0,0
186147,-133.333333333333,4,2,1,95,0,0
186362,-57.1428571428571,4,2,1,95,0,0
187219,-43.4782608695652,4,2,1,95,0,1
187754,-43.4782608695652,4,2,1,5,0,1
187862,-43.4782608695652,4,2,1,95,0,0
188076,-37.037037037037,4,2,1,95,0,1
188826,-37.037037037037,4,2,1,5,0,1
188933,-37.037037037037,4,2,1,95,0,0
189576,-133.333333333333,4,2,1,95,0,0
189790,-57.1428571428571,4,2,1,95,0,0
190647,-44.4444444444445,4,2,1,95,0,1
191504,-66.6666666666667,4,2,1,95,0,0
191933,-66.6666666666667,4,2,1,95,0,1
192362,-100,4,2,1,95,0,0
192790,-133.333333333333,4,2,1,95,0,0
193219,-57.1428571428571,4,2,1,95,0,0
194076,-43.4782608695652,4,2,1,95,0,1
194612,-43.4782608695652,4,2,1,5,0,1
194719,-43.4782608695652,4,2,1,95,0,0
194933,-37.037037037037,4,2,1,95,0,1
195362,-50,4,2,1,95,0,1
195790,-50,4,2,1,95,0,0
196219,-133.333333333333,4,2,1,95,0,0
196647,-57.1428571428571,4,2,1,95,0,0
197504,-44.4444444444445,4,2,1,95,0,1
198790,-400,4,2,1,95,0,1
199112,-400,4,2,1,5,0,1
199219,-400,4,2,1,95,0,0
199647,-133.333333333333,4,2,1,95,0,0
200076,-57.1428571428571,4,2,1,95,0,0
200933,-43.4782608695652,4,2,1,95,0,1
201469,-43.4782608695652,4,2,1,5,0,1
201576,-43.4782608695652,4,2,1,95,0,0
201790,-37.037037037037,4,2,1,95,0,1
202540,-37.037037037037,4,2,1,5,0,1
202647,-37.037037037037,4,2,1,95,0,0
203076,-133.333333333333,4,2,1,95,0,0
203504,-57.1428571428571,4,2,1,95,0,0
204362,-44.4444444444445,4,2,1,95,0,1
205219,-66.6666666666667,4,2,1,95,0,1
206076,-66.6666666666667,4,2,1,95,0,0
206504,-66.6666666666667,4,2,1,95,0,1
206933,-66.6666666666667,4,2,1,95,0,0
207362,-57.1428571428571,4,2,1,95,0,1
207790,-57.1428571428571,4,2,1,95,0,0
208219,-46.5116279069767,4,2,1,95,0,1
208647,-50,4,2,1,95,0,0
209076,-50,4,2,1,95,0,1
209183,-50,4,2,1,95,0,0
209504,-200,4,2,1,70,0,0
209612,-200,4,2,2,40,0,0
209826,-200,4,2,2,5,0,0
209933,-200,4,2,2,40,0,0
210254,-200,4,2,2,5,0,0
210362,-200,4,2,2,40,0,0
211969,-200,4,2,2,5,0,0
212076,-200,4,2,2,40,0,0
212397,-200,4,2,2,5,0,0
212504,-200,4,2,2,40,0,0
213254,-200,4,2,2,5,0,0
213362,-200,4,2,2,40,0,0
213683,-200,4,2,2,5,0,0
213790,-200,4,2,2,40,0,0
215397,-200,4,2,2,5,0,0
215504,-200,4,2,2,40,0,0
215826,-200,4,2,2,5,0,0
215933,-200,4,2,2,40,0,0
216683,-200,4,2,2,5,0,0
216790,-200,4,2,2,40,0,0
217112,-200,4,2,2,5,0,0
217219,-200,4,2,2,40,0,0
218826,-200,4,2,2,5,0,0
218933,-200,4,2,2,40,0,0
219254,-200,4,2,2,5,0,0
219362,-200,4,2,2,40,0,0
220112,-200,4,2,2,5,0,0
220219,-200,4,2,2,40,0,0
220540,-200,4,2,2,5,0,0
220647,-200,4,2,2,40,0,0
222254,-200,4,2,2,5,0,0
222362,-200,4,2,2,40,0,0
222683,-200,4,2,2,5,0,0
222790,-200,4,2,2,40,0,0
223219,-142.857142857143,4,2,1,50,0,0
236933,-125,4,2,1,50,0,0
243790,-125,4,2,1,55,0,0
248933,-125,4,2,1,60,0,0
249362,-125,4,2,1,65,0,0
249790,-125,4,2,1,70,0,0
250219,-125,4,2,1,75,0,0
250647,-111.111111111111,4,2,1,80,0,0
257504,-111.111111111111,4,2,1,90,0,0
263504,-66.6666666666667,4,2,1,90,0,0
263826,-66.6666666666667,4,2,1,5,0,0
263933,-100,4,2,1,85,0,0
264254,-100,4,2,1,5,0,0
264362,-1000,4,2,1,50,0,0
265219,-68.9655172413793,4,2,1,95,0,1
267790,-500,4,2,1,95,0,0
268219,-40,4,2,1,95,0,0
268647,-62.5,4,2,1,95,0,1
270576,-133.333333333333,4,2,1,95,0,1
271219,-62.5,4,2,1,95,0,0
271433,-133.333333333333,4,2,1,95,0,0
271647,-100,4,2,1,95,0,0
272076,-68.9655172413793,4,2,1,95,0,1
274647,-133.333333333333,4,2,1,95,0,0
275076,-62.5,4,2,1,95,0,0
275504,-62.5,4,2,1,95,0,1
277754,-133.333333333333,4,2,1,95,0,1
278076,-1000,4,2,1,95,0,0
278933,-68.9655172413793,4,2,1,95,0,1
281504,-500,4,2,1,95,0,0
281933,-40,4,2,1,95,0,0
282362,-62.5,4,2,1,95,0,1
284719,-100,4,2,1,95,0,1
284933,-40,4,2,1,95,0,0
285147,-62.5,4,2,1,95,0,0
285362,-100,4,2,1,95,0,0
285790,-68.9655172413793,4,2,1,95,0,1
288362,-66.6666666666667,4,2,1,95,0,0
289219,-62.5,4,2,1,95,0,1
291790,-500,4,2,1,50,0,0
295219,-142.857142857143,4,2,1,85,0,1
295647,-62.5,4,2,1,85,0,1
296504,-142.857142857143,4,2,1,85,0,1
296933,-100,4,2,1,85,0,1
298647,-62.5,4,2,1,85,0,1
299076,-250,4,2,1,85,0,1
299504,-62.5,4,2,1,85,0,1
299933,-100,4,2,1,85,0,1
302933,-62.5,4,2,1,85,0,1
303362,-250,4,2,1,85,0,1
305504,-100,4,2,1,85,0,1
305933,-100,4,2,1,85,0,1
306362,-62.5,4,2,1,85,0,1
306790,-100,4,2,1,85,0,1
308933,-83.3333333333333,4,2,1,85,0,1
309362,-62.5,4,2,1,85,0,1
310219,-142.857142857143,4,2,1,85,0,1
312359,-62.5,4,2,1,85,0,1
312790,-250,4,2,1,85,0,1
313219,-83.3333333333333,4,2,1,85,0,1
314933,-62.5,4,2,1,85,0,1
315362,-83.3333333333333,4,2,1,85,0,1
317504,-83.3333333333333,4,2,1,85,0,1
317933,-142.857142857143,4,2,1,85,0,1
319219,-142.857142857143,4,2,1,85,0,0
319326,-142.857142857143,4,2,1,40,0,0
321362,-142.857142857143,4,2,1,50,0,0
321790,-142.857142857143,4,2,1,60,0,0
322219,-142.857142857143,4,2,1,70,0,0
322647,-66.6666666666667,4,2,1,85,0,1
323076,-50,4,2,1,85,0,1
323933,-100,4,2,1,85,0,1
324362,-80,4,2,1,85,0,1
326076,-66.6666666666667,4,2,1,85,0,1
326933,-62.5,4,2,1,85,0,1
327790,-71.4285714285714,4,2,1,85,0,1
328647,-62.5,4,2,1,85,0,1
329504,-66.6666666666667,4,2,1,85,0,1
330362,-58.8235294117647,4,2,1,85,0,1
332933,-71.4285714285714,4,2,1,85,0,1
333790,-62.5,4,2,1,85,0,1
336362,-66.6666666666667,4,2,1,85,0,1
336790,-50,4,2,1,85,0,1
337219,-58.8235294117647,4,2,1,85,0,1
339790,-100,4,2,1,85,0,1
340647,-55.5555555555556,4,2,1,85,0,1
341504,-80,4,2,1,85,0,1
341719,-71.4285714285714,4,2,1,85,0,1
342362,-52.6315789473684,4,2,1,85,0,1
344933,-133.333333333333,4,2,1,85,0,1
346647,-133.333333333333,4,2,1,60,0,0

[Colours]
Combo1 : 73,245,245
Combo2 : 58,79,218
Combo3 : 239,239,239
Combo4 : 41,124,250
Combo5 : 188,188,188

[HitObjects]
22,362,27790,22,0,P|34:317|72:299,1,83.9999974365235,0|0,1:0|0:0,0:0:0:0:
126,233,28219,2,0,P|170:245|188:283,1,83.9999974365235,2|0,0:3|0:0,0:0:0:0:
281,366,28647,22,0,P|298:257|310:182,1,180,8|0,0:0|0:0,0:0:0:0:
368,147,29076,1,2,0:3:0:0:
368,147,29290,1,0,0:0:0:0:
257,18,29504,38,0,P|223:45|216:88,2,83.9999974365235,2|0|2,1:2|0:0|0:3,0:0:0:0:
298,93,30147,1,2,0:2:0:0:
202,184,30362,22,0,P|146:144|34:137,1,180,8|0,0:0|0:0,0:0:0:0:
0,203,30790,1,2,0:3:0:0:
0,203,31004,1,0,0:0:0:0:
112,345,31219,38,0,P|122:304|137:265,1,83.9999974365235,0|0,1:0|0:0,0:0:0:0:
216,294,31647,2,0,P|200:333|190:373,1,83.9999974365235,2|0,0:3|0:0,0:0:0:0:
326,270,32076,22,0,P|309:161|297:86,1,180,8|0,0:0|0:0,0:0:0:0:
238,53,32504,1,2,0:3:0:0:
238,53,32719,1,0,0:0:0:0:
406,135,32933,38,0,P|451:119|462:82,2,83.9999974365235,2|0|2,1:2|0:0|0:3,0:0:0:0:
371,24,33576,1,2,0:2:0:0:
231,211,33790,22,0,B|214:188|214:188|223:154,1,60,8|0,0:0|0:0,0:0:0:0:
295,171,34004,1,0,3:0:0:0:
295,171,34219,1,0,3:0:0:0:
295,171,34433,1,0,3:0:0:0:
219,355,34647,38,0,P|189:306|124:315,1,125.999996154785,4|0,1:2|0:0,0:0:0:0:
2,353,35076,2,0,B|57:387|111:341|84:319|134:268|188:295,1,215.999993408203,2|0,0:3|0:0,0:0:0:0:
368,376,35504,22,0,P|386:285|408:193,1,180,8|0,0:0|0:0,0:0:0:0:
362,131,35933,1,2,0:3:0:0:
366,137,36040,1,2,0:3:0:0:
369,131,36147,1,2,0:3:0:0:
502,24,36362,37,2,1:2:0:0:
429,90,36576,2,0,P|386:58|346:60,1,83.9999974365235,2|2,0:0|0:3,0:0:0:0:
406,200,37004,1,2,0:0:0:0:
174,26,37219,22,0,P|197:86|205:146,1,120,8|2,0:0|0:0,0:0:0:0:
271,43,37647,1,2,0:0:0:0:
271,43,37862,1,0,0:0:0:0:
49,140,38076,38,0,P|77:110|132:115,1,83.9999974365235,0|0,1:0|0:0,0:0:0:0:
117,207,38504,2,0,P|144:142|51:154,1,188.999994232178,2|0,0:3|0:0,0:0:0:0:
5,311,38933,22,0,P|81:286|186:284,1,180,8|0,0:0|0:0,0:0:0:0:
215,354,39362,1,2,0:3:0:0:
215,354,39576,1,0,0:0:0:0:
456,274,39790,38,0,P|459:214|417:188,1,113.999996955872,0|0,1:0|0:0,0:0:0:0:
378,122,40112,2,0,P|312:135|304:184,1,113.999996955872,0|0,1:0|0:0,0:0:0:0:
242,216,40433,2,0,P|270:267|309:269,1,56.9999984779358,0|0,1:0|0:0,0:0:0:0:
511,353,40647,22,0,B|471:359|471:359|468:357|468:357|423:365,1,90,12|0,0:0|0:0,0:0:0:0:
338,332,42362,38,0,P|328:281|382:252,1,120,8|0,0:0|0:0,0:0:0:0:
512,145,42790,1,2,0:3:0:0:
508,155,42897,2,0,P|500:185|495:217,1,60,2|0,0:3|0:0,0:0:0:0:
402,155,43112,21,2,0:3:0:0:
399,144,43219,2,0,P|377:110|335:106,2,83.9999974365235,2|0|2,1:2|0:0|0:3,0:0:0:0:
470,45,43862,1,2,0:0:0:0:
332,179,44076,38,0,P|248:152|152:130,1,180,8|0,0:0|0:0,0:0:0:0:
136,59,44504,1,2,0:3:0:0:
136,59,44719,1,0,0:0:0:0:
90,198,44933,22,0,P|48:204|8:226,1,83.9999974365235,0|0,1:0|0:0,0:0:0:0:
48,335,45362,2,0,P|90:329|130:307,1,83.9999974365235,2|0,0:3|0:0,0:0:0:0:
259,195,45790,38,0,P|220:274|207:376,1,180,8|0,0:0|0:0,0:0:0:0:
289,339,46219,1,2,0:3:0:0:
289,339,46433,1,0,0:0:0:0:
329,185,46647,21,0,1:2:0:0:
259,195,46754,1,0,3:0:0:0:
186,203,46862,1,0,3:0:0:0:
462,362,47076,1,10,0:3:0:0:
462,362,47504,38,0,P|475:274|501:185,1,180,10|0,0:0|0:0,0:0:0:0:
453,126,47933,1,2,0:3:0:0:
453,126,48147,1,0,0:0:0:0:
289,339,48362,22,0,P|253:310|266:263,1,83.9999974365235,0|0,1:0|0:0,0:0:0:0:
377,298,48790,2,0,P|377:257|343:234,1,83.9999974365235,2|0,0:3|0:0,0:0:0:0:
96,160,49219,38,0,P|196:182|271:200,1,180,8|0,0:0|0:0,0:0:0:0:
334,149,49647,1,2,0:3:0:0:
255,275,49862,1,2,0:0:0:0:
173,82,50076,22,0,P|168:60|164:34,1,41.9999987182618,2|0,1:2|0:0,0:0:0:0:
80,77,50290,2,0,P|91:130|98:180,1,83.9999974365235,2|2,0:0|0:3,0:0:0:0:
255,275,50719,1,2,0:0:0:0:
76,308,50933,38,0,P|122:307|156:372,1,120,8|2,0:0|0:0,0:0:0:0:
330,286,51362,1,2,0:2:0:0:
330,286,51576,1,0,0:0:0:0:
255,113,51790,22,0,P|268:75|283:20,1,83.9999974365235,2|2,1:2|0:0,0:0:0:0:
465,83,52219,2,0,P|452:121|437:176,1,83.9999974365235,2|0,0:2|0:0,0:0:0:0:
385,8,52647,38,0,P|361:100|329:202,1,180,8|0,0:0|0:0,0:0:0:0:
390,247,53076,21,2,3:0:0:0:
406,250,53183,1,0,3:0:0:0:
428,268,53290,1,0,3:0:0:0:
443,308,53397,1,0,3:0:0:0:
386,353,53504,38,0,P|357:355|307:389,1,90,8|0,1:3|0:0,0:0:0:0:
273,240,55219,22,0,L|288:157,1,84,4|0,1:1|3:0,0:0:0:0:
234,6,56933,38,0,P|177:19|157:72,1,120,2|2,0:0|3:0,0:0:0:0:
196,137,57576,1,2,3:2:0:0:
70,237,57790,2,0,P|128:224|188:218,1,120,8|2,0:0|0:3,0:0:0:0:
56,335,58433,1,0,3:0:0:0:
53,347,58647,22,0,P|139:323|229:317,1,180,0|0,1:0|3:0,0:0:0:0:
333,367,59504,1,8,0:0:0:0:
333,367,59719,1,0,3:0:0:0:
333,367,59933,2,0,B|290:390|251:356|252:301|295:271,1,161.999995056153,2|0,3:0|0:0,0:0:0:0:
359,172,60362,38,0,P|394:217|455:209,1,120,2|2,0:0|3:0,0:0:0:0:
487,150,61004,1,2,3:2:0:0:
282,28,61219,2,0,P|277:117|252:204,1,180,8|0,0:0|3:0,0:0:0:0:
257,211,62076,2,0,P|274:208|294:207,1,36,0|0,1:0|0:0,0:0:0:0:
26,382,62933,54,2,B|-31:333|-55:227|3:162|100:207|91:284|18:308,1,324.000001235962,10|2,0:0|0:3,0:1:0:0:
224,213,63790,6,0,P|264:207|293:235,1,83.9999974365235,2|0,1:2|0:0,0:0:0:0:
194,324,64219,2,0,P|223:352|264:347,1,83.9999974365235,2|0,0:2|0:0,0:0:0:0:
104,127,64647,22,0,B|191:116|191:116|193:117|193:117|287:105,1,180,8|0,0:0|0:0,0:0:0:0:
332,47,65076,1,2,0:2:0:0:
332,47,65290,1,0,0:0:0:0:
458,142,65504,38,0,P|498:113|492:79,2,83.9999974365235,0|0|2,1:0|0:0|0:2,0:0:0:0:
435,32,66147,1,0,0:0:0:0:
368,207,66362,22,0,P|366:296|384:384,1,180,8|0,0:0|0:0,0:0:0:0:
260,223,66790,2,0,P|207:242|205:307,1,120,2|0,0:0|0:0,0:0:0:0:
282,384,67219,37,0,1:0:0:0:
260,223,67433,1,8,3:0:0:0:
252,151,67540,1,8,3:0:0:0:
244,79,67647,1,8,3:0:0:0:
80,216,67862,2,0,B|103:212|131:189|131:189|139:224|158:242,1,120,4|0,3:0|0:0,0:0:0:0:
98,289,68076,22,0,L|85:330,1,42,12|0,0:0|0:0,0:0:0:0:
31,141,68933,38,0,B|-2:113|-2:113|153:87,1,180,0|0,1:0|0:0,0:0:0:0:
185,35,69362,1,2,0:3:0:0:
158,201,69576,1,0,0:0:0:0:
47,13,69790,22,0,B|27:127|27:127|30:140|30:140|10:253,1,243.000000926971,8|0,0:0|0:0,0:0:0:0:
20,259,70219,2,0,B|79:249,1,60,2|0,0:3|0:0,0:0:0:0:
90,255,70433,1,0,0:0:0:0:
160,375,70647,38,0,P|208:345|196:290,2,120,2|0|2,1:2|0:0|0:3,0:0:0:0:
90,255,71290,1,2,1:2:0:0:
286,124,71504,22,0,P|302:244|311:383,1,243.000000926971,8|0,0:0|0:0,0:0:0:0:
406,218,71933,38,0,B|336:187|283:242|299:266|257:318|195:289,1,243.000000926971,2|0,0:3|0:0,0:0:0:0:
152,221,72362,21,0,1:0:0:0:
290,117,72576,2,0,P|274:61|220:43,2,120,0|2|0,0:0|0:3|0:0,0:0:0:0:
196,289,73219,38,0,P|313:258|434:250,1,243.000000926971,8|0,0:0|0:0,0:0:0:0:
439,257,73647,1,2,0:3:0:0:
399,375,73862,1,0,0:0:0:0:
361,172,74076,22,0,B|387:153|390:116|390:116|403:143|427:156,2,120,2|0|2,1:2|0:0|0:3,0:0:0:0:
463,85,74719,1,2,1:2:0:0:
251,27,74933,38,0,B|205:45|192:105|237:139|237:139|283:130|282:93,1,209.700008399392,8|0,0:0|0:0,0:0:0:0:
82,318,75790,22,0,P|122:307|164:302,1,83.9999974365235,0|0,1:0|0:0,0:0:0:0:
55,138,76219,2,0,P|96:132|137:122,1,83.9999974365235,2|0,0:3|0:0,0:0:0:0:
0,243,76647,2,0,P|87:220|176:209,1,180,8|0,0:0|0:0,0:0:0:0:
284,272,77076,2,0,P|277:331|220:350,1,125.999996154785,2|0,0:3|0:0,0:0:0:0:
164,302,77504,37,2,1:2:0:0:
164,302,77719,1,2,0:2:0:0:
176,209,77933,2,0,P|216:198|258:193,1,83.9999974365235,2|2,0:3|0:2,0:0:0:0:
398,342,78362,22,0,P|397:253|404:163,1,180,8|0,0:0|0:0,0:0:0:0:
447,103,78790,1,2,0:2:0:0:
447,103,79004,1,0,0:0:0:0:
236,67,79219,38,0,B|231:51|241:38|241:38|299:25|299:25|313:34|315:49,1,120,0|0,1:0|0:0,0:0:0:0:
332,127,79433,1,2,0:0:0:0:
323,121,79647,2,0,B|303:149|303:179|303:179|291:152|259:134,1,125.999996154785,2|0,0:3|0:0,0:0:0:0:
134,24,80076,22,0,P|138:53|140:83,1,60,8|0,0:0|0:0,0:0:0:0:
0,133,80290,2,0,B|28:105|70:115|70:115|81:139|107:151,1,125.999996154785
208,226,80719,37,0,3:0:0:0:
201,224,80826,1,0,1:0:0:0:
193,224,80933,2,0,P|159:247|149:288,1,83.9999974365235,0|0,1:0|0:0,0:0:0:0:
46,356,81254,2,0,P|160:320|279:307,1,240,0|0,1:0|0:0,0:0:0:0:
452,220,81790,54,2,B|453:236|453:236|426:242|404:266|404:266|395:235|376:217|376:217|385:203,1,150,12|0,0:0|0:0,0:1:0:0:
312,321,84362,6,0,B|299:274|343:254|343:254|404:265|424:204,2,180,2|2|2,0:0|0:0|0:0,0:0:0:0:
495,365,86076,1,2,0:0:0:0:
216,366,87362,22,0,P|205:341|165:326,1,60,2|0,0:0|0:0,0:0:0:0:
32,331,87790,2,0,B|71:350|131:316|89:286|136:246|184:257,2,180,2|2|2,0:0|0:0|0:0,0:0:0:0:
3,257,89290,2,0,P|15:206|24:179,1,60,2|0,0:0|0:0,0:0:0:0:
338,370,90790,38,0,P|345:335|356:295,1,60,2|0,0:0|0:0,0:0:0:0:
285,210,91219,1,2,0:0:0:0:
438,310,91433,2,0,P|451:251|397:220,2,120,2|2|2,0:0|0:0|0:0,0:0:0:0:
174,370,94219,22,0,P|167:335|156:295,1,60,2|0,0:0|0:0,0:0:0:0:
35,270,94647,2,0,P|43:305|53:345,1,60,2|0,0:0|0:0,0:0:0:0:
165,198,95076,1,2,0:0:0:0:
227,276,95290,2,0,P|276:227|330:228,1,120,2|2,0:0|0:0,0:0:0:0:
285,18,96362,38,0,P|263:126|246:206,1,180,4|0,0:0|0:0,0:0:0:0:
501,365,97647,22,0,P|493:344|452:323,1,60,2|0,0:0|0:0,0:0:0:0:
394,265,98076,2,0,P|370:336|267:359,2,180,2|2|2,0:0|0:0|0:0,0:0:0:0:
489,176,99576,2,0,P|473:198|467:244,1,60,2|0,0:0|0:0,0:0:0:0:
16,168,101504,38,0,P|130:191|199:211,2,180,2|2|2,0:0|0:0|0:0,0:0:0:0:
50,256,103004,1,2,0:0:0:0:
133,154,103219,2,0,B|223:141|153:97|293:71,2,180,0|0|2,0:0|0:0|0:0,0:0:0:0:
335,242,104933,22,0,P|324:187|263:168,1,120,2|2,0:0|0:0,0:0:0:0:
425,41,105576,2,0,P|382:78|396:140,1,120,2|2,0:0|0:0,0:0:0:0:
496,381,106647,38,0,P|453:327|348:318,2,180,0|0|2,0:0|0:0|0:0,0:0:0:0:
244,369,108362,22,0,P|253:333|265:303,1,60,2|0,0:0|0:0,0:0:0:0:
138,229,108790,1,2,0:0:0:0:
159,376,109004,2,0,P|168:340|193:282,1,90,2|0,0:0|0:0,0:0:0:0:
193,284,109433,37,2,0:0:0:0:
32,187,109647,2,0,B|99:193|76:154|142:155,1,116.999994644165,2|0,0:0|0:0,0:0:0:0:
303,22,110076,22,0,P|290:62|285:104,2,83.9999974365235,4|0|0,0:0|0:0|0:0,0:0:0:0:
383,38,110719,2,0,P|370:77|365:119,2,83.9999974365235
456,95,111362,1,0,0:0:0:0:
384,209,111576,1,0,0:0:0:0:
382,219,111790,38,0,P|412:246|452:240,2,83.9999974365235,2|0|0,0:0|0:0|0:0,0:0:0:0:
304,225,112433,2,0,P|295:264|320:297,2,83.9999974365235,2|0|0,0:0|0:0|0:0,0:0:0:0:
255,170,113076,2,0,P|216:182|200:220,1,83.9999974365235,2|0,0:0|0:0,0:0:0:0:
50,353,113504,22,0,P|90:343|132:338,2,83.9999974365235,2|0|0,0:0|0:0|0:0,0:0:0:0:
36,282,114147,2,0,P|76:271|118:266,2,83.9999974365235
21,210,114790,2,0,P|61:199|103:194,1,83.9999974365235,2|0,0:0|0:0,0:0:0:0:
191,9,115219,38,0,B|208:42|208:42|193:86,2,83.9999974365235,2|0|0,0:0|0:0|0:0,0:0:0:0:
281,114,115862,2,0,B|269:149|269:149|227:170,2,83.9999974365235,2|0|0,0:0|0:0|0:0,0:0:0:0:
270,251,116504,2,0,B|236:268|236:268|192:253,1,83.9999974365235,2|2,0:0|0:0,0:0:0:0:
375,168,116933,22,0,P|416:162|458:160,2,83.9999974365235
368,97,117576,2,0,P|409:91|451:89,2,83.9999974365235
328,29,118219,1,2,0:0:0:0:
293,200,118433,1,0,0:0:0:0:
289,210,118647,38,0,P|248:204|227:169,2,83.9999974365235,2|2|0,0:0|0:0|0:0,0:0:0:0:
137,190,119290,2,0,P|121:152|141:116,2,83.9999974365235,2|0|2,0:0|0:0|0:0,0:0:0:0:
79,49,119933,2,0,P|104:16|144:15,1,83.9999974365235
304,74,120362,22,0,P|302:115|298:157,2,83.9999974365235
404,175,121004,2,0,P|381:210|357:244,2,83.9999974365235
439,313,121647,2,0,P|401:332|363:350,1,83.9999974365235,2|0,0:0|0:0,0:0:0:0:
175,375,122076,38,0,P|216:374|242:343,2,83.9999974365235,2|0|2,0:0|0:0|0:0,0:0:0:0:
70,270,122719,2,0,P|91:304|131:311,2,83.9999974365235,2|0|2,0:0|0:0|0:0,0:0:0:0:
99,128,123362,2,0,P|79:163|94:201,1,83.9999974365235
292,38,123790,22,0,L|375:27,1,83.9999974365235,0|0,3:0|0:0,0:0:0:0:
349,138,124219,2,0,L|464:152,1,83.9999974365235,0|0,3:0|0:0,0:0:0:0:
314,252,124647,2,0,L|397:241,1,83.9999974365235,0|0,3:0|0:0,0:0:0:0:
353,131,125076,2,0,L|468:145,1,83.9999974365235,2|0,3:2|0:0,0:0:0:0:
315,349,125504,38,0,P|274:351|245:322,2,83.9999974365235,2|0|0,3:2|0:0|3:0,0:0:0:0:
163,285,126147,2,0,P|150:246|171:211,2,83.9999974365235,2|0|0,0:0|3:0|0:0,0:0:0:0:
186,121,126790,2,0,P|220:99|259:110,1,83.9999974365235,2|2,3:2|0:0,0:0:0:0:
265,244,127219,21,0,1:0:0:0:
262,251,127433,1,0,3:0:0:0:
173,296,127647,37,0,1:0:0:0:
176,303,127861,1,0,3:0:0:0:
108,230,128076,21,0,1:0:0:0:
105,237,128290,1,0,3:0:0:0:
16,282,128504,37,0,1:0:0:0:
19,289,128718,1,0,3:0:0:0:
4,86,128933,21,2,1:2:0:0:
77,56,129147,1,0,3:0:0:0:
127,115,129362,1,0,1:0:0:0:
260,20,129576,37,2,3:2:0:0:
248,96,129790,1,0,1:0:0:0:
236,172,130004,1,0,3:0:0:0:
333,273,130219,21,2,1:2:0:0:
406,255,130433,1,2,3:2:0:0:
244,182,130647,38,0,B|233:267,2,83.9999974365235,0|0|0,1:0|3:0|1:0,0:0:0:0:
135,344,131290,2,0,P|124:305|94:276,2,83.9999974365235,0|0|0,3:0|1:0|3:0,0:0:0:0:
343,321,131933,2,0,P|304:334|277:366,1,83.9999974365235,0|0,1:0|3:0,0:0:0:0:
237,191,132362,22,0,L|228:107,1,83.9999974365235,2|0,1:2|3:0,0:0:0:0:
137,169,132790,1,2,1:2:0:0:
274,27,133004,2,0,P|314:29|337:62,1,83.9999974365235,2|0,3:2|1:0,0:0:0:0:
152,84,133433,2,0,P|133:47|151:11,2,83.9999974365235,2|0|0,3:2|1:0|3:0,0:0:0:0:
332,69,134076,37,0,1:0:0:0:
317,172,134504,1,0,1:0:0:0:
302,275,134933,1,0,1:0:0:0:
287,378,135362,1,0,1:0:0:0:
111,199,135790,21,2,1:2:0:0:
183,107,136219,1,2,1:2:0:0:
300,143,136647,1,0,1:0:0:0:
318,276,137076,1,0,1:0:0:0:
438,360,137504,37,4,1:2:0:0:
318,276,137719,2,0,P|350:239|348:197,1,83.9999974365235,2|0,0:0|1:0,0:0:0:0:
438,360,138147,21,2,0:0:0:0:
487,240,138362,2,0,P|444:217|432:173,1,90.0000034332277,2|0,1:2|0:0,0:0:0:0:
438,360,138790,37,2,1:2:0:0:
285,218,139004,2,0,P|267:172|244:128,1,96,2|0,0:0|1:0,0:0:0:0:
438,360,139433,21,2,0:2:0:0:
498,174,139647,2,0,P|499:124|505:72,1,102.000001945496,2|0,1:2|0:0,0:0:0:0:
438,360,140076,37,2,1:2:0:0:
339,105,140290,2,0,P|399:113|397:166,1,107.999996704102,2|0,0:0|1:0,0:0:0:0:
310,303,140719,21,2,0:0:0:0:
55,171,140933,2,0,P|115:178|171:189,1,113.999996955872,2|0,1:2|0:0,0:0:0:0:
310,303,141362,37,2,1:2:0:0:
30,353,141576,2,0,P|90:360|149:374,1,120,2|0,0:2|1:0,0:0:0:0:
310,303,142004,21,2,0:2:0:0:
0,255,142219,2,0,P|60:262|127:270,1,125.999996154785,2|0,1:2|0:0,0:0:0:0:
441,281,142647,38,0,P|375:290|310:303,1,132.00000402832,2|2,1:2|0:0,0:0:0:0:
489,76,143076,2,0,P|498:142|511:207,1,132.00000402832,0|2,1:0|0:0,0:0:0:0:
281,32,143504,2,0,P|347:22|412:9,1,132.00000402832,2|0,1:2|0:0,0:0:0:0:
235,237,143933,2,0,P|225:171|212:106,1,132.00000402832,2|2,1:2|0:2,0:0:0:0:
363,154,144362,21,0,1:0:0:0:
363,154,144576,1,0,1:0:0:0:
310,302,144790,1,0,1:0:0:0:
310,302,145004,1,0,1:0:0:0:
458,355,145219,1,0,1:0:0:0:
458,355,145433,1,0,1:0:0:0:
511,207,145647,1,0,1:0:0:0:
511,207,145862,1,0,1:0:0:0:
273,58,146076,37,0,1:0:0:0:
273,58,146290,1,0,1:0:0:0:
334,228,146504,1,0,1:0:0:0:
334,228,146718,1,0,1:0:0:0:
163,289,146933,1,0,1:0:0:0:
163,289,147147,1,0,1:0:0:0:
102,119,147362,1,2,1:2:0:0:
102,119,147576,1,0,1:0:0:0:
282,377,147790,21,2,1:2:0:0:
216,172,148004,1,0,1:0:0:0:
421,107,148219,1,2,1:2:0:0:
486,311,148433,1,2,1:2:0:0:
238,315,148647,37,0,1:0:0:0:
310,84,148861,1,2,1:2:0:0:
81,12,149076,1,0,1:0:0:0:
7,241,149290,1,0,1:0:0:0:
416,265,149504,21,0,1:0:0:0:
166,346,149719,1,0,1:0:0:0:
86,97,149933,1,0,1:0:0:0:
335,16,150147,1,0,1:0:0:0:
297,357,150362,22,2,B|214:309|212:195|315:176|347:231|323:275,1,270.000010299683,8|0,0:0|0:0,0:1:0:0:
482,311,150790,22,0,B|441:329|440:384|440:384|420:333|375:330,1,180,2|0,0:0|0:0,1:0:0:0:
266,74,151219,54,0,L|262:113,1,36,4|0,1:1|0:0,0:0:0:0:
27,249,152076,53,10,0:1:0:0:
112,189,152183,1,2,0:0:0:0:
40,176,152290,1,2,0:0:0:0:
99,262,152397,2,0,B|173:252|173:252|179:253|179:253|259:243,1,162.000000617981,2|0,0:0|0:0,0:0:0:0:
183,13,152719,21,2,0:1:0:0:
268,73,152826,1,2,0:0:0:0:
196,86,152933,1,2,1:2:0:0:
255,0,153040,2,0,B|329:9|329:9|335:8|335:8|415:18,1,162.000000617981,2|0,0:0|0:0,0:0:0:0:
473,275,153362,37,2,0:1:0:0:
398,309,153469,1,2,0:0:0:0:
438,200,153576,1,2,0:0:0:0:
361,234,153683,1,2,0:0:0:0:
488,279,153790,1,8,0:1:0:0:
270,109,154004,21,2,0:1:0:0:
247,188,154111,1,2,0:0:0:0:
190,87,154218,1,2,0:0:0:0:
166,168,154326,2,0,B|173:248|173:248|172:254|172:254|180:329,1,162.000000617981,2|0,0:0|0:0,0:0:0:0:
15,305,154648,54,0,P|23:270|54:254,1,72,0|0,1:1|0:0,0:0:0:0:
171,336,155076,2,2,B|143:351|123:377|123:377|111:347|89:324,1,125.999996154785,2|0,3:2|0:0,0:1:0:0:
76,53,155504,53,10,0:1:0:0:
50,167,155612,1,2,0:0:0:0:
152,72,155719,1,2,0:0:0:0:
130,187,155826,2,0,B|206:172|206:172|212:172|212:172|289:156,1,162.000000617981,2|0,0:0|0:0,0:0:0:0:
463,169,156147,21,2,0:1:0:0:
489,283,156255,1,2,0:0:0:0:
387,188,156362,1,2,1:2:0:0:
413,302,156469,2,0,B|336:287|336:287|330:287|330:287|253:271,1,162.000000617981,2|0,0:2|0:0,0:0:0:0:
75,353,156790,37,2,0:1:0:0:
49,261,156897,1,2,0:0:0:0:
115,193,157005,1,2,0:0:0:0:
141,285,157112,1,2,0:0:0:0:
66,361,157219,22,0,L|-16:376,1,81.0000003089905,8|0,0:1|0:0,0:0:0:0:
112,182,157433,2,0,B|154:175|184:142|184:142|193:184|238:204,1,167.999994873047,2|2,0:1|0:0,0:0:0:0:
86,49,158076,54,0,B|61:12|61:12|67:56,1,90.0000034332277,2|0,1:2|0:0,0:0:0:0:
66,67,158290,2,0,L|143:81,1,41.9999987182618,0|0,3:0|0:0,0:0:0:0:
177,31,158504,21,8,3:0:0:0:
175,25,158611,1,8,3:0:0:0:
173,19,158718,1,8,3:0:0:0:
171,13,158825,1,8,3:0:0:0:
111,153,158933,21,10,0:1:0:0:
236,136,159040,1,2,0:0:0:0:
127,233,159147,1,2,0:0:0:0:
247,215,159254,2,0,B|275:239|290:282|290:282|320:251|361:245,1,162.000000617981,2|0,0:0|0:0,0:0:0:0:
460,32,159576,21,2,0:1:0:0:
483,147,159683,1,2,0:0:0:0:
376,48,159790,1,2,1:2:0:0:
404,164,159897,2,0,B|393:242|393:242|394:250|394:250|383:327,1,162.000000617981,2|0,0:0|0:0,0:0:0:0:
129,309,160219,38,0,P|145:356|206:357,1,81.0000003089905,2|2,0:1|0:0,0:0:0:0:
261,305,160433,2,0,P|245:258|184:257,1,81.0000003089905,2|2,0:1|0:0,0:0:0:0:
130,216,160647,1,8,0:1:0:0:
400,117,160862,22,2,B|333:106|298:174|319:184|291:254|216:246,1,243.000000926971,2|0,0:2|0:0,0:1:0:0:
160,140,161290,2,0,B|147:123|142:103|142:103|129:120|112:131,1,81.0000003089905,2|0,0:2|0:0,0:0:0:0:
53,34,161504,54,0,P|115:28|171:-1,1,125.999996154785,0|0,1:0|0:0,0:0:0:0:
214,239,161933,22,0,B|192:284|192:284|201:246,1,90.0000034332277,8|0,3:0|0:0,0:0:0:0:
435,104,162362,21,10,0:1:0:0:
486,175,162469,1,2,0:0:0:0:
364,155,162576,1,2,0:0:0:0:
415,226,162683,2,0,B|447:278|447:278|415:380,1,162.000000617981,2|0,0:0|0:0,0:0:0:0:
147,237,163004,21,2,0:1:0:0:
96,307,163111,1,2,0:0:0:0:
217,287,163219,1,2,1:2:0:0:
166,358,163326,2,0,B|97:350|97:350|90:351|90:351|3:343,1,162.000000617981,2|0,0:0|0:0,0:0:0:0:
130,80,163647,37,2,0:1:0:0:
89,160,163754,1,2,0:0:0:0:
152,223,163862,1,2,0:0:0:0:
193,143,163969,1,2,0:0:0:0:
80,153,164076,22,0,L|-19:166,1,81.0000003089905,8|0,0:1|0:0,0:0:0:0:
179,0,164290,37,2,0:1:0:0:
259,10,164397,1,2,0:0:0:0:
339,20,164504,1,2,0:0:0:0:
419,30,164612,1,2,0:0:0:0:
427,37,164719,2,0,P|428:72|409:94,1,60,2|0,0:0|0:0,0:0:0:0:
308,162,164933,6,0,L|319:197,1,36,4|0,1:0|3:0,0:0:0:0:
156,295,165790,5,10,0:1:0:0:
211,351,165897,1,2,0:0:0:0:
77,314,166004,1,2,0:0:0:0:
177,219,166112,2,0,B|222:210|250:248|236:262|266:301|308:290,1,162.000000617981,2|0,0:0|0:0,0:0:0:0:
425,143,166433,37,2,0:1:0:0:
370,199,166540,1,2,0:0:0:0:
504,162,166647,1,2,1:2:0:0:
404,67,166755,2,0,B|358:58|330:96|344:110|314:149|272:138,1,162.000000617981,2|0,0:0|0:0,0:0:0:0:
53,22,167076,21,2,0:1:0:0:
36,110,167183,1,2,0:0:0:0:
124,127,167290,1,2,0:0:0:0:
141,39,167397,1,2,0:0:0:0:
26,114,167504,1,8,0:1:0:0:
246,321,167719,37,2,0:1:0:0:
230,233,167826,1,2,0:0:0:0:
318,216,167933,1,2,0:0:0:0:
335,304,168040,2,0,B|407:313|407:313|412:315|412:315|495:326,1,162.000000617981,2|0,0:0|0:0,0:0:0:0:
373,178,168362,6,0,P|338:187|317:215,1,72,0|0,1:0|0:0,0:0:0:0:
465,233,168790,2,2,B|487:171|487:171|457:119,1,125.999996154785,2|0,3:2|0:0,0:1:0:0:
196,0,169219,5,10,0:1:0:0:
216,116,169326,1,2,0:0:0:0:
264,48,169433,1,2,0:0:0:0:
148,67,169540,2,0,B|100:121|100:121|125:207,1,162.000000617981,2|0,0:0|0:0,0:0:0:0:
300,334,169862,37,2,0:1:0:0:
319,218,169969,1,2,0:0:0:0:
367,286,170076,1,2,1:2:0:0:
251,267,170183,2,0,B|180:275|180:275|175:278|175:278|91:289,1,162.000000617981,2|0,0:0|0:0,0:0:0:0:
0,152,170504,21,2,0:2:0:0:
2,144,170611,1,2,0:0:0:0:
4,136,170718,1,2,0:2:0:0:
6,128,170826,1,2,0:0:0:0:
22,54,170933,1,8,0:1:0:0:
173,178,171147,37,2,0:2:0:0:
176,187,171254,1,2,0:0:0:0:
248,202,171362,1,2,0:2:0:0:
251,211,171469,1,2,0:0:0:0:
323,226,171576,2,0,L|333:263,1,38.9999982147218,2|0,0:0|0:0,0:0:0:0:
467,54,171790,6,0,B|441:40|441:40|430:19|430:19|409:32|409:32|381:33,1,105.000001001358,2|0,1:2|0:0,0:0:0:0:
376,43,172004,2,0,L|395:109,1,60,0|0,3:0|0:0,0:0:0:0:
436,162,172219,21,8,3:0:0:0:
434,168,172326,1,8,3:0:0:0:
432,174,172433,1,8,3:0:0:0:
430,180,172540,1,8,3:0:0:0:
348,341,172647,53,10,0:1:0:0:
335,239,172754,1,2,0:0:0:0:
271,351,172862,1,2,0:0:0:0:
256,248,172969,2,0,B|214:232|179:259|193:286|163:318|119:305,1,162.000000617981,2|0,0:0|0:0,0:0:0:0:
20,194,173290,37,2,0:1:0:0:
33,92,173397,1,2,0:0:0:0:
97,204,173505,1,2,1:2:0:0:
112,101,173612,2,0,B|154:84|189:111|175:138|205:170|249:157,1,162.000000617981,2|0,0:0|0:0,0:0:0:0:
477,99,173933,21,2,0:1:0:0:
333,59,174040,1,2,0:0:0:0:
426,177,174147,1,2,0:1:0:0:
337,151,174254,1,2,0:0:0:0:
420,25,174362,1,8,0:1:0:0:
106,210,174576,37,2,0:1:0:0:
250,170,174683,1,2,0:0:0:0:
157,288,174790,1,2,0:1:0:0:
246,262,174897,2,0,B|320:269|320:269|324:271|324:271|406:280,1,162.000000617981,2|0,0:2|0:0,0:0:0:0:
478,347,175219,5,0,1:0:0:0:
481,356,175326,1,0,3:0:0:0:
447,174,175540,21,0,1:0:0:0:
416,1,175862,37,0,1:0:0:0:
234,230,176076,5,10,0:1:0:0:
240,243,176183,1,0,0:0:0:0:
246,256,176290,2,0,B|288:261|288:261|291:263|291:263|334:268,1,90.0000034332277
92,65,176504,37,10,0:1:0:0:
98,52,176611,1,0,0:0:0:0:
104,39,176718,2,0,B|146:34|146:34|149:32|149:32|192:26,1,90.0000034332277
52,243,176933,21,10,0:1:0:0:
58,256,177040,1,0,0:0:0:0:
64,269,177147,2,0,B|59:311|59:311|57:314|57:314|51:357,1,90.0000034332277
153,105,177362,38,0,B|212:96|212:96|240:115,1,90.0000034332277,10|0,0:1|0:0,0:0:0:0:
345,158,177576,21,0,1:0:0:0:
343,165,177647,1,0,3:0:0:0:
341,172,177719,1,0,3:0:0:0:
340,178,177790,37,10,0:1:0:0:
163,205,177933,1,8,3:3:0:0:
275,345,178076,1,8,3:3:0:0:
237,113,178219,21,2,3:2:0:0:
158,323,178362,1,8,3:3:0:0:
380,289,178505,1,8,3:3:0:0:
260,238,178647,54,0,L|256:260,12,15,0|0|0|0|0|0|0|0|0|0|0|0|0,1:0|0:0|0:0|0:0|0:0|0:0|0:0|0:0|0:0|0:0|0:0|0:0|0:0,0:0:0:0:
208,372,179076,21,2,0:2:0:0:
158,323,179183,1,2,0:2:0:0:
91,350,179290,2,0,P|64:364|43:381,1,45.0000017166138,2|0,3:1|0:0,0:0:0:0:
30,287,179504,22,0,B|5:248|24:185|73:202|107:150|72:101,1,210.000002002716,8|0,0:1|0:0,0:0:0:0:
0,94,179826,2,0,B|-15:149|34:192|73:157|115:209|97:255,1,210.000002002716,2|0,3:2|0:0,0:0:0:0:
253,58,180147,2,0,P|204:74|184:121,1,105.000001001358,2|0,3:2|0:0,0:0:0:0:
378,259,180362,54,2,B|467:243|467:243|502:236|509:200|488:169|456:175|456:175|360:191|360:191|311:200|303:252|303:252|296:302|248:311|248:311|215:317|215:317|184:322|144:285|169:242|202:236|202:236|266:225,1,690.000013160706,2|0,1:2|0:0,0:1:0:0:
262,232,181004,21,0,1:2:0:0:
376,359,181219,38,2,B|234:384|234:384|125:403|51:304|86:184|196:165|196:165|463:118|463:118|515:110|530:57|499:21|453:27|453:27|216:64,1,1134.00000432587,8|0,0:1|0:0,0:1:0:0:
176,23,182076,21,0,1:2:0:0:
176,23,182504,21,2,0:2:0:0:
125,75,182612,1,2,0:0:0:0:
54,79,182719,2,0,P|34:70|11:62,1,45.0000017166138,2|0,3:1|0:0,0:0:0:0:
130,235,182933,54,0,P|110:151|53:214,1,210.000002002716,8|2,0:1|0:1,0:0:0:0:
2,375,183254,2,0,P|21:291|78:354,1,210.000002002716,2|0,3:2|0:0,0:0:0:0:
257,252,183576,2,0,P|207:261|192:316,1,105.000001001358,2|0,3:2|0:0,0:0:0:0:
362,366,183790,22,0,P|428:351|504:338,1,135.000005149842,2|0,1:2|0:0,0:0:0:0:
329,231,184004,1,2,0:0:0:0:
257,252,184112,2,0,P|324:260|400:274,1,135.000005149842,2|0,3:2|0:0,0:0:0:0:
442,95,184326,1,2,0:0:0:0:
380,143,184433,2,0,P|446:128|522:115,1,135.000005149842,2|0,3:2|0:0,0:0:0:0:
252,84,184647,6,0,P|231:67|197:52,1,45.0000017166138,8|2,0:1|0:2,0:0:0:0:
261,75,184754,2,0,P|285:66|322:63,1,45.0000017166138,2|2,0:2|0:2,0:0:0:0:
252,63,184862,1,2,0:0:0:0:
260,54,184969,1,2,0:0:0:0:
259,41,185076,53,2,0:1:0:0:
175,122,185183,1,2,0:2:0:0:
106,32,185290,37,2,0:1:0:0:
19,91,185397,1,2,0:2:0:0:
166,109,185504,54,0,L|168:94,12,15,0|0|0|0|0|0|0|0|0|0|0|0|0,1:0|0:0|0:0|0:0|0:0|0:0|0:0|0:0|0:0|0:0|0:0|0:0|0:0,0:0:0:0:
102,147,185933,21,2,0:2:0:0:
31,165,186040,1,2,0:2:0:0:
5,230,186147,2,0,P|18:255|25:286,1,45.0000017166138,2|0,3:1|0:0,0:0:0:0:
124,365,186362,22,0,P|170:264|254:276,1,210.000002002716,8|0,0:1|0:0,0:0:0:0:
463,251,186683,2,0,P|385:171|310:211,1,210.000002002716,2|0,3:2|0:0,0:0:0:0:
407,347,187004,2,0,P|357:362|322:321,1,105.000001001358,2|0,3:2|0:0,0:0:0:0:
164,0,187219,54,2,B|145:95|145:95|135:152|190:162|190:162|250:172|239:224|239:224|227:289|227:289|222:317|183:336|154:302|160:277|160:277|177:177|177:177|211:148|211:148|228:54,1,690.000013160706,2|0,1:2|0:0,0:1:0:0:
234,54,187862,21,0,1:2:0:0:
100,207,188076,38,2,B|91:256|91:256|79:304|92:392|173:409|251:420|288:345|297:301|297:301|335:76|335:76|345:18|398:-6|450:28|440:88|440:88|407:277|407:277|394:360|473:382,1,1134.00000432587,10|0,0:1|0:0,0:1:0:0:
512,320,188933,21,0,1:0:0:0:
512,320,189362,21,2,0:2:0:0:
464,265,189470,1,2,0:0:0:0:
392,265,189577,2,0,P|372:274|349:282,1,45.0000017166138,2|0,3:1|0:0,0:0:0:0:
273,184,189790,54,0,B|337:214|389:171|350:146|410:105|456:126,1,210.000002002716,8|0,0:1|0:0,0:0:0:0:
317,26,190112,1,2,3:2:0:0:
327,32,190219,2,0,P|365:66|366:127,1,105.000001001358,2|0,0:0|0:0,0:0:0:0:
205,211,190433,2,0,P|202:162|236:120,1,105.000001001358,2|0,3:2|0:0,0:0:0:0:
29,21,190647,22,0,P|50:87|64:153,1,135.000005149842,2|0,1:2|0:0,0:0:0:0:
151,306,190862,1,2,0:0:0:0:
130,231,190969,2,0,P|109:297|95:363,1,135.000005149842,2|0,3:2|0:0,0:0:0:0:
0,209,191183,1,2,0:0:0:0:
21,284,191290,2,0,P|42:218|56:152,1,135.000005149842,2|0,3:2|0:0,0:0:0:0:
235,120,191504,6,0,P|256:103|290:88,1,45.0000017166138,8|2,0:1|0:2,0:0:0:0:
226,111,191611,2,0,P|202:102|165:99,1,45.0000017166138,2|2,0:2|0:2,0:0:0:0:
235,99,191719,1,2,0:0:0:0:
227,90,191826,1,2,0:0:0:0:
224,78,191933,53,2,0:1:0:0:
341,107,192040,1,2,0:2:0:0:
362,224,192147,37,2,0:1:0:0:
478,252,192254,1,2,0:2:0:0:
346,352,192362,54,0,L|349:370,12,15,0|0|0|0|0|0|0|0|0|0|0|0|0,1:0|0:0|0:0|0:0|0:0|0:0|0:0|0:0|0:0|0:0|0:0|0:0|0:0,0:0:0:0:
226,356,192790,21,2,0:2:0:0:
176,307,192897,1,2,0:2:0:0:
109,334,193004,2,0,P|82:348|61:365,1,45.0000017166138,2|0,3:1|0:0,0:0:0:0:
1,207,193219,22,0,B|55:228|94:189|74:149|108:100|168:117,1,210.000002002716,8|0,0:1|0:0,0:0:0:0:
185,185,193540,2,0,B|131:206|92:166|112:127|77:78|18:95,1,210.000002002716,2|0,3:2|0:0,0:0:0:0:
81,14,193862,2,0,B|128:-6|128:-6|168:29,1,105.000001001358,2|0,3:2|0:0,0:0:0:0:
398,244,194076,54,2,B|473:257|473:257|511:263|536:229|524:188|486:181|486:181|372:162|372:162|331:190|331:190|227:172|227:172|178:163|168:125|188:87|235:96|235:96|313:110,1,690.000013160706,2|0,1:2|0:0,0:1:0:0:
320,103,194719,21,0,1:0:0:0:
463,324,194933,38,2,B|509:52|509:52|517:8|479:-33|427:-10|418:29|418:29|408:89,1,486.000001853943,8|0,0:1|0:0,0:1:0:0:
421,79,195362,2,0,B|393:23|393:23|321:40,1,120,0|0,1:0|0:0,0:0:0:0:
233,267,195576,2,0,B|261:323|261:323|333:306,1,120,8|0,0:1|0:0,0:0:0:0:
330,181,195790,21,0,1:0:0:0:
330,181,196219,21,2,0:2:0:0:
265,138,196326,1,2,0:2:0:0:
193,151,196433,2,0,P|166:165|145:182,1,45.0000017166138,2|0,3:1|0:0,0:0:0:0:
39,36,196647,54,0,P|59:120|116:57,1,210.000002002716,8|2,0:1|0:1,0:0:0:0:
0,278,196968,2,0,P|19:194|76:257,1,210.000002002716,2|0,3:2|0:0,0:0:0:0:
209,376,197290,2,0,P|159:367|144:312,1,105.000001001358,2|0,3:2|0:0,0:0:0:0:
330,181,197504,22,0,P|401:196|471:212,1,135.000005149842,2|0,1:2|0:0,0:0:0:0:
298,355,197719,1,2,0:0:0:0:
298,355,197826,1,2,3:0:0:0:
217,298,197933,2,0,P|285:275|355:264,1,135.000005149842,0|2,1:0|0:0,0:0:0:0:
244,98,198147,2,0,P|178:79|111:55,1,135.000005149842,2|0,3:2|0:0,0:0:0:0:
303,17,198362,5,10,0:1:0:0:
326,82,198469,1,2,0:2:0:0:
395,78,198576,1,2,0:2:0:0:
425,146,198683,1,2,0:2:0:0:
499,131,198790,54,0,P|505:94|509:73,1,45,2|0,1:1|0:0,0:0:0:0:
372,340,199219,21,0,1:0:0:0:
372,340,199647,21,2,0:2:0:0:
299,324,199754,1,2,0:2:0:0:
228,309,199861,2,0,P|210:325|183:346,1,45.0000017166138,2|0,3:1|0:0,0:0:0:0:
32,367,200076,22,0,B|-24:329|8:270|8:270|68:270|82:215,1,210.000002002716,8|0,0:1|0:0,0:0:0:0:
203,130,200397,2,0,B|259:167|226:226|226:226|167:229|152:280,1,210.000002002716,2|0,3:2|0:0,0:0:0:0:
4,186,200719,2,0,P|23:130|48:67,1,105.000001001358,2|0,3:2|0:0,0:0:0:0:
332,29,200933,54,2,B|446:49|446:49|497:58|496:97|483:133|433:125|433:125|294:100|294:100|252:94|248:48|248:48|246:8|216:4|216:4|136:-10|136:-10|176:61|176:61,1,690.000013160706,2|0,1:2|0:0,0:1:0:0:
166,64,201576,21,0,1:0:0:0:
319,291,201790,38,2,B|330:210|404:200|404:200|84:144|84:144|15:132|-31:195|-8:271|60:283|60:283|500:362,1,1134.00000432587,8|0,0:1|0:0,0:1:0:0:
476,281,202647,21,0,1:0:0:0:
476,281,203076,21,2,0:2:0:0:
424,336,203183,1,2,0:2:0:0:
354,359,203290,2,0,P|327:373|306:390,1,45.0000017166138,2|0,3:1|0:0,0:0:0:0:
165,291,203504,54,0,P|226:216|238:277,1,210.000002002716,8|2,0:1|0:1,0:0:0:0:
377,174,203826,1,2,3:2:0:0:
318,218,203933,2,0,P|336:261|392:265,1,105.000001001358,2|0,0:0|0:0,0:0:0:0:
438,134,204147,2,0,P|420:91|364:87,1,105.000001001358,2|0,3:2|0:0,0:0:0:0:
182,0,204362,22,0,P|202:68|219:139,1,135.000005149842,2|0,1:2|0:0,0:0:0:0:
64,216,204576,1,2,0:0:0:0:
64,216,204683,1,2,3:2:0:0:
112,160,204790,2,0,P|98:103|73:24,1,135.000005149842,0|2,1:0|0:0,0:0:0:0:
0,152,205004,2,0,P|19:210|39:288,1,135.000005149842,2|0,3:2|0:0,0:0:0:0:
210,380,205219,6,0,B|192:339|192:339|226:310,1,90.0000034332277,8|2,0:1|0:0,0:0:0:0:
422,339,205433,1,2,1:2:0:0:
414,342,205504,1,0,1:0:0:0:
407,344,205576,1,0,1:0:0:0:
400,347,205647,54,2,B|330:380|272:300|337:276|264:207|189:246,1,270.000010299683,8|0,0:1|0:0,0:1:0:0:
37,281,206076,37,10,0:1:0:0:
52,214,206183,1,2,0:0:0:0:
119,229,206290,1,2,0:0:0:0:
104,296,206397,1,2,0:0:0:0:
25,287,206504,22,2,P|62:193|191:253,1,270.000010299683,8|0,0:1|0:0,0:1:0:0:
425,215,206933,5,10,0:1:0:0:
408,140,207040,1,2,0:0:0:0:
333,157,207147,1,2,0:0:0:0:
350,231,207254,1,2,0:0:0:0:
437,215,207362,54,2,P|418:107|246:124,1,315.000003004074,8|0,0:1|0:0,0:1:0:0:
31,132,207790,37,10,0:1:0:0:
48,53,207897,1,2,0:0:0:0:
127,70,208004,1,2,0:0:0:0:
109,148,208111,1,2,0:0:0:0:
19,139,208219,22,2,P|54:35|290:72,1,387.000005905152,8|0,0:1|0:0,0:1:0:0:
508,120,208647,5,10,0:1:0:0:
486,19,208754,1,2,0:0:0:0:
386,41,208861,1,2,0:0:0:0:
408,140,208968,1,2,0:0:0:0:
511,133,209076,22,0,B|449:122|449:122|446:123|446:123|387:112,1,120,8|0,0:1|0:0,0:0:0:0:
256,383,209504,54,0,P|212:376|190:339,1,90,6|0,1:2|0:0,0:0:0:0:
103,259,209933,2,0,P|96:303|92:348,1,90,2|0,0:0|0:0,0:0:0:0:
198,259,210362,2,0,B|226:243|234:214|234:214|249:238|282:248,2,120,2|2|2,0:0|0:0|0:0,0:0:0:0:
98,33,211647,22,0,P|131:34|153:81,1,90,2|0,0:0|0:0,0:0:0:0:
14,151,212076,2,0,B|49:145|49:145|61:146|61:146|102:138,1,90,2|0,0:0|0:0,0:0:0:0:
155,192,212504,1,2,0:3:0:0:
306,12,212933,38,0,P|298:45|292:112,1,90,2|0,0:3|0:0,0:0:0:0:
238,189,213362,2,0,P|280:187|302:224,1,90,2|0,0:0|0:0,0:0:0:0:
463,132,213790,2,0,P|410:109|368:147,2,120,2|2|2,0:0|0:0|0:0,0:0:0:0:
299,231,215076,22,0,L|310:336,1,90,2|0,0:0|0:0,0:0:0:0:
203,384,215504,2,0,P|196:344|232:311,1,90,2|0,0:0|0:0,0:0:0:0:
304,326,215933,1,2,0:3:0:0:
137,162,216362,38,0,P|174:183|231:185,1,90,2|0,0:3|0:0,0:0:0:0:
304,49,216790,2,0,P|267:71|266:114,1,90,2|0,0:0|0:0,0:0:0:0:
415,174,217219,2,0,B|388:154|386:120|386:120|368:145|337:150,2,120,2|2|2,0:0|0:0|0:0,0:0:0:0:
271,246,218504,22,0,P|259:204|218:188,1,90,2|0,0:0|0:0,0:0:0:0:
129,73,218933,2,0,P|137:105|136:167,1,90,2|0,0:0|0:0,0:0:0:0:
78,214,219362,1,2,0:3:0:0:
251,373,219790,38,0,P|251:328|257:283,1,90,2|0,0:3|0:0,0:0:0:0:
426,384,220219,2,0,P|431:339|432:294,1,90,2|0,0:0|0:0,0:0:0:0:
353,210,220647,2,0,P|345:269|344:329,2,120,2|2|2,0:0|0:0|0:0,0:0:0:0:
222,28,221933,22,0,P|178:48|183:92,1,90,2|0,0:0|0:0,0:0:0:0:
296,169,222362,2,0,P|281:125|279:65,1,90,2|0,0:0|0:0,0:0:0:0:
318,21,222790,1,2,0:0:0:0:
267,266,223219,38,0,P|262:307|260:349,1,83.9999974365235
90,257,223647,2,0,P|94:298|96:340,1,83.9999974365235
194,178,224076,2,0,P|189:219|187:261,2,83.9999974365235
236,83,224719,1,0,0:0:0:0:
229,87,224933,22,0,P|188:85|163:52,2,83.9999974365235,2|0|0,0:0|0:0|0:0,0:0:0:0:
328,96,225576,2,0,P|309:59|325:21,2,83.9999974365235,2|0|0,0:0|0:0|0:0,0:0:0:0:
391,166,226219,2,0,P|413:132|454:126,1,83.9999974365235,2|0,0:0|0:0,0:0:0:0:
458,355,226647,38,0,B|469:306|469:306|454:275,1,83.9999974365235,2|0,0:0|0:0,0:0:0:0:
334,205,227076,2,0,L|343:288,1,83.9999974365235
269,367,227504,2,0,P|231:353|217:315,1,83.9999974365235
236,210,227933,1,2,0:0:0:0:
245,213,228147,1,0,0:0:0:0:
136,235,228362,22,0,L|30:251,2,83.9999974365235,2|0|0,0:0|0:0|0:0,0:0:0:0:
5,129,229004,2,0,L|88:141,2,83.9999974365235,2|0|0,0:0|0:0|0:0,0:0:0:0:
153,31,229647,2,0,L|69:43,1,83.9999974365235,2|2,0:0|0:0,0:0:0:0:
224,126,230076,38,0,P|261:111|273:72,1,83.9999974365235
247,227,230504,2,0,P|240:267|269:296,1,83.9999974365235
149,199,230933,2,0,P|107:195|65:198,2,83.9999974365235,0|0|2,0:0|0:0|0:0,0:0:0:0:
256,231,231576,1,0,0:0:0:0:
266,240,231790,22,0,L|282:138,2,83.9999974365235,2|2|0,0:0|0:0|0:0,0:0:0:0:
368,108,232433,2,0,L|384:210,1,83.9999974365235,2|0,0:0|0:0,0:0:0:0:
209,79,232862,2,0,L|170:174,2,83.9999974365235,2|0|0,0:0|0:0|0:0,0:0:0:0:
358,15,233504,38,0,P|398:25|440:28,1,83.9999974365235
453,178,233933,2,0,P|419:201|380:190,1,83.9999974365235
280,75,234362,2,0,P|281:116|281:158,1,83.9999974365235
340,251,234790,1,2,0:0:0:0:
337,260,235004,1,0,0:0:0:0:
266,355,235219,22,0,P|230:335|224:295,2,83.9999974365235,2|0|2,0:0|0:0|0:0,0:0:0:0:
152,226,235862,2,0,P|145:267|136:308,1,83.9999974365235,2|0,0:0|0:0,0:0:0:0:
0,307,236290,2,0,P|39:297|55:259,2,83.9999974365235,2|0|0,0:0|0:0|0:0,0:0:0:0:
30,136,236933,38,0,P|76:116|136:116,1,96,0|0,3:0|0:0,0:0:0:0:
171,17,237362,2,0,P|207:46|278:42,1,96,0|0,3:0|0:0,0:0:0:0:
256,174,237790,2,0,P|311:148|354:151,1,96,0|0,3:0|0:0,0:0:0:0:
396,26,238219,2,0,P|435:60|497:63,1,96,2|0,3:2|0:0,0:0:0:0:
422,249,238647,22,0,P|431:201|448:148,2,96,2|0|0,3:2|0:0|3:0,0:0:0:0:
338,357,239290,2,0,P|322:316|345:268,2,96,2|0|0,0:0|3:0|0:0,0:0:0:0:
480,379,239933,2,0,P|503:342|494:288,1,96,2|2,3:2|0:0,0:0:0:0:
256,174,240362,37,0,1:0:0:0:
256,174,240576,1,0,3:0:0:0:
165,261,240790,21,0,1:0:0:0:
165,261,241004,1,0,3:0:0:0:
53,165,241219,37,0,1:0:0:0:
53,165,241433,1,0,3:0:0:0:
0,309,241647,21,0,1:0:0:0:
0,309,241861,1,0,3:0:0:0:
128,143,242076,37,2,1:2:0:0:
73,88,242291,1,0,3:0:0:0:
1,108,242505,1,0,1:0:0:0:
244,250,242719,21,2,3:2:0:0:
256,174,242933,1,0,1:0:0:0:
268,98,243147,1,0,3:0:0:0:
388,216,243362,37,2,1:2:0:0:
464,201,243576,1,2,3:2:0:0:
172,279,243790,22,0,P|162:327|155:374,2,96,0|0|0,1:0|3:0|1:0,0:0:0:0:
18,257,244433,2,0,P|62:267|79:310,2,96,0|0|0,3:0|1:0|3:0,0:0:0:0:
190,141,245076,2,0,P|151:154|126:211,1,96,0|0,1:0|3:0,0:0:0:0:
325,325,245505,38,0,P|273:307|219:299,1,96,2|0,1:2|3:0,0:0:0:0:
422,226,245933,1,2,1:2:0:0:
259,100,246147,2,0,P|284:125|294:194,1,96,2|0,3:2|1:0,0:0:0:0:
447,133,246576,2,0,P|479:97|466:48,2,96,2|0|0,3:2|1:0|3:0,0:0:0:0:
201,52,247219,21,0,1:0:0:0:
224,249,247647,1,0,1:0:0:0:
422,226,248076,1,0,1:0:0:0:
398,28,248504,1,0,1:0:0:0:
136,132,248933,38,0,P|189:144|210:180,1,96,2|0,1:2|0:0,0:0:0:0:
174,351,249362,1,2,1:2:0:0:
94,195,249576,2,0,P|45:206|0:211,1,96,2|0,0:0|1:0,0:0:0:0:
230,282,250004,2,0,P|279:293|324:298,2,96,2|0|0,0:0|1:0|0:0,0:0:0:0:
437,220,250647,21,0,1:0:0:0:
423,80,251076,1,0,1:0:0:0:
269,156,251504,1,0,1:0:0:0:
255,16,251933,1,0,1:0:0:0:
71,352,252362,37,0,1:0:0:0:
85,212,252791,1,0,1:0:0:0:
239,288,253219,1,0,1:0:0:0:
253,148,253648,1,0,1:0:0:0:
494,337,254076,21,0,1:0:0:0:
358,363,254504,1,0,1:0:0:0:
244,272,254933,1,0,1:0:0:0:
108,298,255361,1,0,1:0:0:0:
0,127,255790,37,0,1:0:0:0:
136,153,256218,1,0,1:0:0:0:
250,62,256647,1,0,1:0:0:0:
386,88,257075,1,0,1:0:0:0:
204,276,257504,21,0,1:0:0:0:
204,276,257719,1,0,1:0:0:0:
178,133,257933,1,0,1:0:0:0:
178,133,258148,1,0,1:0:0:0:
321,107,258362,1,0,1:0:0:0:
321,107,258577,1,0,1:0:0:0:
347,250,258789,1,0,1:0:0:0:
347,250,259004,1,0,1:0:0:0:
127,183,259219,37,0,1:0:0:0:
127,183,259433,1,0,1:0:0:0:
321,107,259647,1,0,1:0:0:0:
321,107,259862,1,0,1:0:0:0:
397,301,260075,1,0,1:0:0:0:
397,301,260290,1,0,1:0:0:0:
203,377,260504,1,2,1:2:0:0:
203,377,260719,1,0,1:0:0:0:
140,87,260933,21,2,1:2:0:0:
95,294,261147,1,0,1:0:0:0:
302,339,261362,1,2,1:2:0:0:
347,132,261576,1,2,1:2:0:0:
50,177,261790,37,0,1:0:0:0:
95,384,262004,1,2,1:2:0:0:
302,339,262219,1,2,1:1:0:0:
257,132,262433,1,0,1:0:0:0:
102,299,262647,21,2,1:0:0:0:
160,25,262861,1,0,1:0:0:0:
434,84,263076,1,2,1:0:0:0:
374,357,263290,1,2,1:0:0:0:
57,188,263504,22,2,B|5:248|109:337|188:212|121:128,1,270.000010299683,8|0,0:0|0:0,0:1:0:0:
0,24,263933,22,0,B|43:39|64:84|64:84|69:33|108:7,1,180,2|0,0:0|0:0,1:0:0:0:
307,44,264362,54,0,L|311:83,1,36,4|0,1:1|0:0,0:0:0:0:
499,285,265219,53,10,0:1:0:0:
404,217,265326,1,2,0:0:0:0:
484,203,265433,1,2,0:0:0:0:
417,297,265540,2,0,B|422:292|422:292|453:113,1,174.000005310059,2|0,0:0|0:0,0:0:0:0:
302,367,265862,21,2,0:1:0:0:
234,267,265969,1,2,0:2:0:0:
317,283,266076,1,2,1:2:0:0:
218,351,266183,2,0,B|212:346|212:346|181:162,1,174.000005310059,2|0,0:0|0:0,0:0:0:0:
22,299,266504,37,2,0:1:0:0:
94,193,266612,1,2,0:0:0:0:
111,281,266719,1,2,0:0:0:0:
4,209,266826,1,2,0:0:0:0:
17,311,266933,1,8,0:1:0:0:
308,135,267147,21,2,0:1:0:0:
236,29,267255,1,2,0:0:0:0:
219,117,267362,1,2,0:0:0:0:
326,45,267469,2,0,B|318:53|318:53|240:54|153:84,1,174.000005310059,2|0,0:0|0:0,0:0:0:0:
94,193,267790,54,0,P|98:211|101:236,1,36,0|0,1:0|0:0,0:0:0:0:
165,316,268219,22,2,B|157:329|157:329|187:353|185:379|185:379|193:355|231:343|231:343|231:326,1,150,2|0,3:2|0:0,0:1:0:0:
214,255,268433,1,0,0:0:0:0:
474,360,268647,21,10,0:1:0:0:
511,228,268754,1,2,0:0:0:0:
474,360,268862,1,2,0:0:0:0:
511,228,268969,2,0,B|513:147|430:123|398:181|418:218|437:224,1,192,2|0,0:0|0:0,0:0:0:0:
286,275,269290,21,2,0:1:0:0:
249,143,269397,1,2,0:0:0:0:
286,275,269505,1,2,1:2:0:0:
249,143,269612,2,0,B|247:62|330:38|362:96|342:133|323:139,1,192,2|0,0:0|0:0,0:0:0:0:
94,193,269933,37,2,0:1:0:0:
235,218,270040,1,2,0:0:0:0:
94,193,270147,1,2,0:0:0:0:
235,218,270254,1,2,0:0:0:0:
113,287,270362,1,8,0:1:0:0:
111,63,270576,22,0,B|60:65|46:11|46:11|50:66|3:84,1,180.000006866455,2|2,0:1|0:0,0:0:0:0:
199,29,271219,54,0,B|203:-1|223:-13|223:-13|208:3|200:36,1,96,2|0,1:2|0:0,0:0:0:0:
209,35,271433,2,0,P|216:68|220:100,1,45.0000017166138,0|0,3:0|0:0,0:0:0:0:
379,71,271647,21,8,3:0:0:0:
385,69,271754,1,8,3:0:0:0:
391,68,271861,1,8,3:0:0:0:
397,67,271968,1,8,3:0:0:0:
476,208,272076,21,10,0:1:0:0:
378,143,272183,1,2,0:0:0:0:
458,126,272290,1,2,0:0:0:0:
394,222,272397,2,0,B|434:188|412:143|412:143|371:122|379:67,1,174.000005310059,2|0,0:0|0:0,0:0:0:0:
276,254,272719,21,2,0:1:0:0:
211,156,272826,1,2,0:0:0:0:
194,236,272933,1,2,1:2:0:0:
290,172,273040,2,0,B|256:212|211:190|211:190|189:152|141:140,1,174.000005310059,2|0,0:0|0:0,0:0:0:0:
24,340,273362,38,0,P|-6:296|9:265,1,87.0000026550294,2|2,0:1|0:0,0:0:0:0:
102,252,273576,2,0,P|132:295|116:326,1,87.0000026550294,2|2,0:1|0:0,0:0:0:0:
29,145,273790,1,8,0:1:0:0:
192,359,274004,22,0,P|247:343|290:339,1,87.0000026550294,2|2,0:1|0:0,0:0:0:0:
374,152,274219,2,0,P|319:168|276:172,1,87.0000026550294,2|2,0:0|0:0,0:0:0:0:
353,358,274433,1,2,0:0:0:0:
194,236,274647,54,0,B|202:179|202:179|205:178|205:178|218:86,1,135.000005149841,0|0,1:0|0:0,0:0:0:0:
126,17,275076,22,0,B|103:62|103:62|150:92,1,96,8|0,3:0|0:0,0:0:0:0:
418,98,275504,21,10,0:1:0:0:
285,76,275612,1,2,0:0:0:0:
418,98,275719,1,2,0:0:0:0:
285,76,275826,2,0,B|249:97|255:146|255:146|304:184|311:244,1,192,2|0,0:0|0:0,0:0:0:0:
458,353,276147,21,2,0:1:0:0:
480,220,276255,1,2,0:0:0:0:
458,353,276362,1,2,1:2:0:0:
480,220,276469,2,0,B|459:184|410:190|410:190|372:239|312:246,1,192,2|0,0:0|0:0,0:0:0:0:
176,298,276790,37,2,0:1:0:0:
317,329,276897,1,2,0:0:0:0:
176,298,277004,1,2,0:0:0:0:
317,329,277111,1,2,0:0:0:0:
202,211,277219,1,8,0:1:0:0:
25,213,277433,21,2,0:1:0:0:
43,128,277540,1,2,0:0:0:0:
128,141,277647,1,2,0:0:0:0:
147,56,277754,2,0,P|124:12|71:16,1,90.0000034332277,2|0,0:0|0:0,0:0:0:0:
315,103,278076,54,0,P|342:110|353:114,1,36,4|0,1:0|3:0,0:0:0:0:
376,343,278933,53,10,0:1:0:0:
480,281,279040,1,2,0:0:0:0:
384,235,279147,1,2,0:0:0:0:
454,348,279254,2,0,B|449:343|449:343|429:165,1,174.000005310059,2|0,0:0|0:0,0:0:0:0:
296,378,279576,21,2,0:1:0:0:
192,311,279683,1,2,0:0:0:0:
280,271,279790,1,2,1:2:0:0:
218,378,279897,2,0,B|223:373|223:373|243:195,1,174.000005310059,2|0,0:0|0:0,0:0:0:0:
1,290,280218,37,2,0:1:0:0:
90,226,280326,1,2,0:0:0:0:
107,331,280433,1,2,0:0:0:0:
13,217,280540,1,2,0:0:0:0:
100,324,280647,1,8,0:1:0:0:
28,117,280861,21,2,0:1:0:0:
108,17,280969,1,2,0:0:0:0:
138,126,281076,1,2,0:0:0:0:
38,40,281183,2,0,B|45:48|45:48|125:65|210:97,1,174.000005310059,2|0,0:0|0:0,0:0:0:0:
345,32,281504,54,0,P|341:50|338:75,1,36,0|0,1:0|0:0,0:0:0:0:
464,191,281933,22,2,B|478:191|478:191|490:153|514:145|514:145|488:147|464:117|464:117|451:125,1,150,2|0,3:2|0:0,0:1:0:0:
393,173,282147,1,0,0:0:0:0:
201,299,282362,21,10,0:1:0:0:
238,167,282469,1,2,0:0:0:0:
201,299,282577,1,2,0:0:0:0:
238,167,282684,2,0,B|217:107|217:107|94:147,1,192,2|0,0:0|0:0,0:0:0:0:
315,190,283004,21,2,0:1:0:0:
278,322,283111,1,2,0:0:0:0:
315,190,283219,1,2,1:2:0:0:
278,322,283326,2,0,B|299:382|299:382|422:342,1,192,2|0,0:0|0:0,0:0:0:0:
376,132,283647,37,2,0:2:0:0:
384,134,283754,1,2,0:0:0:0:
392,136,283861,1,2,0:2:0:0:
400,138,283969,1,2,0:0:0:0:
315,190,284076,1,8,0:1:0:0:
220,9,284290,21,2,0:2:0:0:
220,18,284397,1,2,0:0:0:0:
227,87,284505,1,2,0:2:0:0:
228,97,284612,1,2,0:0:0:0:
238,167,284719,2,0,P|243:203|246:235,1,60,2|0,0:0|0:0,0:0:0:0:
60,82,284933,54,0,B|52:42|23:23|23:23|68:30|64:78,1,150,2|0,1:2|0:0,0:0:0:0:
1,143,285147,2,0,P|54:157|95:173,1,96,0|0,3:0|0:0,0:0:0:0:
78,299,285362,21,8,3:0:0:0:
72,297,285469,1,8,3:0:0:0:
66,295,285576,1,8,3:0:0:0:
60,293,285683,1,8,3:0:0:0:
252,375,285790,21,10,0:1:0:0:
281,258,285897,1,2,0:0:0:0:
164,229,286004,1,2,0:0:0:0:
134,355,286112,2,0,B|208:342|208:342|213:344|213:344|313:327,1,174.000005310059,2|0,0:0|0:0,0:0:0:0:
392,110,286433,21,2,0:1:0:0:
363,227,286540,1,2,0:0:0:0:
480,251,286647,1,2,1:2:0:0:
512,132,286755,2,0,B|437:145|437:145|433:143|433:143|333:160,1,174.000005310059,2|0,0:0|0:0,0:0:0:0:
131,45,287076,37,2,0:1:0:0:
270,107,287183,1,2,0:2:0:0:
120,140,287290,1,2,0:1:0:0:
224,26,287397,1,2,0:2:0:0:
207,181,287504,1,8,0:0:0:0:
207,181,287719,22,0,P|186:145|136:138,1,87.0000026550294,2|2,0:1|0:0,0:0:0:0:
19,339,287933,2,0,P|40:375|90:382,1,87.0000026550294,2|2,0:1|0:0,0:0:0:0:
136,230,288147,1,2,0:0:0:0:
136,230,288362,53,0,1:0:0:0:
140,244,288469,1,0,3:0:0:0:
364,145,288683,21,0,1:0:0:0:
64,9,289004,37,0,1:0:0:0:
323,47,289219,53,10,0:1:0:0:
310,53,289326,1,0,0:0:0:0:
297,59,289433,2,0,B|292:101|292:101|290:104|290:104|283:155,1,96
470,329,289647,21,10,0:1:0:0:
464,316,289754,1,0,0:0:0:0:
458,303,289861,2,0,B|416:298|416:298|413:296|413:296|362:291,1,96
140,364,290076,37,10,0:1:0:0:
150,353,290183,1,0,0:0:0:0:
160,343,290290,2,0,B|169:301|169:301|168:298|168:298|177:249,1,96
451,128,290505,22,0,B|414:97|414:97|364:118,1,96,10|0,0:1|0:0,0:0:0:0:
167,155,290719,37,0,1:0:0:0:
169,162,290790,1,0,3:0:0:0:
171,169,290862,1,0,3:0:0:0:
172,177,290933,21,10,0:1:0:0:
349,202,291076,1,4,3:3:0:0:
237,342,291219,1,4,3:3:0:0:
275,110,291362,37,2,3:2:0:0:
354,320,291504,1,4,3:3:0:0:
132,286,291648,1,4,3:3:0:0:
256,235,291790,5,6,0:0:0:0:
256,235,292219,1,0,0:0:0:0:
256,235,292647,1,0,0:0:0:0:
256,235,293076,1,0,0:0:0:0:
169,141,293504,21,0,0:0:0:0:
256,235,293933,1,0,0:0:0:0:
318,115,294362,2,0,B|337:113|357:101|357:101|364:120|384:131,1,84,2|0,0:0|0:0,0:0:0:0:
497,89,295219,22,0,P|475:148|462:209,1,125.999996154785,6|0,1:1|0:0,0:0:0:0:
433,346,295647,2,0,B|457:354|473:370|473:370|482:348|500:331,1,96
246,275,295862,1,2,3:2:0:0:
260,201,295969,1,0,3:2:0:0:
274,127,296076,2,0,B|180:141|180:141|175:140|175:140|84:153,1,192,8|0,0:0|0:0,0:0:0:0:
80,162,296397,1,0,0:0:0:0:
76,171,296504,2,0,P|91:208|131:213,1,83.9999974365235,0|0,3:0|0:0,0:0:0:0:
230,317,296933,22,0,P|170:315|116:341,1,120,0|0,1:0|0:0,0:0:0:0:
111,351,297254,1,0,3:0:0:0:
108,361,297362,1,0,3:0:0:0:
142,207,297576,1,0,0:0:0:0:
407,244,297790,37,10,0:2:0:0:
418,234,297897,21,2,0:2:0:0:
431,214,298004,37,2,0:2:0:0:
437,188,298111,21,2,0:2:0:0:
429,139,298218,37,2,0:2:0:0:
393,90,298325,21,2,0:2:0:0:
331,69,298432,37,2,0:2:0:0:
254,101,298539,21,2,0:2:0:0:
240,195,298647,38,0,B|254:287|254:287|257:293|257:293|273:383,1,192,0|0,1:0|0:0,0:0:0:0:
46,249,299076,21,8,3:0:0:0:
48,232,299183,1,8,3:0:0:0:
51,216,299290,1,8,3:0:0:0:
54,200,299397,1,8,3:0:0:0:
0,122,299504,38,0,B|43:104|74:66|74:66|90:111|131:143,1,192,8|0,0:0|0:0,0:0:0:0:
137,255,299826,1,0,3:0:0:0:
134,270,299933,2,0,B|174:285|204:321|204:321|218:278|257:248,1,180,2|0,3:2|0:0,0:0:0:0:
253,234,300362,21,2,1:2:0:0:
215,94,300576,2,0,P|261:139|324:134,1,120,2|0,0:0|0:0,0:0:0:0:
483,307,301004,1,2,3:2:0:0:
412,324,301112,1,0,3:2:0:0:
377,264,301219,2,0,P|383:204|405:148,1,120,8|2,0:0|0:0,0:0:0:0:
446,27,301540,1,0,3:0:0:0:
435,34,301647,2,0,P|455:87|512:100,1,120,2|0,3:2|0:0,0:0:0:0:
277,101,302076,37,0,1:0:0:0:
281,88,302183,1,0,3:0:0:0:
307,231,302397,21,0,3:0:0:0:
337,361,302719,37,0,3:0:0:0:
213,206,302933,22,0,B|120:187|120:187|110:180|110:180|26:163,1,192,8|0,0:0|0:0,0:0:0:0:
20,169,303254,1,0,0:0:0:0:
14,175,303362,2,0,L|24:221,1,48
81,56,303790,37,2,1:2:0:0:
97,53,303897,21,2,0:2:0:0:
126,57,304004,37,2,0:2:0:0:
171,82,304112,21,2,0:2:0:0:
200,133,304219,37,2,0:2:0:0:
213,206,304326,21,2,0:2:0:0:
262,264,304433,37,2,0:2:0:0:
347,281,304540,21,2,0:2:0:0:
420,236,304647,53,10,0:0:0:0:
417,225,304754,1,2,0:0:0:0:
415,215,304861,1,2,0:0:0:0:
413,205,304968,1,2,0:0:0:0:
411,194,305075,1,2,0:0:0:0:
408,184,305182,1,2,0:0:0:0:
406,174,305289,1,2,0:0:0:0:
404,164,305396,1,2,0:0:0:0:
388,69,305504,54,0,P|332:77|312:131,1,120,6|0,1:2|0:0,0:2:0:0:
253,227,305826,1,0,3:0:0:0:
249,240,305933,2,0,P|304:219|364:221,1,120,0|2,3:0|0:0,0:0:0:0:
132,10,306362,22,0,P|139:105|145:201,1,192,8|0,0:0|0:0,0:0:0:0:
24,184,306683,1,0,3:0:0:0:
16,175,306790,2,0,P|10:115|7:56,1,120,0|0,3:0|0:0,0:0:0:0:
244,39,307219,2,0,P|246:98|251:158,1,120,0|2,1:0|3:2,0:0:0:0:
258,165,307540,1,2,3:2:0:0:
265,171,307647,1,2,3:2:0:0:
154,214,307862,1,0,0:0:0:0:
316,374,308076,37,10,0:2:0:0:
310,362,308183,21,2,0:2:0:0:
308,343,308290,37,2,0:2:0:0:
325,306,308397,21,2,0:2:0:0:
368,275,308504,37,2,0:2:0:0:
430,267,308612,21,2,0:2:0:0:
493,229,308719,37,2,0:2:0:0:
512,144,308826,21,2,0:2:0:0:
448,79,308933,38,0,B|343:89|343:89|337:92|337:92|233:104,1,215.999993408203,2|0,1:2|0:0,0:0:0:0:
130,15,309362,2,0,B|150:23|167:43|167:43|171:17|185:0,1,96,2|0,0:1|0:0,0:0:0:0:
89,207,309576,1,2,3:0:0:0:
76,281,309683,1,0,3:0:0:0:
63,355,309790,2,0,P|157:337|252:315,1,192,8|0,0:0|0:0,0:0:0:0:
256,309,310112,1,0,0:0:0:0:
261,302,310219,2,0,P|250:263|211:252,1,83.9999974365235,2|0,0:0|0:0,0:0:0:0:
154,313,310647,21,0,1:0:0:0:
353,364,310862,37,0,0:0:0:0:
369,359,310969,1,0,0:0:0:0:
395,340,311076,1,2,0:1:0:0:
415,296,311183,1,2,0:2:0:0:
409,240,311290,1,2,0:2:0:0:
362,183,311397,1,2,0:2:0:0:
289,217,311504,21,8,0:0:0:0:
243,15,311719,1,2,0:1:0:0:
240,28,311826,1,2,0:2:0:0:
238,42,311933,1,2,0:2:0:0:
236,56,312040,1,2,0:2:0:0:
234,70,312147,1,2,0:2:0:0:
231,84,312254,1,2,0:2:0:0:
279,167,312362,38,2,B|347:158|347:158|370:152|370:152|394:155|394:155|469:148,1,192,2|0,1:2|0:0,0:1:0:0:
442,273,312790,21,8,3:0:0:0:
439,288,312897,1,8,3:0:0:0:
435,304,313004,1,8,3:0:0:0:
432,320,313111,1,8,3:0:0:0:
374,384,313219,38,0,P|310:357|303:288,1,143.999995605469,8|0,0:0|0:0,0:0:0:0:
279,167,313540,2,0,P|344:196|415:204,1,143.999995605469,2|0,0:0|0:0,0:0:0:0:
303,21,313862,21,2,3:2:0:0:
309,16,313969,1,2,3:2:0:0:
316,12,314076,2,0,P|314:47|308:83,1,71.9999978027344,2|0,1:2|0:0,0:0:0:0:
184,179,314290,2,0,P|168:111|103:86,1,143.999995605469,2|0,0:0|0:0,0:0:0:0:
0,375,314719,1,2,3:0:0:0:
24,307,314826,1,0,3:0:0:0:
51,240,314933,38,0,B|146:254|146:254|155:252|155:252|242:265,1,192,8|2,0:0|0:0,0:0:0:0:
245,271,315254,1,0,0:0:0:0:
250,278,315362,2,0,P|190:251|189:171,1,143.999995605469,2|0,0:0|0:0,0:0:0:0:
374,359,315790,21,2,1:2:0:0:
384,356,315897,1,0,3:0:0:0:
360,215,316112,37,2,3:2:0:0:
336,74,316433,21,2,3:2:0:0:
182,334,316647,37,10,3:2:0:0:
120,311,316754,1,2,0:0:0:0:
100,262,316862,1,2,0:0:0:0:
114,219,316969,1,2,0:0:0:0:
102,139,317076,21,2,3:2:0:0:
146,146,317183,1,2,0:0:0:0:
177,151,317290,1,2,0:0:0:0:
207,156,317397,1,2,0:0:0:0:
259,233,317504,54,0,B|270:263|270:303|270:303|296:275|330:264,1,143.999995605469,0|0,1:0|0:0,0:0:0:0:
434,230,317826,1,0,3:0:0:0:
418,231,317933,2,0,P|408:270|428:306,1,83.9999974365235,0|0,3:0|0:0,0:0:0:0:
365,19,318362,53,10,0:0:0:0:
421,93,318576,2,0,L|474:83,1,41.9999987182618,2|0,0:1|0:0,0:0:0:0:
234,236,318790,21,2,0:0:0:0:
273,161,319004,2,0,L|326:171,1,41.9999987182618,2|0,0:1|0:0,0:0:0:0:
203,364,319219,53,4,3:0:0:0:
110,341,319862,1,2,0:0:0:0:
13,322,320504,1,0,0:0:0:0:
54,384,321362,21,0,0:0:0:0:
54,384,321790,21,2,0:2:0:0:
69,379,321897,21,2,0:2:0:0:
94,365,322004,37,2,0:2:0:0:
119,333,322112,21,2,0:2:0:0:
131,282,322219,37,2,0:2:0:0:
106,226,322326,21,2,0:2:0:0:
46,187,322433,37,2,0:2:0:0:
15,117,322540,21,2,0:2:0:0:
85,33,322647,38,0,B|212:53|212:53|217:52|217:52|351:74,1,270.000010299683,6|0,1:0|0:0,0:0:0:0:
429,109,323076,22,0,B|490:84|446:42|505:18,1,120,2|0,0:1|0:0,0:0:0:0:
309,149,323290,37,0,3:0:0:0:
374,189,323397,1,0,3:0:0:0:
365,265,323504,2,0,P|256:288|175:399,1,240,8|0,0:0|0:0,0:0:0:0:
177,376,323826,1,0,0:0:0:0:
173,366,323933,2,0,P|158:333|123:316,1,60,2|0,0:0|0:0,0:0:0:0:
157,43,324147,21,0,0:0:0:0:
157,43,324254,1,0,0:0:0:0:
157,43,324362,2,0,P|144:120|131:199,1,150,0|0,1:0|0:0,0:0:0:0:
180,252,324683,1,0,3:0:0:0:
180,252,324791,1,0,3:0:0:0:
62,98,325005,1,0,0:0:0:0:
373,31,325219,37,10,0:2:0:0:
363,42,325326,21,2,0:2:0:0:
352,59,325433,37,2,0:2:0:0:
347,84,325540,21,2,0:2:0:0:
355,119,325647,37,2,0:2:0:0:
394,155,325754,21,2,0:2:0:0:
433,214,325861,37,2,0:2:0:0:
421,292,325968,21,2,0:2:0:0:
353,350,326076,38,0,B|311:356|311:356|308:358|308:358|260:367,1,90.0000034332277,0|0,1:0|0:0,0:0:0:0:
208,317,326290,1,0,0:0:0:0:
502,68,326504,21,8,3:0:0:0:
500,84,326611,1,8,3:0:0:0:
498,100,326718,1,8,3:0:0:0:
496,116,326825,1,8,3:0:0:0:
433,214,326933,38,0,B|384:239|335:190|369:171|330:128|272:148,1,192,8|0,0:0|0:0,0:0:0:0:
275,239,327254,1,0,3:0:0:0:
284,242,327362,2,0,B|338:248|367:185|329:179|351:125|412:124,1,192,2|0,3:2|0:0,0:0:0:0:
251,24,327683,21,0,0:0:0:0:
205,98,327790,2,0,P|153:67|42:64,1,167.999994873047,2|0,1:2|0:0,0:0:0:0:
2,210,328112,1,0,0:0:0:0:
7,200,328219,2,0,P|32:164|84:148,1,83.9999974365235,2|0,0:0|0:0,0:0:0:0:
165,215,328433,37,0,3:0:0:0:
151,287,328540,1,0,3:0:0:0:
137,359,328647,2,0,B|152:366|152:366|245:352,1,96,8|0,0:0|0:0,0:0:0:0:
355,267,328862,21,2,0:0:0:0:
334,271,328969,1,2,0:0:0:0:
321,279,329076,1,2,0:0:0:0:
284,242,329183,1,2,0:0:0:0:
296,186,329290,1,2,0:0:0:0:
355,146,329397,1,2,0:0:0:0:
422,180,329504,38,0,P|388:254|375:357,1,180.000006866455,2|0,1:2|0:0,0:0:0:0:
220,283,329826,2,0,P|170:218|77:202,1,180.000006866455,2|0,3:2|0:0,0:0:0:0:
9,104,330147,2,0,P|55:80|83:37,1,90.0000034332277,2|0,3:2|0:0,0:0:0:0:
355,146,330362,22,0,B|260:133|260:133|256:137|256:137|142:122,1,204.000003890991,8|0,0:0|0:0,0:0:0:0:
209,47,330683,1,2,0:0:0:0:
221,48,330790,1,2,0:2:0:0:
242,46,330897,1,2,0:2:0:0:
281,25,331004,1,2,0:2:0:0:
345,0,331112,1,2,0:2:0:0:
420,9,331219,38,0,P|438:52|393:100,1,102.000001945496,0|0,1:0|0:0,0:0:0:0:
479,243,331433,21,2,0:2:0:0:
435,220,331540,37,2,0:2:0:0:
382,226,331647,21,2,0:2:0:0:
347,271,331754,37,2,0:2:0:0:
325,325,331862,21,2,0:2:0:0:
271,358,331969,37,2,0:2:0:0:
209,329,332076,5,10,3:2:0:0:
219,256,332183,1,2,3:2:0:0:
229,183,332290,1,2,3:2:0:0:
239,110,332397,1,2,3:2:0:0:
204,89,332504,21,2,3:1:0:0:
214,168,332611,1,2,3:2:0:0:
225,247,332718,1,2,3:2:0:0:
236,326,332825,1,2,3:2:0:0:
145,375,332933,54,0,P|115:316|18:298,1,167.999994873047,6|0,1:2|0:0,0:0:0:0:
14,304,333254,1,0,0:0:0:0:
8,313,333362,2,0,P|31:281|22:233,1,83.9999974365235
0,85,333576,37,2,3:2:0:0:
62,122,333683,1,0,3:0:0:0:
118,74,333790,2,0,B|204:56|204:56|210:59|210:59|319:36,1,192,8|0,0:0|0:0,0:0:0:0:
386,90,334112,1,0,0:0:0:0:
376,94,334219,2,0,P|343:134|345:183,1,96,2|0,0:0|0:0,0:0:0:0:
479,219,334433,2,0,P|512:179|510:130,1,96,2|0,0:0|0:0,0:0:0:0:
232,223,334647,22,0,P|295:235|315:270,1,96,0|0,1:0|0:0,0:0:0:0:
285,355,334862,1,2,0:2:0:0:
266,365,334969,1,2,0:2:0:0:
235,363,335076,1,2,0:2:0:0:
205,331,335183,1,2,0:2:0:0:
162,293,335290,1,2,0:2:0:0:
93,273,335397,1,2,0:2:0:0:
32,331,335504,38,0,P|16:276|-1:240,1,96,8|0,0:0|0:0,0:0:0:0:
23,115,335719,21,2,0:2:0:0:
40,130,335826,37,2,0:2:0:0:
74,147,335933,21,2,0:2:0:0:
130,140,336040,37,2,0:2:0:0:
169,82,336147,21,2,0:2:0:0:
225,26,336254,37,2,0:2:0:0:
309,48,336362,22,0,P|280:146|266:230,1,180.000006866455,2|0,1:2|0:0,0:0:0:0:
277,227,336683,1,0,0:0:0:0:
288,231,336790,38,0,P|264:173|223:123,1,120,2|0,0:1|0:0,0:0:0:0:
389,21,337004,1,0,0:0:0:0:
468,363,337219,22,0,B|475:319|475:319|480:315|480:315|489:262,1,102.000001945496,8|0,0:0|0:0,0:0:0:0:
291,376,337433,37,2,0:2:0:0:
284,356,337540,1,2,0:2:0:0:
252,323,337647,1,2,0:2:0:0:
200,307,337754,1,2,0:2:0:0:
150,258,337862,1,2,0:2:0:0:
123,187,337969,1,2,0:2:0:0:
159,122,338076,22,0,P|202:104|259:90,1,102.000001945496,0|0,1:0|0:0,0:0:0:0:
103,14,338290,37,2,0:0:0:0:
101,29,338397,1,2,0:0:0:0:
89,49,338504,1,2,0:1:0:0:
51,69,338612,1,2,0:2:0:0:
9,108,338718,1,2,0:2:0:0:
12,175,338825,1,2,0:2:0:0:
55,233,338933,22,0,P|68:288|77:341,1,102.000001945496,8|0,0:0|0:0,0:0:0:0:
219,231,339147,37,2,0:1:0:0:
230,210,339254,21,2,0:0:0:0:
262,187,339361,37,2,0:0:0:0:
316,178,339468,21,2,0:0:0:0:
377,213,339575,37,2,0:0:0:0:
403,281,339682,21,2,0:0:0:0:
375,358,339790,38,2,B|385:284|385:284|391:274|391:274|389:262|389:262|403:165,1,180,2|0,1:2|0:0,0:1:0:0:
489,97,340219,21,8,3:0:0:0:
474,98,340326,1,8,3:0:0:0:
458,92,340433,1,8,3:0:0:0:
448,81,340540,1,8,3:0:0:0:
385,10,340647,38,0,P|291:40|258:156,1,215.999993408203,8|0,0:0|0:0,0:0:0:0:
182,158,340969,2,0,P|118:75|14:76,1,215.999993408203,2|0,0:0|0:0,0:0:0:0:
36,277,341290,21,2,3:2:0:0:
30,282,341397,1,2,3:2:0:0:
23,286,341504,2,0,P|26:250|34:212,1,75,2|0,1:2|0:0,0:0:0:0:
182,158,341719,2,0,P|169:234|164:268,1,83.9999974365235,2|0,0:0|0:0,0:0:0:0:
242,358,341933,37,2,3:2:0:0:
264,290,342040,1,2,3:2:0:0:
333,266,342147,1,2,3:2:0:0:
396,303,342254,1,2,3:2:0:0:
466,291,342362,22,0,B|481:207|481:207|463:173|463:173|484:57,1,227.999993911743,8|2,0:0|0:0,0:0:0:0:
337,48,342682,1,0,3:0:0:0:
349,120,342790,2,0,P|398:88|403:24,1,113.999996955872,2|0,3:2|0:0,0:0:0:0:
170,8,343004,2,0,P|219:40|224:104,1,113.999996955872,0|0,3:0|0:0,0:0:0:0:
33,212,343219,37,2,1:2:0:0:
48,141,343326,1,0,3:0:0:0:
220,345,343540,21,2,3:2:0:0:
437,162,343862,37,2,3:2:0:0:
295,345,344076,21,10,0:2:0:0:
297,330,344183,1,2,0:2:0:0:
291,312,344290,1,2,0:2:0:0:
278,299,344397,1,2,0:2:0:0:
185,254,344504,37,2,0:2:0:0:
245,219,344612,1,2,0:2:0:0:
259,153,344719,1,2,0:2:0:0:
227,91,344826,1,2,0:2:0:0:
324,25,344933,21,0,1:2:0:0:
322,32,345040,1,2,0:0:0:0:
321,40,345147,1,2,0:0:0:0:
319,48,345255,1,2,0:0:0:0:
318,56,345362,54,0,P|323:84|326:107,3,45.0000017166138,2|0|0|0,0:0|0:0|0:0|0:0,0:0:0:0:
87,154,345790,53,10,0:0:0:0:
155,96,346004,2,0,L|148:44,1,45.0000017166138,2|0,0:1|0:0,0:0:0:0:
425,230,346219,21,10,0:0:0:0:
357,288,346433,2,0,L|364:340,1,45.0000017166138,2|0,0:1|0:0,0:0:0:0:
256,192,346647,53,6,0:0:0:0:
