osu file format v14

[General]
AudioFilename: audio.mp3
AudioLeadIn: 0
PreviewTime: 144180
Countdown: 0
SampleSet: Soft
StackLeniency: 0.8
Mode: 0
LetterboxInBreaks: 0
WidescreenStoryboard: 1

[Editor]
Bookmarks: 34573,48288,62002,75716,89430,103145,116859,130573,144288,153716,158002,171716,178573,185430,192288,195716,199145,206002,209430,212859,216288,230002,243716,257430,264288,271145
DistanceSpacing: 4.1
BeatDivisor: 12
GridSize: 4
TimelineZoom: 2.899999

[Metadata]
Title:Days to Come feat. Fiora
TitleUnicode:Days to Come feat. Fiora
Artist:Seven Lions
ArtistUnicode:Seven Lions
Creator:Mao
Version:KKip's Insane
Source:
Tags:electronic english melodic dubstep kkipalt jeff montalvo ep amy cutler
BeatmapID:2306891
BeatmapSetID:1063786

[Difficulty]
HPDrainRate:6
CircleSize:4.3
OverallDifficulty:7
ApproachRate:8
SliderMultiplier:1.5
SliderTickRate:1

[Events]
//Background and Video events
0,0,"bg.png",0,0
//Break Periods
2,89630,101552
//Storyboard Layer 0 (Background)
//Storyboard Layer 1 (Fail)
//Storyboard Layer 2 (Pass)
//Storyboard Layer 3 (Foreground)
//Storyboard Layer 4 (Overlay)
//Storyboard Sound Samples

[TimingPoints]
288,428.571428571429,4,2,1,10,1,0
34145,-100,4,2,1,10,0,0
34573,-125,4,2,1,50,0,0
36716,-83.3333333333333,4,2,1,50,0,0
37145,-100,4,2,1,50,0,0
40145,-100,4,2,1,50,0,0
40573,-100,4,2,1,50,0,0
41430,-125,4,2,1,50,0,0
43573,-83.3333333333333,4,2,1,50,0,0
44002,-100,4,2,1,50,0,0
47002,-100,4,2,1,50,0,0
60502,-100,4,2,1,50,0,0
65430,-90.9090909090909,4,2,1,60,0,0
80430,-90.9090909090909,4,2,1,60,0,0
81288,-90.9090909090909,4,2,1,60,0,0
83859,-90.9090909090909,4,2,1,60,0,0
86002,-200,4,2,1,60,0,0
103145,-100,4,2,1,30,0,0
103359,-100,4,2,1,30,0,0
106573,-100,4,2,1,40,0,0
110002,-100,4,2,1,50,0,0
111716,-100,4,2,1,60,0,0
113430,-66.6666666666667,4,2,1,60,0,0
113859,-100,4,2,1,60,0,0
114288,-55.5555555555556,4,2,1,60,0,0
114716,-45.4545454545455,4,2,1,60,0,0
115145,-100,4,2,1,60,0,0
116859,-50,4,2,1,75,0,1
117716,-333.333333333333,4,2,1,75,0,1
118573,-50,4,2,1,75,0,1
119859,-100,4,2,1,75,0,1
120288,-45.4545454545455,4,2,1,75,0,1
121145,-100,4,2,1,75,0,1
121466,-66.6666666666667,4,2,1,75,0,1
121788,-66.6666666666667,4,2,1,75,0,1
122002,-100,4,2,1,75,0,1
122323,-100,4,2,1,75,0,1
122645,-66.6666666666667,4,2,1,75,0,1
122859,-45.4545454545455,4,2,1,75,0,1
123716,-45.4545454545455,4,2,1,75,0,1
125109,-100,4,2,1,75,0,1
127359,-50,4,2,1,75,0,1
127573,-100,4,2,1,75,0,1
127680,-50,4,2,1,75,0,1
128002,-200,4,2,1,75,0,1
128323,-66.6666666666667,4,2,1,75,0,1
128859,-66.6666666666667,4,2,1,75,0,1
129180,-45.4545454545455,4,2,1,75,0,1
131430,-200,4,2,1,75,0,1
132502,-50,4,2,1,75,0,1
133788,-41.6666666666667,4,2,1,75,0,1
134859,-133.333333333333,4,2,1,75,0,1
135823,-66.6666666666667,4,2,1,75,0,1
136145,-50,4,2,1,75,0,1
136359,-41.6666666666667,4,2,1,75,0,1
138288,-66.6666666666667,4,2,1,75,0,1
139145,-100,4,2,1,75,0,1
141073,-45.4545454545455,4,2,1,75,0,1
144288,-100,4,2,1,70,0,0
144716,-83.3333333333333,4,2,1,75,0,0
145145,-83.3333333333333,4,2,1,70,0,0
146430,-83.3333333333333,4,2,1,70,0,0
146645,-100,4,2,1,70,0,0
147073,-50,4,2,1,70,0,0
147930,-83.3333333333333,4,2,1,70,0,0
148573,-100,4,2,1,70,0,0
149859,-100,4,2,1,70,0,0
150073,-100,4,2,1,70,0,0
150288,-83.3333333333333,4,2,1,70,0,0
152002,-100,4,2,1,70,0,0
153288,-100,4,2,1,70,0,0
153502,-100,4,2,1,70,0,0
153716,-100,4,2,1,70,0,0
153930,-50,4,2,1,70,0,0
154573,-83.3333333333333,4,2,1,70,0,0
155430,-100,4,2,1,70,0,0
156716,-100,4,2,1,70,0,0
157145,-50,4,2,1,70,0,0
158430,-100,4,2,1,70,0,0
160359,-66.6666666666667,4,2,1,70,0,0
162288,-66.6666666666667,4,2,1,70,0,0
163145,-66.6666666666667,4,2,1,70,0,0
163573,-66.6666666666667,4,2,1,70,0,0
163788,-66.6666666666667,4,2,1,70,0,0
164002,-66.6666666666667,4,2,1,70,0,0
164216,-50,4,2,1,70,0,0
165716,-66.6666666666667,4,2,1,70,0,0
167002,-66.6666666666667,4,2,1,70,0,0
167216,-66.6666666666667,4,2,1,70,0,0
167430,-66.6666666666667,4,2,1,70,0,0
167645,-50,4,2,1,70,0,0
168288,-100,4,2,1,70,0,0
169145,-66.6666666666667,4,2,1,70,0,0
170430,-66.6666666666667,4,2,1,70,0,0
170645,-66.6666666666667,4,2,1,70,0,0
170859,-66.6666666666667,4,2,1,70,0,0
174073,-50,4,2,1,70,0,0
174288,-66.6666666666667,4,2,1,70,0,0
178573,-66.6666666666667,4,2,1,30,0,0
182002,-200,4,2,1,30,0,0
183716,-133.333333333333,4,2,1,30,0,0
184573,-250,4,2,1,30,0,0
185430,-125,4,2,1,40,0,0
195716,-125,4,2,1,50,0,0
206002,-100,4,2,1,60,0,0
212859,-125,4,2,1,10,0,0
216288,-50,4,2,1,75,0,1
217145,-166.666666666667,4,2,1,75,0,1
218002,-41.6666666666667,4,2,1,75,0,1
219288,-100,4,2,1,75,0,1
219716,-41.6666666666667,4,2,1,75,0,1
220573,-100,4,2,1,75,0,1
220895,-66.6666666666667,4,2,1,75,0,1
221216,-66.6666666666667,4,2,1,75,0,1
221430,-100,4,2,1,75,0,1
221752,-66.6666666666667,4,2,1,75,0,1
222073,-66.6666666666667,4,2,1,75,0,1
222288,-45.4545454545455,4,2,1,75,0,1
224538,-100,4,2,1,75,0,1
226573,-50,4,2,1,75,0,1
227430,-200,4,2,1,75,0,1
228288,-66.6666666666667,4,2,1,75,0,1
228609,-45.4545454545455,4,2,1,75,0,1
230859,-100,4,2,1,75,0,1
231930,-50,4,2,1,75,0,1
232573,-100,4,2,1,75,0,1
232895,-100,4,2,1,75,0,1
233645,-45.4545454545455,4,2,1,75,0,1
234288,-100,4,2,1,75,0,1
235145,-100,4,2,1,75,0,1
235573,-100,4,2,1,75,0,1
235788,-41.6666666666667,4,2,1,75,0,1
236002,-41.6666666666667,4,2,1,75,0,1
236859,-41.6666666666667,4,2,1,75,0,1
237716,-41.6666666666667,4,2,1,75,0,1
237930,-66.6666666666667,4,2,1,75,0,1
240502,-41.6666666666667,4,2,1,75,0,1
242002,-100,4,2,1,75,0,1
243073,-45.4545454545455,4,2,1,75,0,1
243716,-100,4,2,1,70,0,0
244145,-83.3333333333333,4,2,1,70,0,0
244573,-83.3333333333333,4,2,1,70,0,0
245859,-83.3333333333333,4,2,1,70,0,0
246073,-83.3333333333333,4,2,1,70,0,0
246288,-83.3333333333333,4,2,1,70,0,0
246502,-50,4,2,1,70,0,0
247145,-83.3333333333333,4,2,1,70,0,0
247573,-83.3333333333333,4,2,1,70,0,0
249288,-83.3333333333333,4,2,1,70,0,0
249502,-83.3333333333333,4,2,1,70,0,0
249716,-83.3333333333333,4,2,1,70,0,0
249930,-83.3333333333333,4,2,1,70,0,0
250359,-83.3333333333333,4,2,1,70,0,0
251430,-83.3333333333333,4,2,1,70,0,0
252716,-83.3333333333333,4,2,1,70,0,0
252930,-83.3333333333333,4,2,1,70,0,0
253359,-50,4,2,1,70,0,0
254002,-83.3333333333333,4,2,1,70,0,0
254430,-83.3333333333333,4,2,1,70,0,0
256145,-83.3333333333333,4,2,1,70,0,0
256359,-83.3333333333333,4,2,1,70,0,0
256573,-83.3333333333333,4,2,1,70,0,0
257430,-83.3333333333333,4,2,1,70,0,0
259788,-50,4,2,1,70,0,0
260002,-66.6666666666667,4,2,1,70,0,0
264288,-83.3333333333333,4,2,1,30,0,0
268145,-83.3333333333333,4,2,1,30,0,0

[Colours]
Combo1 : 0,255,223
Combo2 : 255,0,70

[HitObjects]
256,192,27716,12,0,34145,0:0:0:0:
158,51,34573,6,0,P|156:142|144:189,1,120,6|2,0:0|0:3,0:0:0:0:
81,204,35216,1,0,0:0:0:0:
268,145,35430,1,8,1:1:0:0:
260,156,35859,1,2,0:0:0:0:
330,81,36073,6,0,L|352:200,1,120,0|0,0:0|0:0,0:0:0:0:
496,267,36716,2,0,P|456:313|400:284,1,134.999995880127,8|0,0:3|0:0,0:0:0:0:
398,268,37145,2,2,P|417:306|357:327,2,112.5,10|0|0,0:0|0:0|0:0,0:0:0:0:
293,363,38002,5,6,0:0:0:0:
282,358,38430,2,0,L|293:308,1,37.5,2|0,0:3|0:0,0:0:0:0:
240,267,38645,1,0,0:0:0:0:
377,208,38859,1,8,1:1:0:0:
371,199,39288,1,2,0:0:0:0:
304,235,39502,6,0,P|315:135|321:71,1,150,0|0,0:0|0:0,0:0:0:0:
212,106,40145,2,0,P|208:69|198:33,1,75.0000028610231,8|0,0:3|0:0,0:0:0:0:
189,263,40573,2,2,P|94:238|81:256,2,112.5,10|0|0,0:0|0:0|0:0,0:0:0:0:
47,289,41430,6,0,P|56:229|53:167,1,120,6|0,0:0|0:0,0:0:0:0:
8,115,42073,1,0,0:0:0:0:
181,51,42288,1,8,1:1:0:0:
173,40,42716,1,2,0:0:0:0:
227,109,42930,6,0,P|309:119|362:124,1,120,0|0,0:0|0:0,0:0:0:0:
333,258,43573,2,0,P|373:304|429:275,1,134.999995880127,8|0,0:3|0:0,0:0:0:0:
445,279,44002,2,2,P|426:241|486:220,2,112.5,10|0|0,0:0|0:0|0:0,0:0:0:0:
383,362,44859,5,6,0:0:0:0:
372,357,45288,2,0,L|383:307,1,37.5,2|0,0:3|0:0,0:0:0:0:
451,344,45502,1,0,0:0:0:0:
272,287,45716,1,8,1:0:0:0:
256,280,46145,1,2,0:0:0:0:
220,343,46359,6,0,P|231:243|237:179,1,150,0|0,0:0|0:0,0:0:0:0:
106,135,47002,2,0,P|115:171|119:208,1,75.0000028610231,8|0,0:3|0:0,0:0:0:0:
283,131,47430,1,10,0:0:0:0:
276,115,47859,1,2,0:0:0:0:
336,69,48073,1,0,0:0:0:0:
451,202,48288,6,0,P|415:158|426:69,1,150,6|2,1:2|0:3,0:0:0:0:
425,70,48823,1,0,0:0:0:0:
425,70,48930,1,0,0:0:0:0:
276,115,49145,2,0,P|205:118|176:125,1,75,8|0,1:0|0:0,0:0:0:0:
143,77,49573,1,2,0:0:0:0:
143,77,49788,1,0,0:0:0:0:
33,159,50002,6,0,B|43:90|43:90|40:78|40:78|50:9,1,150,0|8,0:0|0:3,0:0:0:0:
8,307,50752,1,2,0:0:0:0:
1,295,50859,2,0,P|25:258|130:226,1,150.000005722046,10|0,0:0|0:0,0:0:0:0:
178,275,51502,1,0,0:0:0:0:
299,195,51716,6,0,P|278:247|268:302,1,112.500004291535,6|0,0:0|0:0,0:0:0:0:
319,357,52145,2,0,L|364:344,1,37.5,0|0,3:0|0:0,0:0:0:0:
432,260,52359,2,0,L|477:273,1,37.5,2|2,0:0|0:0,0:0:0:0:
508,330,52573,1,8,1:0:0:0:
496,335,53002,1,2,0:0:0:0:
424,280,53216,6,0,L|439:120,1,150,2|0,0:0|0:0,0:0:0:0:
301,4,53859,1,8,0:3:0:0:
505,100,54180,1,2,0:0:0:0:
505,84,54288,2,0,P|482:41|419:37,2,112.5,10|0|2,1:2|0:0|0:0,0:0:0:0:
361,151,55145,6,0,P|274:157|183:170,1,150,6|2,0:0|0:3,0:0:0:0:
211,165,55680,1,0,0:0:0:0:
211,165,55788,1,0,0:0:0:0:
107,33,56002,2,0,P|180:37|230:91,1,150.000005722046,8|0,1:0|0:0,0:0:0:0:
215,171,56645,1,2,0:0:0:0:
63,245,56859,6,0,P|147:224|188:248,1,112.5,0|0,0:0|0:0,0:0:0:0:
189,274,57288,1,8,0:3:0:0:
189,274,57502,1,0,0:0:0:0:
158,371,57716,2,0,P|206:348|241:348,1,75.0000028610231,10|0,1:2|0:0,0:0:0:0:
300,384,58145,1,2,0:0:0:0:
300,384,58359,1,0,0:0:0:0:
489,296,58573,6,0,P|443:327|426:380,1,112.5,6|0,0:0|0:0,0:0:0:0:
460,384,59002,2,0,L|502:376,2,37.5,0|0|0,3:0|0:0|0:0,0:0:0:0:
342,263,59430,2,0,L|415:248,1,75.0000028610231,8|0,1:0|0:0,0:0:0:0:
508,98,59859,1,2,0:0:0:0:
377,134,60073,6,0,L|450:148,1,75.0000028610231,2|0,0:0|0:0,0:0:0:0:
299,199,60502,5,8,1:3:0:0:
142,63,60823,5,8,1:3:0:0:
0,215,61145,5,10,1:2:0:0:
8,208,61573,5,2,0:0:0:0:
36,281,61788,1,0,0:0:0:0:
112,267,62002,1,0,0:0:0:0:
73,167,64573,5,8,1:0:0:0:
83,161,65002,1,2,0:0:0:0:
154,176,65216,1,0,0:0:0:0:
316,209,65430,6,0,P|266:195|202:290,1,165.000005035401,6|2,1:2|0:3,0:0:0:0:
205,283,65966,1,0,0:0:0:0:
213,295,66073,2,0,L|202:335,2,27.5000008392334,0|0|0,0:0|0:0|0:0,0:0:0:0:
132,301,66288,1,8,1:0:0:0:
124,308,66716,1,2,0:0:0:0:
334,364,66930,6,0,L|344:271,1,82.5000025177003,8|0,1:3|0:0,0:0:0:0:
323,372,67359,1,2,0:0:0:0:
504,222,67573,2,0,P|452:224|411:284,1,123.75000377655,8|0,1:3|0:0,0:0:0:0:
385,218,68002,2,0,B|363:174|371:141|371:141|416:104,2,123.75000377655,10|2|0,0:0|0:0|0:0,0:0:0:0:
468,6,68859,6,0,P|390:0|345:64,1,165.000005035401,6|2,1:2|0:3,0:0:0:0:
337,75,69395,1,0,0:0:0:0:
328,86,69502,2,0,L|298:75,2,27.5000008392334,0|0|0,0:0|0:0|0:0,0:0:0:0:
427,73,69716,1,8,1:0:0:0:
427,73,70145,1,2,0:0:0:0:
294,158,70359,6,0,P|375:169|458:177,1,165.000005035401,0|0,0:0|0:0,0:0:0:0:
261,292,71002,2,0,P|304:249|364:246,1,123.75000377655,8|0,1:3|0:0,0:0:0:0:
391,289,71430,1,10,1:2:0:0:
384,302,71859,1,2,0:0:0:0:
464,297,72073,1,0,0:0:0:0:
234,373,72288,6,0,P|239:306|250:196,1,165.000005035401,6|2,1:2|0:3,0:0:0:0:
242,193,72823,1,0,0:0:0:0:
236,179,72930,2,0,L|246:132,2,27.5000008392334,0|0|0,0:0|0:0|0:0,0:0:0:0:
171,220,73145,1,8,1:0:0:0:
171,220,73573,1,2,0:0:0:0:
322,105,73788,6,0,P|267:88|191:52,1,123.75000377655,0|0,0:0|0:0,0:0:0:0:
126,67,74216,1,2,0:0:0:0:
126,67,74323,1,0,0:0:0:0:
126,67,74430,2,2,P|181:50|210:38,1,82.5000025177003,8|0,1:3|0:0,0:0:0:0:
374,160,74859,1,8,1:0:0:0:
425,108,75180,1,2,0:0:0:0:
491,158,75502,5,2,0:0:0:0:
491,158,75609,1,0,0:0:0:0:
491,158,75716,2,0,P|440:211|463:297,1,165.000005035401,6|2,1:2|0:3,0:0:0:0:
461,323,76252,1,0,0:0:0:0:
461,323,76359,1,8,1:3:0:0:
385,310,76573,1,8,1:0:0:0:
382,325,77002,1,0,0:0:0:0:
244,340,77216,6,0,P|261:294|334:260,1,123.75000377655,2|0,0:0|0:0,0:0:0:0:
303,241,77645,1,2,0:0:0:0:
172,306,77859,2,0,P|101:289|27:271,1,123.75000377655,8|0,1:3|0:0,0:0:0:0:
0,331,78288,1,8,1:0:0:0:
18,341,78716,1,2,0:0:0:0:
10,214,78930,1,0,0:0:0:0:
145,194,79145,6,0,P|180:152|138:41,1,165.000005035401,6|2,1:2|0:3,0:0:0:0:
139,48,79680,1,0,0:0:0:0:
122,43,79788,2,0,L|127:80,2,27.5000008392334,0|0|0,0:0|0:0|0:0,0:0:0:0:
221,11,80002,1,8,1:0:0:0:
227,20,80430,1,2,0:0:0:0:
280,78,80645,6,0,L|365:86,1,82.5000025177003,0|0,0:0|0:0,0:0:0:0:
273,87,81073,1,2,0:0:0:0:
502,109,81288,2,0,P|461:106|414:197,1,123.75000377655,8|0,1:3|0:0,0:0:0:0:
404,220,81716,6,0,B|432:256|428:296|428:296|395:323,1,123.75000377655,8|2,1:0|0:0,0:0:0:0:
121,232,82359,5,2,0:0:0:0:
135,372,82573,6,0,P|134:322|237:312,1,165.000005035401,6|2,1:2|0:3,0:0:0:0:
224,328,83109,1,0,0:0:0:0:
219,352,83216,2,0,L|225:387,2,27.5000008392334,0|0|0,0:0|0:0|0:0,0:0:0:0:
302,289,83430,1,8,1:0:0:0:
307,296,83859,1,2,0:0:0:0:
354,231,84073,6,0,P|346:148|335:67,1,165.000005035401,0|2,0:0|0:0,0:0:0:0:
126,82,84716,2,0,P|169:124|229:127,1,123.75000377655,8|0,1:3|0:0,0:0:0:0:
265,89,85145,1,8,1:0:0:0:
258,76,85573,1,0,0:0:0:0:
385,30,85788,1,0,0:0:0:0:
211,153,86002,6,0,B|258:151|258:151|287:172|287:172|378:194|510:202,1,300,4|0,1:0|0:0,0:0:0:0:
256,192,87823,12,0,89216,0:0:0:0:
295,267,89430,5,4,1:0:0:0:
501,201,103145,5,4,1:2:0:0:
438,255,103359,2,0,P|430:199|424:79,2,150,2|8|0,0:0|0:3|0:0,0:0:0:0:
255,349,104645,6,0,L|172:332,1,75.0000028610231,2|0,0:0|0:0,0:0:0:0:
112,292,105073,2,0,P|122:219|179:173,1,150.000005722046,2|0,0:0|0:0,0:0:0:0:
193,178,106145,1,0,0:0:0:0:
234,112,106359,1,2,0:0:0:0:
188,52,106573,2,2,P|121:63|83:79,1,75,6|0,0:0|0:0,0:0:0:0:
0,37,107002,2,2,P|47:47|63:151,1,150,0|0,0:0|0:0,0:0:0:0:
0,275,107645,2,0,P|35:264|72:256,1,75.0000028610231,2|0,0:0|0:0,0:0:0:0:
238,361,108073,2,0,P|167:355|144:288,2,150,2|2|2,0:0|0:0|0:0,0:0:0:0:
335,224,109145,6,0,L|344:370,1,112.5,0|0,0:0|0:0,0:0:0:0:
350,350,109573,2,0,L|302:336,3,37.5000014305115,2|0|0|0,0:0|0:0|0:0|0:0,0:0:0:0:
422,308,110002,5,4,3:2:0:0:
423,322,110109,1,0,3:0:0:0:
433,324,110216,1,0,3:0:0:0:
434,335,110323,1,0,3:0:0:0:
444,337,110430,2,0,L|455:302,3,37.5,2|0|0|0,3:2|3:0|3:0|3:0,0:0:0:0:
439,200,110859,5,2,3:2:0:0:
438,214,110966,1,0,3:0:0:0:
428,216,111073,1,2,3:2:0:0:
427,227,111180,1,0,3:0:0:0:
417,229,111288,2,0,L|406:194,3,37.5,2|2|0|0,3:2|3:2|3:0|3:0,0:0:0:0:
492,87,111716,5,4,3:2:0:0:
481,102,111823,1,0,3:0:0:0:
467,114,111930,1,0,3:0:0:0:
450,122,112038,1,0,3:0:0:0:
431,124,112145,1,0,3:0:0:0:
413,120,112252,1,0,3:0:0:0:
397,111,112359,1,2,3:2:0:0:
384,98,112466,1,0,3:0:0:0:
375,82,112573,1,0,3:0:0:0:
364,66,112680,1,0,3:0:0:0:
350,54,112788,1,0,3:0:0:0:
333,46,112895,1,0,3:0:0:0:
314,44,113002,1,2,3:2:0:0:
296,48,113109,1,0,3:0:0:0:
280,57,113216,1,0,3:0:0:0:
267,70,113323,1,0,3:0:0:0:
258,86,113430,6,0,L|264:123,14,28.1250010728836,6|0|0|0|0|0|0|0|0|0|0|0|0|0|0,1:2|0:0|0:0|0:0|0:0|0:0|0:0|0:0|0:0|0:0|0:0|0:0|0:0|0:0|0:0,0:0:0:0:
146,39,114288,2,0,L|151:5,14,33.7499989700318,0|0|0|0|0|0|0|0|0|0|0|0|0|0|0,0:0|0:0|0:0|0:0|0:0|0:0|0:0|0:0|0:0|0:0|0:0|0:0|0:0|0:0|0:0,0:0:0:0:
190,102,115145,5,8,0:3:0:0:
148,160,115288,1,8,0:3:0:0:
75,153,115430,1,8,0:3:0:0:
10,190,115573,5,8,0:3:0:0:
6,176,115716,1,8,0:3:0:0:
2,162,115859,1,8,0:3:0:0:
33,93,116002,6,0,L|36:60,1,18.75,14|0,1:2|0:0,0:0:0:0:
0,276,116859,6,2,B|41:261|41:261|71:276|71:276|134:250|134:250|223:278|223:278|344:220|344:220|517:277,1,525,6|0,1:0|0:0,0:3:0:0:
400,328,117716,2,2,L|409:259,1,67.4999979400635,6|0,1:2|0:0,0:0:0:0:
512,23,118573,6,0,B|449:106|419:212|419:212|454:314|445:370|445:370|355:369|264:345,1,525,4|0,1:0|0:0,0:3:0:0:
175,348,119430,2,0,L|408:325,1,225,8|0,1:0|0:0,0:0:0:0:
283,170,119859,2,0,L|394:184,1,112.5,14|0,3:0|0:0,0:0:0:0:
412,207,120288,5,4,1:0:0:0:
155,260,120502,2,2,B|43:255|68:106|210:83|200:251|350:146|342:99|326:53,1,412.500012588501,0|0,0:0|0:0,0:3:0:0:
282,39,121145,2,0,L|342:25,1,37.5,8|0,1:0|0:0,0:0:0:0:
199,9,121466,2,0,B|183:47|216:80|216:80|272:72,1,112.500004291535,14|0,3:0|0:0,0:0:0:0:
405,124,121788,2,0,B|421:86|388:53|388:53,1,56.2500021457673,12|0,0:3|0:0,0:0:0:0:
406,45,122002,6,0,L|495:27,1,75,4|0,1:0|0:0,0:0:0:0:
438,190,122323,2,0,L|512:205,1,75,8|0,1:3|0:0,0:0:0:0:
352,317,122645,2,0,B|364:289|364:289|412:283,1,56.2500021457673,8|0,1:3|0:0,0:0:0:0:
512,373,122859,2,2,B|443:372|387:336|387:336|313:351|258:380|258:380|249:345|183:294|183:294|157:357|100:376,1,495.000015106202,10|0,1:0|0:0,0:3:0:0:
107,180,123716,6,2,B|170:207|278:389|42:467|-1:402|-160:232|11:105|127:283|181:144|157:67|90:57,1,660.000020141602,6|12,1:0|1:0,0:3:0:0:
315,202,124788,2,0,L|375:183,2,55.0000016784668,0|0|0,3:0|3:0|3:0,0:0:0:0:
208,171,125002,1,0,3:0:0:0:
208,171,125145,2,0,L|289:187,1,75,2|0,3:0|0:0,0:0:0:0:
315,202,125430,6,0,L|322:302,1,75,6|0,1:0|0:0,0:0:0:0:
461,314,125859,2,0,L|466:239,1,75,2|0,0:0|0:0,0:0:0:0:
498,173,126288,1,8,1:0:0:0:
276,105,126716,1,2,0:0:0:0:
350,117,126930,2,0,L|343:50,1,37.5,6|0,0:3|0:0,0:0:0:0:
262,111,127145,5,4,1:0:0:0:
61,91,127359,2,0,B|117:13|203:63|203:63,1,150,2|0,0:1|0:0,0:0:0:0:
287,187,127680,2,0,B|343:265|429:215|429:215,1,150,4|0,0:0|0:0,0:0:0:0:
503,114,128002,2,0,L|497:51,2,56.25,6|2|2,1:0|0:0|0:0,0:0:0:0:
512,225,128752,1,0,0:0:0:0:
503,205,128859,6,2,B|456:176|456:176|367:231,1,112.500004291535,6|0,1:0|0:0,0:0:0:0:
344,325,129180,2,0,P|265:318|227:248,1,165.000005035401,14|0,1:3|0:0,0:0:0:0:
167,194,129502,2,0,P|196:170|212:113,1,82.5000025177003,8|0,1:3|0:0,0:0:0:0:
107,28,129716,2,0,B|59:81|52:164|52:164|195:83|391:89|391:89|483:146,1,577.500017623902,6|0,1:0|0:0,0:0:0:0:
406,58,130573,5,4,1:0:0:0:
405,214,130788,2,0,L|419:284,2,55.0000016784668,0|0|0,0:3|0:3|0:3,0:0:0:0:
409,203,131002,1,4,0:3:0:0:
376,264,131109,1,4,0:3:0:0:
325,219,131216,1,4,0:3:0:0:
292,246,131323,1,4,0:3:0:0:
256,218,131430,2,0,P|196:217|143:222,1,112.5,6|0,1:0|0:0,0:0:0:0:
96,312,132288,5,4,1:0:0:0:
2,58,132502,2,6,B|126:96|126:96|86:177|57:216|57:216|88:273|82:328,1,375,0|0,0:0|0:0,0:3:0:0:
0,364,133145,1,4,1:0:0:0:
11,348,133252,1,2,0:0:0:0:
188,342,133466,1,14,1:3:0:0:
168,263,133573,1,2,0:0:0:0:
336,378,133788,1,8,1:3:0:0:
424,179,134002,5,4,1:0:0:0:
412,369,134216,2,2,B|471:314|481:247|481:247|373:190|332:124|332:124|334:46|363:12,1,449.99998626709,2|0,0:0|0:0,0:3:0:0:
448,86,134859,2,0,L|355:82,1,84.3750032186509,8|0,1:0|0:0,0:0:0:0:
257,65,135288,1,2,0:1:0:0:
208,51,135395,1,2,0:3:0:0:
162,72,135502,1,2,0:1:0:0:
119,97,135609,1,2,0:3:0:0:
71,86,135716,5,4,1:0:0:0:
71,86,135823,1,2,0:0:0:0:
168,237,136038,1,14,1:3:0:0:
168,237,136145,1,2,0:0:0:0:
5,373,136359,2,0,B|59:363|59:363|66:355|66:355|113:348,1,89.9999972534181,8|0,1:3|0:0,0:0:0:0:
282,358,136573,2,2,B|35:401|15:178|15:178|42:318|146:335,1,539.999983520508,6|0,1:0|0:0,0:3:0:0:
325,47,137430,6,2,B|213:24|135:109|172:344|235:387|362:187|436:256|428:368|381:357,1,539.999983520508,6|2,1:0|0:0,0:3:0:0:
395,355,138180,1,0,0:0:0:0:
395,355,138288,1,8,1:0:0:0:
448,203,138502,2,2,L|393:198,2,37.5000014305115,0|0|0,0:0|0:0|0:0,0:0:0:0:
469,223,138716,2,0,L|455:135,1,56.2500021457673,0|0,3:0|3:0,0:0:0:0:
363,143,138930,1,0,3:0:0:0:
344,158,139038,1,0,3:0:0:0:
324,154,139145,6,0,P|214:144|141:157,1,150,4|2,1:0|0:0,0:0:0:0:
159,165,140002,1,8,1:0:0:0:
97,215,140216,1,0,0:0:0:0:
16,226,140430,5,14,1:0:0:0:
16,226,140538,1,2,0:3:0:0:
351,8,140859,5,4,1:0:0:0:
466,78,141073,6,2,B|305:49|134:79|134:79|40:159,1,412.500012588501,2|0,0:0|0:0,0:3:0:0:
46,57,141716,1,8,1:0:0:0:
57,346,141930,1,2,0:0:0:0:
74,354,142038,1,2,0:0:0:0:
106,333,142145,1,2,0:0:0:0:
154,353,142252,1,2,0:0:0:0:
192,316,142359,2,0,P|245:329|284:345,1,82.5000025177003,2|0,0:0|0:0,0:0:0:0:
323,384,142573,5,8,1:3:0:0:
397,209,142788,1,8,1:3:0:0:
330,174,143002,1,14,1:3:0:0:
512,126,143216,1,8,1:3:0:0:
466,64,143430,1,10,1:0:0:0:
463,245,143645,2,0,L|395:255,4,41.2500012588501,10|0|2|0|2,3:0|3:0|3:0|3:0|3:0,0:0:0:0:
397,209,144073,1,2,0:0:0:0:
273,117,144288,5,4,1:0:0:0:
310,57,144502,1,2,0:0:0:0:
310,57,144609,1,0,0:0:0:0:
310,57,144716,2,0,P|218:69|161:65,1,134.999995880127,8|0,1:3|0:0,0:0:0:0:
164,145,145145,1,8,1:0:0:0:
74,185,145359,1,2,0:0:0:0:
3,124,145573,1,2,0:0:0:0:
80,285,145788,5,2,0:3:0:0:
47,246,145895,1,0,0:0:0:0:
61,196,146002,1,2,0:0:0:0:
0,361,146216,1,2,0:0:0:0:
195,255,146430,1,8,1:3:0:0:
304,357,146645,1,2,0:0:0:0:
425,197,146859,2,0,L|440:243,1,37.5,8|0,1:0|0:0,0:0:0:0:
420,308,147073,2,0,B|380:254|380:254|432:209|432:209|436:114,1,225,2|0,0:0|0:0,0:0:0:0:
408,26,147502,2,0,P|441:42|506:53,1,75,4|0,0:0|0:0,0:0:0:0:
509,28,147716,5,4,1:0:0:0:
305,115,147930,1,2,0:1:0:0:
354,170,148145,2,0,B|319:144|319:144|247:157|247:157|212:140,1,134.999995880127,14|0,1:3|0:0,0:0:0:0:
159,99,148573,1,8,1:0:0:0:
103,183,148788,1,2,0:0:0:0:
5,167,149002,1,2,0:0:0:0:
183,227,149216,5,2,0:3:0:0:
179,278,149323,1,0,0:0:0:0:
138,307,149430,1,2,0:0:0:0:
256,187,149645,1,2,0:0:0:0:
313,353,149859,1,8,1:3:0:0:
273,193,150073,1,2,0:0:0:0:
416,370,150288,2,0,P|423:351|298:285,1,179.999994506836,8|0,1:0|0:0,0:0:0:0:
315,262,151145,5,14,1:3:0:0:
512,88,151359,1,2,0:0:0:0:
512,88,151466,1,0,0:0:0:0:
512,88,151573,1,8,1:3:0:0:
498,71,152002,1,8,1:0:0:0:
442,155,152216,1,2,0:0:0:0:
344,139,152430,1,2,0:0:0:0:
451,294,152645,1,2,0:3:0:0:
493,269,152752,1,0,0:0:0:0:
486,221,152859,5,2,0:0:0:0:
379,325,153073,1,2,0:0:0:0:
512,384,153288,1,8,1:3:0:0:
333,254,153502,1,2,0:0:0:0:
205,369,153716,2,0,L|194:334,1,37.5,8|0,1:0|0:0,0:0:0:0:
65,278,153930,2,0,B|112:252|112:252|198:304|198:304|256:263,1,225,2|0,0:0|0:0,0:0:0:0:
210,170,154359,2,0,P|243:186|308:197,1,75,4|0,0:0|0:0,0:0:0:0:
311,172,154573,5,4,1:0:0:0:
135,225,154788,1,2,0:1:0:0:
175,62,155002,2,0,B|140:36|140:36|68:49|68:49|33:32,1,134.999995880127,14|0,1:3|0:0,0:0:0:0:
9,103,155430,1,8,1:0:0:0:
116,147,155645,1,2,0:0:0:0:
193,67,155859,1,2,0:0:0:0:
267,238,156073,5,2,0:3:0:0:
316,222,156180,1,0,0:0:0:0:
321,169,156288,1,2,0:0:0:0:
193,80,156502,1,2,0:0:0:0:
435,17,156716,2,0,L|413:73,1,37.5,8|0,1:3|0:0,0:0:0:0:
425,189,156930,2,0,L|403:245,1,37.5,8|0,1:3|0:0,0:0:0:0:
423,341,157145,2,2,L|415:358,28,18.75,2|2|2|2|2|2|2|2|2|2|2|2|2|2|2|2|2|2|2|2|2|2|2|2|2|2|2|2|2,0:0|0:0|0:0|0:0|0:0|0:0|0:0|0:0|0:0|0:0|0:0|0:0|0:0|0:0|0:0|0:0|0:0|0:0|0:0|0:0|0:0|0:0|0:0|0:0|0:0|0:0|0:0|0:0|0:0,0:0:0:0:
480,299,158002,5,8,0:3:0:0:
208,281,158216,1,2,0:0:0:0:
208,281,158323,1,0,0:0:0:0:
208,281,158430,2,0,P|280:292|360:310,1,150,6|8,0:0|1:0,0:0:0:0:
14,321,159288,1,2,0:0:0:0:
64,268,159502,2,0,L|69:258,4,9.375,0|0|0|0|0,3:0|3:0|3:0|3:0|3:0,0:0:0:0:
18,203,159716,1,2,0:0:0:0:
20,192,160359,5,14,1:3:0:0:
253,94,160573,2,2,L|275:100,22,14.0625005364418,8|0|0|0|0|0|0|0|0|0|0|0|0|0|0|0|0|0|0|0|0|0|0,1:0|0:0|0:0|0:0|3:0|3:0|3:0|3:0|3:0|3:0|3:0|3:0|3:0|3:0|3:0|3:0|3:0|3:0|3:0|3:0|3:0|3:0|3:0,0:0:0:0:
216,156,161216,2,2,B|161:141,1,56.2500021457673,14|0,3:0|0:0,0:0:0:0:
128,42,161430,2,2,L|142:153,2,112.500004291535,4|2|14,1:0|0:1|1:3,0:0:0:0:
436,207,162288,1,8,1:0:0:0:
361,61,162502,1,2,0:0:0:0:
512,48,162716,1,2,0:0:0:0:
458,138,162930,5,2,0:3:0:0:
410,120,163038,1,0,0:0:0:0:
453,88,163145,1,2,0:0:0:0:
336,202,163359,1,2,0:0:0:0:
512,300,163573,1,8,1:3:0:0:
303,269,163788,1,2,0:0:0:0:
499,285,164002,1,8,1:0:0:0:
228,323,164216,2,0,B|184:409|343:400|472:290|374:264,1,300,2|0,0:0|0:0,0:0:0:0:
289,256,164752,1,2,0:0:0:0:
303,269,164859,5,4,1:0:0:0:
76,287,165073,1,2,0:0:0:0:
96,337,165180,1,0,0:0:0:0:
144,350,165288,1,10,1:3:0:0:
196,29,165716,1,8,1:0:0:0:
23,85,165930,1,2,0:0:0:0:
301,167,166145,1,2,0:0:0:0:
135,196,166359,5,2,0:3:0:0:
151,151,166466,1,0,0:0:0:0:
172,104,166573,1,2,0:0:0:0:
39,100,166788,1,2,0:0:0:0:
249,88,167002,1,8,1:3:0:0:
249,88,167216,1,2,0:0:0:0:
367,238,167430,2,0,L|376:182,1,56.2500021457673,8|0,1:0|0:0,0:0:0:0:
350,102,167645,2,2,B|297:153|297:153|332:300,1,225,2|0,0:0|0:0,0:0:0:0:
402,373,168073,2,0,B|415:293,1,75,4|0,0:0|0:0,0:0:0:0:
336,329,168288,5,4,1:0:0:0:
477,349,168502,1,2,0:1:0:0:
282,384,168716,2,0,B|254:362|254:362|240:273,1,112.5,10|0,1:3|0:0,0:0:0:0:
194,217,169145,1,8,1:0:0:0:
17,206,169359,1,2,0:0:0:0:
97,364,169573,1,2,0:0:0:0:
125,243,169788,5,2,0:3:0:0:
77,261,169895,1,0,0:0:0:0:
120,293,170002,1,2,0:0:0:0:
61,117,170216,1,2,0:0:0:0:
223,76,170430,1,8,1:3:0:0:
47,116,170645,1,2,0:0:0:0:
264,8,170859,2,0,P|251:60|348:111,1,168.750006437302,8|0,1:0|0:0,0:0:0:0:
350,128,171288,2,0,L|371:120,12,14.0625005364418,0|0|0|0|0|0|0|0|0|0|0|0|2,0:0|0:0|0:0|0:0|0:0|0:0|0:0|0:0|0:0|0:0|0:0|0:0|0:0,0:0:0:0:
301,182,171716,5,4,1:0:0:0:
469,302,171930,1,2,0:0:0:0:
440,274,172038,1,2,0:3:0:0:
408,293,172145,1,10,1:3:0:0:
227,354,172359,2,2,L|211:340,8,14.0625005364418,0|0|0|0|0|0|0|0|8,3:0|0:0|3:0|0:0|3:0|0:0|3:0|0:0|1:0,0:0:0:0:
290,313,172788,1,0,0:0:0:0:
246,251,173002,1,2,0:0:0:0:
72,341,173216,5,2,0:0:0:0:
40,334,173323,1,0,0:0:0:0:
28,310,173430,1,2,0:0:0:0:
171,281,173645,1,0,0:0:0:0:
176,129,173859,1,10,1:3:0:0:
334,206,174073,2,0,P|352:178|395:181,1,75,0|0,0:0|0:0,0:0:0:0:
474,208,174288,2,2,P|425:146|348:168,1,168.750006437302,8|0,1:0|0:0,0:0:0:0:
335,206,174716,1,0,0:0:0:0:
238,127,174930,2,0,P|286:132|269:91,1,56.2500021457673,2|2,0:3|0:3,0:0:0:0:
265,56,175145,5,4,1:0:0:0:
98,254,175359,1,2,0:1:0:0:
81,64,175573,2,0,P|90:111|181:266,1,225.000008583069,14|8,1:3|1:0,0:0:0:0:
141,325,176216,1,0,0:0:0:0:
209,364,176430,1,2,0:0:0:0:
369,282,176645,5,2,0:0:0:0:
401,289,176752,1,0,0:0:0:0:
413,313,176859,1,2,0:0:0:0:
267,320,177073,1,2,0:0:0:0:
493,332,177288,2,0,L|480:255,1,56.2500021457673,8|0,1:3|0:0,0:0:0:0:
511,206,177502,1,2,0:0:0:0:
300,250,177716,2,0,P|305:159|323:73,1,168.750006437302,8|0,1:0|0:0,0:0:0:0:
265,32,178145,2,2,B|251:40,12,14.0625005364418,2|0|2|0|2|0|2|0|2|0|2|0|2,3:2|0:0|3:2|0:0|3:2|0:0|3:2|0:0|3:2|0:0|3:2|0:0|3:2,0:0:0:0:
396,57,178573,5,4,1:0:0:0:
390,47,179430,1,0,0:0:0:0:
63,104,180288,5,0,0:0:0:0:
23,45,180930,5,0,0:0:0:0:
84,7,181573,5,0,0:0:0:0:
265,151,182002,6,0,P|341:131|375:121,1,112.5,4|0,0:0|0:0,0:0:0:0:
446,142,182859,2,0,L|450:92,3,37.5,2|0|2|0,0:0|0:0|0:0|0:0,0:0:0:0:
385,197,183716,6,0,L|402:257,1,56.2500021457673,6|0,0:0|0:0,0:0:0:0:
243,361,184145,2,0,L|259:307,1,56.2500021457673,2|0,0:0|0:0,0:0:0:0:
423,357,184573,2,2,L|393:261,1,90,2|0,0:0|0:0,0:0:0:0:
383,198,185430,5,4,1:0:0:0:
369,193,185538,2,0,L|300:219,1,60,0|0,0:0|0:0,0:0:0:0:
252,175,185966,1,0,0:0:0:0:
252,175,186073,1,2,0:0:0:0:
193,276,186288,5,2,0:0:0:0:
179,281,186395,2,0,L|110:255,1,60,0|0,0:0|0:0,0:0:0:0:
62,299,186823,1,0,0:0:0:0:
62,299,186930,1,2,0:0:0:0:
45,155,187145,5,2,0:0:0:0:
59,160,187252,2,0,L|128:134,1,60,0|0,0:0|0:0,0:0:0:0:
57,80,187680,1,0,0:0:0:0:
57,80,187788,1,2,0:0:0:0:
250,17,188002,5,2,0:0:0:0:
264,12,188109,2,0,L|333:38,1,60,0|0,0:0|0:0,0:0:0:0:
262,92,188538,1,0,0:0:0:0:
262,92,188645,1,2,0:0:0:0:
483,141,188859,5,6,0:0:0:0:
469,136,188966,2,0,L|400:162,1,60,0|0,0:0|0:0,0:0:0:0:
398,233,189395,1,0,0:0:0:0:
398,233,189502,2,0,L|414:273,1,30,2|0,0:0|0:0,0:0:0:0:
432,339,189716,5,2,0:0:0:0:
418,344,189823,2,0,L|349:318,1,60,0|0,0:0|0:0,0:0:0:0:
297,354,190252,1,0,0:0:0:0:
297,354,190359,1,2,0:0:0:0:
243,218,190573,5,0,0:0:0:0:
229,213,190680,2,0,L|160:239,1,60,2|0,0:0|0:0,0:0:0:0:
104,265,191109,1,0,0:0:0:0:
104,265,191216,2,0,L|120:305,1,30,2|0,0:0|0:0,0:0:0:0:
131,364,191430,5,2,0:0:0:0:
117,369,191538,2,0,L|48:343,1,60,0|0,0:0|0:0,0:0:0:0:
0,382,191966,1,0,0:0:0:0:
0,382,192073,1,2,0:0:0:0:
98,190,192288,6,0,P|89:138|70:96,1,90,6|0,1:0|0:0,0:0:0:0:
0,35,192823,1,0,0:0:0:0:
0,35,192930,1,2,0:0:0:0:
165,122,193145,6,0,P|167:93|179:48,1,60,2|0,0:1|0:0,0:0:0:0:
164,42,193466,1,0,0:0:0:0:
248,110,193680,1,0,0:0:0:0:
248,110,193788,1,2,0:0:0:0:
409,68,194002,6,0,P|365:77|323:95,1,90,2|0,0:1|0:0,0:0:0:0:
274,182,194538,1,0,0:0:0:0:
274,182,194645,1,2,0:0:0:0:
368,219,194859,6,0,P|370:190|382:145,1,60,2|0,0:1|0:0,0:0:0:0:
395,151,195180,1,0,0:0:0:0:
451,209,195395,1,0,0:0:0:0:
451,209,195502,1,2,0:0:0:0:
316,337,195716,6,0,P|307:285|288:243,1,90,2|0,0:1|0:0,0:0:0:0:
161,209,196252,1,0,0:0:0:0:
161,209,196359,1,2,0:0:0:0:
147,291,196573,6,0,P|176:289|221:277,1,60,2|0,0:1|0:0,0:0:0:0:
215,264,196895,1,0,0:0:0:0:
161,209,197109,1,0,0:0:0:0:
161,209,197216,1,2,0:0:0:0:
41,363,197430,6,0,P|57:317|65:277,1,90,2|0,0:1|0:0,0:0:0:0:
0,147,197966,1,0,0:0:0:0:
0,147,198073,1,2,0:0:0:0:
124,138,198288,6,0,P|126:109|138:64,1,60,2|0,0:1|0:0,0:0:0:0:
152,66,198609,1,0,0:0:0:0:
229,59,198823,1,0,0:0:0:0:
229,59,198930,1,0,0:0:0:0:
365,146,199145,5,4,1:0:0:0:
365,146,199252,1,0,0:0:0:0:
414,93,199466,1,2,0:0:0:0:
398,27,199680,1,0,0:0:0:0:
398,27,199788,1,2,0:0:0:0:
353,161,200002,5,2,0:0:0:0:
353,161,200109,1,0,0:0:0:0:
402,214,200323,1,2,0:0:0:0:
386,280,200538,1,0,0:0:0:0:
386,280,200645,1,0,0:0:0:0:
287,354,200859,5,2,0:0:0:0:
287,354,200966,1,0,0:0:0:0:
217,374,201180,1,2,0:0:0:0:
167,323,201395,1,0,0:0:0:0:
167,323,201502,1,2,0:0:0:0:
135,178,201716,5,6,0:0:0:0:
135,178,201823,1,0,0:0:0:0:
64,163,202038,1,2,0:0:0:0:
15,209,202252,1,2,0:0:0:0:
15,209,202359,1,0,0:0:0:0:
176,244,202573,5,6,0:0:0:0:
176,244,202680,1,0,0:0:0:0:
191,130,202895,1,2,0:0:0:0:
208,16,203109,1,2,0:0:0:0:
208,16,203216,1,0,0:0:0:0:
338,210,203430,5,2,0:0:0:0:
338,210,203538,1,0,0:0:0:0:
323,136,203752,1,2,0:0:0:0:
313,68,203966,1,2,0:0:0:0:
313,68,204073,1,0,0:0:0:0:
466,140,204288,5,6,0:0:0:0:
466,140,204395,1,0,0:0:0:0:
451,214,204609,1,2,0:0:0:0:
397,165,204823,1,2,0:0:0:0:
397,165,204930,1,0,0:0:0:0:
290,306,205145,5,2,0:0:0:0:
290,306,205252,1,0,0:0:0:0:
264,184,205466,1,2,0:0:0:0:
176,263,205680,1,0,0:0:0:0:
176,263,205788,1,0,0:0:0:0:
14,157,206002,6,0,L|6:119,2,37.5,6|2|0,1:0|0:0|0:0,0:0:0:0:
4,172,206323,1,2,0:0:0:0:
88,134,206538,1,0,0:0:0:0:
88,134,206645,1,2,0:0:0:0:
241,295,206859,6,0,L|249:257,2,37.5,2|2|0,0:1|0:0|0:0,0:0:0:0:
251,310,207180,1,2,0:0:0:0:
167,272,207395,1,2,0:0:0:0:
167,272,207502,1,0,0:0:0:0:
380,196,207716,5,6,1:0:0:0:
380,196,207823,2,0,L|424:209,1,37.5,2|0,0:0|0:0,0:0:0:0:
476,169,208038,1,2,0:0:0:0:
425,71,208252,1,0,0:0:0:0:
425,71,208359,1,2,0:0:0:0:
339,277,208573,5,2,0:1:0:0:
339,277,208680,2,0,L|383:264,1,37.5,2|0,0:0|0:0,0:0:0:0:
472,173,208895,1,2,0:0:0:0:
358,37,209109,1,2,0:0:0:0:
358,37,209216,1,0,0:0:0:0:
228,144,209430,5,6,1:0:0:0:
256,192,209538,12,2,211145,0:0:0:0:
256,192,211252,12,0,212859,0:0:0:0:
478,187,216288,6,2,B|426:320|426:320|225:366|-13:349,1,525,6|0,1:0|0:0,0:3:0:0:
88,163,217145,2,2,B|123:237|123:237|94:281,1,134.999995880127,12|0,1:0|0:0,0:0:0:0:
8,40,218002,6,2,B|93:54|158:37|158:37|224:47|259:103|259:103|302:136|370:140|370:140|444:109|546:101,1,539.999983520508,4|0,1:0|0:0,0:3:0:0:
155,124,218859,2,2,B|96:172|96:172|112:279|151:369,1,269.999991760254,6|0,1:0|0:0,0:3:0:0:
0,327,219288,2,0,B|28:306|28:306|111:313,1,112.5,4|0,0:0|0:0,0:0:0:0:
174,369,219716,5,6,1:0:0:0:
434,316,219930,2,2,B|464:338|345:459|205:320|230:171|357:160|436:264|494:167|491:125,1,449.99998626709,0|0,0:0|0:0,0:3:0:0:
435,90,220573,2,0,L|451:40,1,37.5,8|0,1:0|0:0,0:0:0:0:
199,9,220895,2,0,B|183:47|216:80|216:80|249:85,1,112.500004291535,6|0,0:3|0:0,0:0:0:0:
363,54,221216,2,0,B|330:21|292:37,1,56.2500021457673,2|0,0:0|0:0,0:0:0:0:
64,132,221430,6,0,L|137:117,1,75,4|0,1:0|0:0,0:0:0:0:
214,219,221752,2,0,L|325:239,1,112.500004291535,14|0,1:3|0:0,0:0:0:0:
483,221,222073,2,0,B|476:221|457:224|457:224|445:252,1,56.2500021457673,8|0,1:3|0:0,0:0:0:0:
507,343,222288,2,2,B|457:331|431:268|431:268|407:339|356:354|356:354|301:325|227:310|227:310|157:319|102:347,1,495.000015106202,10|0,1:0|0:0,0:3:0:0:
190,112,223145,6,2,B|96:45|17:74|-144:172|58:407|294:329|195:110|15:177|14:287,1,577.500017623902,6|0,1:0|0:0,0:3:0:0:
30,309,224002,1,4,1:0:0:0:
261,168,224216,2,0,L|208:187,2,55.0000016784668,0|0|0,3:0|3:0|3:0,0:0:0:0:
282,83,224430,1,0,3:0:0:0:
282,83,224573,2,0,L|363:99,1,75,2|0,3:0|0:0,0:0:0:0:
367,83,224859,6,0,L|374:183,1,75,4|0,1:0|0:0,0:0:0:0:
476,241,225288,2,0,L|471:316,1,75,2|0,0:0|0:0,0:0:0:0:
512,378,225716,1,8,1:0:0:0:
134,287,226145,1,2,0:0:0:0:
209,259,226359,2,0,L|213:297,1,37.5,2|0,0:0|0:0,0:0:0:0:
124,280,226573,5,4,1:0:0:0:
358,384,226788,2,0,B|436:328|386:242|386:242,1,150,2|0,0:1|0:0,0:0:0:0:
283,219,227109,2,0,B|205:163|255:77|255:77,1,150,4|0,0:0|0:0,0:0:0:0:
381,21,227430,2,0,L|444:27,2,56.25,10|2|2,1:0|0:0|0:0,0:0:0:0:
303,43,228180,1,0,0:0:0:0:
294,23,228288,6,2,B|247:-6|247:-6|158:49,1,112.500004291535,6|0,1:0|0:0,0:0:0:0:
8,61,228609,2,0,P|46:131|125:138,1,165.000005035401,14|0,1:3|0:0,0:0:0:0:
273,206,228930,2,0,P|288:172|330:162,1,82.5000025177003,8|0,1:3|0:0,0:0:0:0:
422,315,229145,2,2,B|470:262|477:179|477:179|311:177|169:257|169:257|105:264|57:237,1,577.500017623902,10|0,1:0|0:0,0:3:0:0:
36,163,230002,5,4,1:0:0:0:
232,335,230216,2,0,L|246:405,2,55.0000016784668,0|0|0,3:0|3:0|3:0,0:0:0:0:
236,324,230430,1,4,3:0:0:0:
163,350,230538,1,4,3:0:0:0:
122,308,230645,1,4,3:0:0:0:
106,308,230752,1,4,3:0:0:0:
113,290,230859,2,0,P|53:289|25:388,1,150,10|0,1:0|0:0,0:0:0:0:
27,369,231716,5,4,1:0:0:0:
3,138,231930,2,2,B|48:132|105:163|105:163|144:134|225:94|225:94|288:137|378:136,1,375,0|0,0:0|0:0,0:3:0:0:
394,80,232573,1,12,1:0:0:0:
383,64,232680,1,2,0:0:0:0:
467,196,232895,1,14,1:3:0:0:
498,127,233002,1,2,0:0:0:0:
326,384,233216,1,8,1:3:0:0:
226,181,233430,5,4,1:0:0:0:
414,384,233645,2,2,B|410:313|483:262|483:262|305:173|173:323,1,412.500012588501,0|0,0:0|0:0,0:3:0:0:
22,242,234288,2,0,B|61:277|61:277|118:262,1,112.5,10|0,1:0|0:0,0:0:0:0:
81,193,234716,1,2,0:1:0:0:
58,134,234823,1,2,0:3:0:0:
93,84,234930,1,2,0:1:0:0:
152,84,235038,1,2,0:3:0:0:
183,137,235145,5,4,1:0:0:0:
183,137,235252,1,2,0:0:0:0:
360,265,235466,1,14,1:3:0:0:
360,265,235573,1,2,0:0:0:0:
512,65,235788,2,0,B|488:69|488:69|481:77|481:77|427:87,1,89.9999972534181,8|0,1:3|0:0,0:0:0:0:
274,130,236002,2,2,B|521:87|541:310|541:310|506:296|482:294|482:294|487:330|470:355|470:355|444:354|444:354|423:383,1,539.999983520508,10|0,1:0|0:0,0:3:0:0:
160,59,236859,6,2,B|272:37|350:122|313:357|250:400|123:200|49:269|57:381|104:370,1,539.999983520508,6|2,1:0|0:0,0:3:0:0:
89,367,237609,1,0,0:0:0:0:
92,368,237716,1,10,1:0:0:0:
37,219,237930,2,2,L|-18:214,2,37.5000014305115,0|0|0,0:0|0:0|0:0,0:0:0:0:
122,286,238145,2,0,L|108:198,1,56.2500021457673,0|0,3:0|3:0,0:0:0:0:
28,112,238359,5,0,3:0:0:0:
15,121,238466,1,0,3:0:0:0:
18,140,238573,2,0,P|128:150|210:75,1,225.000008583069,4|2,1:0|0:0,0:0:0:0:
200,65,239430,1,8,1:0:0:0:
284,80,239645,1,0,0:0:0:0:
362,34,239859,5,6,1:3:0:0:
362,34,239966,1,0,0:0:0:0:
26,375,240288,5,6,1:0:0:0:
68,264,240502,2,2,B|72:347|188:362|188:362|223:297|287:271|287:271|313:314|364:311|364:311|376:276|440:269,1,449.99998626709,0|0,0:0|0:0,0:3:0:0:
383,350,241145,1,8,1:0:0:0:
207,121,241359,1,2,0:0:0:0:
224,113,241466,1,2,0:0:0:0:
256,134,241573,1,2,0:0:0:0:
304,114,241680,1,2,0:0:0:0:
342,144,241788,2,0,P|395:131|434:115,1,89.9999972534181,2|0,0:0|0:0,0:0:0:0:
486,166,242002,5,4,1:0:0:0:
256,46,242216,1,8,1:3:0:0:
323,6,242430,1,10,1:3:0:0:
127,75,242645,1,8,1:3:0:0:
70,20,242859,1,10,1:0:0:0:
80,267,243073,2,0,L|12:277,4,41.2500012588501,2|0|0|0|0,3:3|3:0|3:0|3:0|3:0,3:0:0:0:
46,195,243502,1,2,0:0:0:0:
126,202,243716,5,4,1:0:0:0:
162,324,243930,1,10,0:3:0:0:
162,324,244038,1,0,0:0:0:0:
162,324,244145,2,0,P|254:312|311:316,1,134.999995880127,4|0,0:0|0:0,0:0:0:0:
337,250,244573,1,8,1:0:0:0:
427,290,244788,1,2,0:0:0:0:
498,229,245002,1,2,0:0:0:0:
328,149,245216,5,2,0:3:0:0:
314,199,245323,1,0,0:0:0:0:
347,238,245430,1,2,0:0:0:0:
408,75,245645,1,2,0:0:0:0:
223,23,245859,1,8,1:3:0:0:
165,187,246073,1,2,0:0:0:0:
507,159,246288,2,0,L|493:116,1,44.999998626709,8|0,1:0|0:0,0:0:0:0:
499,35,246502,2,0,B|495:123|495:123|443:168|443:168|483:222,1,225,2|0,0:0|0:0,0:0:0:0:
398,324,246930,2,0,P|431:308|496:297,1,75,6|0,0:0|0:0,0:0:0:0:
499,322,247145,5,4,1:0:0:0:
348,384,247359,1,2,0:1:0:0:
265,278,247573,2,0,B|230:252|230:252|158:265|158:265|141:257,1,134.999995880127,14|0,1:3|0:0,0:0:0:0:
95,321,248002,1,4,1:0:0:0:
122,141,248216,1,2,0:0:0:0:
99,339,248430,1,2,0:0:0:0:
9,108,248645,5,2,0:3:0:0:
13,159,248752,1,0,0:0:0:0:
54,188,248859,1,2,0:0:0:0:
121,141,249073,1,2,0:0:0:0:
304,197,249288,1,8,1:3:0:0:
255,11,249502,1,2,0:0:0:0:
460,39,249716,2,0,P|467:58|342:124,1,179.999994506836,8|0,1:0|0:0,0:0:0:0:
359,147,250573,5,4,1:0:0:0:
512,335,250788,1,2,0:0:0:0:
512,335,250895,1,0,0:0:0:0:
512,335,251002,1,14,1:3:0:0:
493,338,251430,1,8,1:0:0:0:
437,254,251645,1,2,0:0:0:0:
339,270,251859,1,2,0:0:0:0:
197,384,252073,5,2,0:3:0:0:
239,359,252180,1,0,0:0:0:0:
232,311,252288,1,2,0:0:0:0:
114,228,252502,1,2,0:0:0:0:
0,316,252716,1,8,1:3:0:0:
118,239,252930,1,2,0:0:0:0:
99,60,253145,2,0,L|113:103,1,44.999998626709,8|0,1:0|0:0,0:0:0:0:
12,157,253359,2,0,B|59:183|59:183|145:131|145:131|203:172,1,225,2|0,0:0|0:0,0:0:0:0:
304,81,253788,2,0,P|288:113|277:178,1,75,4|0,0:0|0:0,0:0:0:0:
302,181,254002,5,4,1:0:0:0:
235,37,254216,1,2,0:1:0:0:
375,130,254430,2,0,B|392:138|392:138|464:125|464:125|499:151,1,134.999995880127,14|0,1:3|0:0,0:0:0:0:
444,220,254859,1,8,1:0:0:0:
476,0,255073,1,2,0:0:0:0:
449,208,255288,1,2,0:0:0:0:
395,277,255502,5,2,0:3:0:0:
444,261,255609,1,0,0:0:0:0:
449,208,255716,1,2,0:0:0:0:
254,326,255930,1,2,0:0:0:0:
419,363,256145,1,8,1:3:0:0:
225,198,256359,1,2,0:0:0:0:
52,366,256573,2,0,L|70:358,28,11.2499996566773,2|2|2|2|2|2|2|2|2|2|2|2|2|2|2|2|2|2|2|2|2|2|2|2|2|2|2|2|2,0:0|0:0|0:0|0:0|0:0|0:0|0:0|0:0|0:0|0:0|0:0|0:0|0:0|0:0|0:0|0:0|0:0|0:0|0:0|0:0|0:0|0:0|0:0|0:0|0:0|0:0|0:0|0:0|0:0,0:0:0:0:
97,290,257430,5,4,1:0:0:0:
202,167,257645,1,2,0:0:0:0:
173,139,257752,1,2,0:3:0:0:
161,180,257859,1,8,1:3:0:0:
308,65,258073,2,2,L|292:51,8,11.2499996566773,0|0|0|0|0|0|0|0|12,3:0|0:0|3:0|0:0|3:0|0:0|3:0|0:0|1:0,0:0:0:0:
337,133,258502,1,0,0:0:0:0:
407,109,258716,1,2,0:0:0:0:
464,273,258930,5,2,0:0:0:0:
432,266,259038,1,0,0:0:0:0:
456,242,259145,1,2,0:0:0:0:
326,355,259359,1,0,0:0:0:0:
217,225,259573,1,10,1:3:0:0:
70,321,259788,2,0,P|88:349|130:346,1,75,0|0,0:0|0:0,0:0:0:0:
210,319,260002,2,2,P|161:381|84:359,1,168.750006437302,8|0,1:0|0:0,0:0:0:0:
70,321,260430,1,0,0:0:0:0:
79,121,260645,2,0,P|84:169|43:152,1,56.2500021457673,2|2,0:3|0:3,0:0:0:0:
8,148,260859,5,4,1:0:0:0:
282,24,261073,1,2,0:1:0:0:
313,273,261288,2,0,P|248:182|217:75,1,225.000008583069,14|8,1:3|1:0,0:0:0:0:
282,24,261930,1,0,0:0:0:0:
381,189,262145,1,2,0:0:0:0:
392,54,262359,5,2,0:0:0:0:
346,82,262466,1,0,0:0:0:0:
395,107,262573,1,2,0:0:0:0:
487,39,262788,1,0,0:0:0:0:
438,312,263002,2,0,L|425:235,1,56.2500021457673,8|0,1:3|0:0,0:0:0:0:
381,189,263216,1,2,0:0:0:0:
118,323,263430,2,0,P|209:328|295:346,1,168.750006437302,8|0,1:0|0:0,0:0:0:0:
369,376,263859,2,2,B|355:384,12,14.0625005364418,2|0|2|0|2|0|2|0|2|0|2|0|2,0:0|0:0|0:0|0:0|0:0|0:0|0:0|0:0|0:0|0:0|0:0|0:0|0:0,0:0:0:0:
438,311,264288,5,4,0:1:0:0:
438,311,265145,1,0,0:0:0:0:
51,356,266002,5,0,0:0:0:0:
11,297,266645,5,0,0:0:0:0:
72,259,267288,5,0,0:0:0:0:
287,350,267716,5,4,0:0:0:0:
256,192,267823,12,4,269430,0:0:0:0:
256,192,269538,12,0,271038,0:0:0:0:
309,210,271145,5,4,1:0:0:0:
