osu file format v14

[General]
AudioFilename: audio.mp3
AudioLeadIn: 0
PreviewTime: 144180
Countdown: 0
SampleSet: Soft
StackLeniency: 0.8
Mode: 0
LetterboxInBreaks: 0
WidescreenStoryboard: 1

[Editor]
Bookmarks: 34573,48288,62002,75716,89430,103145,116859,130573,144288,153716,158002,171716,178573,185430,192288,195716,199145,206002,209430,212859,216288,230002,243716,257430,264288,271145
DistanceSpacing: 1.1
BeatDivisor: 4
GridSize: 4
TimelineZoom: 1.6

[Metadata]
Title:Days to Come feat. Fiora
TitleUnicode:Days to Come feat. Fiora
Artist:Seven Lions
ArtistUnicode:Seven Lions
Creator:Mao
Version:Hard
Source:
Tags:electronic english melodic dubstep kkipalt jeff montalvo ep amy cutler
BeatmapID:2315361
BeatmapSetID:1063786

[Difficulty]
HPDrainRate:5
CircleSize:4
OverallDifficulty:6.5
ApproachRate:7.5
SliderMultiplier:1.5
SliderTickRate:1

[Events]
//Background and Video events
0,0,"bg.png",0,0
//Break Periods
2,89630,102320
2,178773,184605
//Storyboard Layer 0 (Background)
//Storyboard Layer 1 (Fail)
//Storyboard Layer 2 (Pass)
//Storyboard Layer 3 (Foreground)
//Storyboard Layer 4 (Overlay)
//Storyboard Sound Samples

[TimingPoints]
288,428.571428571429,4,2,1,10,1,0
34145,-100,4,2,1,50,0,0
48288,-100,4,2,1,50,0,0
60502,-100,4,2,1,50,0,0
65430,-100,4,2,1,60,0,0
80430,-100,4,2,1,60,0,0
81288,-100,4,2,1,60,0,0
83859,-100,4,2,1,60,0,0
86002,-200,4,2,1,60,0,0
103145,-100,4,2,1,30,0,0
103359,-100,4,2,1,30,0,0
106573,-100,4,2,1,40,0,0
110002,-100,4,2,1,50,0,0
111716,-100,4,2,1,60,0,0
113430,-66.6666666666667,4,2,1,60,0,0
113859,-100,4,2,1,60,0,0
114288,-55.5555555555556,4,2,1,60,0,0
114716,-45.4545454545455,4,2,1,60,0,0
115145,-100,4,2,1,60,0,0
116859,-55.5555555555556,4,2,1,75,0,1
117716,-100,4,2,1,75,0,1
118573,-55.5555555555556,4,2,1,75,0,1
119859,-100,4,2,1,75,0,1
120288,-55.5555555555556,4,2,1,75,0,1
121145,-100,4,2,1,75,0,1
121466,-66.6666666666667,4,2,1,75,0,1
121788,-66.6666666666667,4,2,1,75,0,1
122002,-100,4,2,1,75,0,1
122323,-100,4,2,1,75,0,1
122645,-66.6666666666667,4,2,1,75,0,1
122859,-55.5555555555556,4,2,1,75,0,1
123716,-55.5555555555556,4,2,1,75,0,1
124573,-100,4,2,1,75,0,1
125109,-100,4,2,1,75,0,1
127359,-55.5555555555556,4,2,1,75,0,1
127573,-100,4,2,1,75,0,1
127680,-50,4,2,1,75,0,1
128002,-200,4,2,1,75,0,1
128323,-66.6666666666667,4,2,1,75,0,1
128859,-100,4,2,1,75,0,1
129180,-66.6666666666667,4,2,1,75,0,1
131430,-100,4,2,1,75,0,1
132502,-55.5555555555556,4,2,1,75,0,1
134859,-100,4,2,1,75,0,1
135823,-66.6666666666667,4,2,1,75,0,1
136145,-50,4,2,1,75,0,1
136359,-55.5555555555556,4,2,1,75,0,1
138288,-100,4,2,1,75,0,1
139145,-100,4,2,1,75,0,1
141073,-55.5555555555556,4,2,1,75,0,1
141930,-66.6666666666667,4,2,1,75,0,1
144288,-100,4,2,1,70,0,0
144716,-100,4,2,1,75,0,0
145145,-100,4,2,1,70,0,0
146430,-100,4,2,1,70,0,0
146645,-100,4,2,1,70,0,0
147073,-100,4,2,1,70,0,0
147930,-100,4,2,1,70,0,0
148573,-100,4,2,1,70,0,0
149859,-100,4,2,1,70,0,0
150073,-100,4,2,1,70,0,0
150288,-100,4,2,1,70,0,0
152002,-100,4,2,1,70,0,0
153288,-100,4,2,1,70,0,0
153502,-100,4,2,1,70,0,0
153716,-100,4,2,1,70,0,0
153930,-100,4,2,1,70,0,0
154573,-100,4,2,1,70,0,0
155430,-100,4,2,1,70,0,0
156716,-100,4,2,1,70,0,0
157145,-100,4,2,1,70,0,0
158430,-100,4,2,1,70,0,0
160359,-55.5555555555556,4,2,1,70,0,0
161859,-100,4,2,1,70,0,0
162288,-100,4,2,1,70,0,0
163145,-100,4,2,1,70,0,0
163573,-100,4,2,1,70,0,0
163788,-100,4,2,1,70,0,0
164002,-100,4,2,1,70,0,0
164216,-100,4,2,1,70,0,0
165716,-100,4,2,1,70,0,0
167002,-100,4,2,1,70,0,0
167216,-100,4,2,1,70,0,0
167430,-100,4,2,1,70,0,0
167645,-100,4,2,1,70,0,0
168288,-100,4,2,1,70,0,0
169145,-100,4,2,1,70,0,0
170430,-100,4,2,1,70,0,0
170645,-100,4,2,1,70,0,0
170859,-100,4,2,1,70,0,0
174073,-100,4,2,1,70,0,0
174288,-100,4,2,1,70,0,0
178573,-100,4,2,1,30,0,0
182002,-100,4,2,1,30,0,0
183716,-100,4,2,1,30,0,0
184573,-100,4,2,1,30,0,0
185430,-100,4,2,1,40,0,0
192288,-80,4,2,1,40,0,0
206002,-66.6666666666667,4,2,1,60,0,0
212859,-100,4,2,1,10,0,0
216288,-55.5555555555556,4,2,1,75,0,1
217145,-100,4,2,1,75,0,1
218002,-55.5555555555556,4,2,1,75,0,1
219288,-100,4,2,1,75,0,1
219716,-55.5555555555556,4,2,1,75,0,1
220573,-100,4,2,1,75,0,1
220895,-66.6666666666667,4,2,1,75,0,1
221216,-66.6666666666667,4,2,1,75,0,1
221430,-66.6666666666667,4,2,1,75,0,1
221752,-66.6666666666667,4,2,1,75,0,1
222073,-66.6666666666667,4,2,1,75,0,1
222288,-55.5555555555556,4,2,1,75,0,1
224002,-100,4,2,1,75,0,1
224538,-100,4,2,1,75,0,1
226573,-80,4,2,1,75,0,1
227430,-80,4,2,1,75,0,1
228288,-66.6666666666667,4,2,1,75,0,1
229895,-66.6666666666667,4,2,1,75,0,1
230859,-100,4,2,1,75,0,1
231930,-55.5555555555556,4,2,1,75,0,1
234288,-100,4,2,1,75,0,1
235145,-100,4,2,1,75,0,1
235573,-100,4,2,1,75,0,1
235788,-41.6666666666667,4,2,1,75,0,1
236002,-55.5555555555556,4,2,1,75,0,1
236859,-55.5555555555556,4,2,1,75,0,1
237716,-100,4,2,1,75,0,1
237930,-66.6666666666667,4,2,1,75,0,1
240502,-55.5555555555556,4,2,1,75,0,1
242002,-100,4,2,1,75,0,1
242859,-66.6666666666667,4,2,1,75,0,1
243073,-45.4545454545455,4,2,1,75,0,1
243716,-100,4,2,1,70,0,0
244145,-100,4,2,1,70,0,0
244573,-100,4,2,1,70,0,0
245859,-100,4,2,1,70,0,0
246073,-100,4,2,1,70,0,0
246288,-100,4,2,1,70,0,0
246502,-100,4,2,1,70,0,0
247145,-100,4,2,1,70,0,0
247573,-100,4,2,1,70,0,0
249288,-100,4,2,1,70,0,0
249502,-100,4,2,1,70,0,0
249716,-100,4,2,1,70,0,0
249930,-100,4,2,1,70,0,0
250359,-100,4,2,1,70,0,0
251430,-100,4,2,1,70,0,0
252716,-100,4,2,1,70,0,0
252930,-100,4,2,1,70,0,0
253359,-100,4,2,1,70,0,0
254002,-100,4,2,1,70,0,0
254430,-100,4,2,1,70,0,0
256145,-100,4,2,1,70,0,0
256359,-100,4,2,1,70,0,0
256573,-100,4,2,1,70,0,0
257430,-100,4,2,1,70,0,0
259788,-100,4,2,1,70,0,0
260002,-100,4,2,1,70,0,0
264288,-133.333333333333,4,2,1,30,0,0
268145,-133.333333333333,4,2,1,30,0,0

[Colours]
Combo1 : 0,255,223
Combo2 : 255,0,70

[HitObjects]
256,192,27716,12,0,34145,0:0:0:0:
64,71,34573,5,6,0:0:0:0:
64,71,35002,2,0,P|104:60|192:130,1,150,2|8,0:3|1:1,0:0:0:0:
484,243,36288,6,0,P|438:253|380:346,1,150,0|8,0:0|0:3,0:0:0:0:
319,383,36930,2,0,P|330:329|332:220,1,150,0|0,0:0|0:0,0:0:0:0:
306,157,37573,2,0,P|322:182|369:214,1,75,2|0,0:0|0:0,0:0:0:0:
397,122,38002,5,6,0:0:0:0:
397,122,38430,2,0,P|416:80|511:23,1,150,2|8,0:3|1:1,0:0:0:0:
251,17,39288,1,2,0:0:0:0:
251,17,39502,2,0,P|254:71|265:175,1,150,0|0,0:0|0:0,0:0:0:0:
295,249,40145,1,8,0:3:0:0:
295,249,40573,2,0,L|388:255,2,75,10|0|2,0:0|0:0|0:0,0:0:0:0:
243,317,41216,1,0,0:0:0:0:
165,291,41430,6,0,P|122:290|84:304,1,75,6|0,0:0|0:0,0:0:0:0:
36,371,41859,2,0,P|52:313|56:193,1,150,2|8,0:3|1:1,0:0:0:0:
170,27,42716,2,0,P|180:76|180:116,1,75,2|0,0:0|0:0,0:0:0:0:
180,100,43359,5,0,0:0:0:0:
244,165,43573,2,0,P|286:162|326:134,1,75,8|0,0:3|0:0,0:0:0:0:
362,79,44002,1,10,0:0:0:0:
362,79,44216,2,0,P|389:67|430:95,1,75,0|2,0:0|0:0,0:0:0:0:
467,174,44645,6,0,P|479:100|492:27,2,150,0|0|0,0:0|0:0|0:0,0:0:0:0:
385,186,45716,1,8,1:0:0:0:
488,371,46145,2,0,P|484:326|483:283,1,75,2|0,0:0|0:0,0:0:0:0:
483,296,46788,5,0,0:0:0:0:
407,279,47002,2,0,P|379:280|334:314,1,75,8|0,0:3|0:0,0:0:0:0:
284,368,47430,2,0,P|300:322|310:215,1,150,10|2,0:0|0:0,0:0:0:0:
266,152,48073,1,0,0:0:0:0:
331,58,48288,6,0,P|267:52|177:29,1,150,6|2,1:2|0:3,0:0:0:0:
109,75,48930,1,0,0:0:0:0:
40,16,49145,1,8,1:0:0:0:
52,246,49573,2,0,P|69:207|80:169,1,75,2|0,0:0|0:0,0:0:0:0:
169,159,50002,6,0,P|122:193|146:278,1,150,0|8,0:0|0:3,0:0:0:0:
120,358,50645,2,0,P|155:349|203:338,1,75,0|10,0:0|0:0,0:0:0:0:
286,348,51073,2,0,P|251:357|203:368,1,75,0|0,0:0|0:0,0:0:0:0:
244,262,51502,2,0,P|262:222|274:182,1,75,0|6,0:0|0:0,0:0:0:0:
272,191,52145,6,0,P|314:204|368:291,1,150,0|8,3:0|1:0,0:0:0:0:
466,109,53002,2,0,P|476:53|477:14,1,75,2|2,0:0|0:0,0:0:0:0:
477,34,53645,1,0,0:0:0:0:
392,56,53859,2,0,P|378:95|387:143,1,75,8|0,0:3|0:0,0:0:0:0:
441,191,54288,1,10,1:2:0:0:
441,191,54502,2,0,P|381:167|296:130,1,150,0|2,0:0|0:0,0:0:0:0:
272,54,55145,5,6,0:0:0:0:
272,54,55359,2,0,P|223:70|119:104,1,150,0|0,0:0|0:0,0:0:0:0:
51,66,56002,2,0,P|99:73|168:-3,1,150,8|0,1:0|0:0,0:0:0:0:
61,191,56859,6,0,P|48:233|20:358,1,150,0|8,0:0|0:3,0:0:0:0:
100,374,57502,2,0,P|88:330|53:312,1,75,0|10,0:0|1:2,0:0:0:0:
128,251,57930,2,0,P|173:228|250:164,1,150,0|0,0:0|0:0,0:0:0:0:
288,90,58573,5,6,0:0:0:0:
288,90,59002,1,0,3:0:0:0:
288,90,59430,1,8,1:0:0:0:
366,128,59645,1,0,0:0:0:0:
428,65,59859,2,0,P|463:27|495:3,1,75,2|2,0:0|0:0,0:0:0:0:
465,295,60502,6,0,B|435:295|435:295|368:375,2,112.5,8|8|10,1:3|1:3|1:2,0:0:0:0:
256,192,62002,5,0,0:0:0:0:
256,192,64573,5,8,1:0:0:0:
256,192,65002,2,0,L|244:108,1,75,2|0,0:0|0:0,0:0:0:0:
293,28,65430,6,0,B|221:52|213:12|141:44,1,150,6|2,1:2|0:3,0:0:0:0:
86,100,66073,1,0,0:0:0:0:
36,31,66288,1,8,1:0:0:0:
36,31,66716,1,2,0:0:0:0:
63,122,66930,6,0,P|108:133|207:164,1,150,8|2,1:3|0:0,0:0:0:0:
123,189,67573,2,0,P|104:225|110:276,1,75,8|0,1:3|0:0,0:0:0:0:
66,350,68002,2,0,L|8:254,2,112.5,10|2|0,0:0|0:0|0:0,0:0:0:0:
186,308,68859,6,0,B|265:297|246:355|328:352,1,150,6|2,1:2|0:3,0:0:0:0:
380,283,69502,1,0,0:0:0:0:
456,329,69716,1,8,1:0:0:0:
456,329,70145,2,0,P|470:280|480:236,1,75,2|0,0:0|0:0,0:0:0:0:
407,192,70573,2,0,B|381:127|431:116|399:42,1,150,0|8,0:0|1:3,0:0:0:0:
478,19,71216,1,0,0:0:0:0:
381,34,71430,2,0,P|318:26|229:15,1,150,10|2,1:2|0:0,0:0:0:0:
232,15,72288,5,6,1:2:0:0:
211,104,72502,2,0,P|213:177|266:226,1,150,0|0,0:0|0:0,0:0:0:0:
343,197,73145,5,8,1:0:0:0:
343,197,73573,1,2,0:0:0:0:
385,269,73788,1,0,0:0:0:0:
385,269,74216,1,2,0:0:0:0:
446,218,74430,2,0,P|457:182|475:149,1,75,8|0,1:3|0:0,0:0:0:0:
473,252,74859,2,0,P|488:307|505:368,2,112.5,8|2|2,1:0|0:0|0:0,0:0:0:0:
400,331,75716,6,0,B|328:355|320:315|248:347,1,150,6|2,1:2|0:3,0:0:0:0:
181,303,76359,1,8,1:3:0:0:
121,363,76573,1,8,1:0:0:0:
121,363,77002,1,0,0:0:0:0:
46,320,77216,6,0,P|22:248|4:176,1,150,2|2,0:0|0:0,0:0:0:0:
55,91,77859,2,0,P|36:127|42:178,1,75,8|0,1:3|0:0,0:0:0:0:
116,205,78288,2,0,P|83:163|158:36,1,225,8|0,1:0|0:0,0:0:0:0:
168,130,79145,6,0,B|228:77|243:136|311:89,1,150,6|2,1:2|0:3,0:0:0:0:
371,29,79788,1,0,0:0:0:0:
452,71,80002,1,8,1:0:0:0:
452,71,80430,2,0,P|461:107|471:143,1,75,2|0,0:0|0:0,0:0:0:0:
440,362,81073,5,2,0:0:0:0:
440,362,81288,2,0,P|449:325|459:289,1,75,8|0,1:3|0:0,0:0:0:0:
391,246,81716,2,0,P|443:242|500:195,2,112.5,8|2|2,1:0|0:0|0:0,0:0:0:0:
321,189,82573,5,6,1:2:0:0:
321,189,82788,2,0,P|264:234|256:307,1,150,0|0,0:0|0:0,0:0:0:0:
199,362,83430,5,8,1:0:0:0:
199,362,83859,1,2,0:0:0:0:
127,320,84073,1,0,0:0:0:0:
127,320,84502,1,2,0:0:0:0:
192,262,84716,2,0,P|182:226|173:189,1,75,8|0,1:3|0:0,0:0:0:0:
98,159,85145,1,8,1:0:0:0:
98,159,85573,1,0,0:0:0:0:
98,159,86002,6,0,B|88:105|132:56|203:64|198:118|268:126|312:77|303:24,1,300,4|0,1:0|0:0,0:0:0:0:
256,192,87823,12,4,89430,1:0:0:0:
437,57,103145,5,4,1:2:0:0:
437,57,103359,2,0,P|390:60|363:158,2,150,2|8|0,0:0|0:3|0:0,0:0:0:0:
477,335,104645,6,0,P|431:349|388:364,1,75,2|0,0:0|0:0,0:0:0:0:
340,308,105073,2,0,B|259:320|246:249|152:277|133:359,1,225,2|2,0:0|0:0,0:0:0:0:
50,53,106145,1,0,0:0:0:0:
50,53,106359,2,0,P|57:98|61:144,1,75,2|6,0:0|0:0,0:0:0:0:
24,204,106788,6,0,P|63:161|142:104,1,150,0|0,0:0|0:0,0:0:0:0:
159,27,107430,1,0,0:0:0:0:
159,27,107645,2,0,P|209:53|229:84,1,75,2|0,0:0|0:0,0:0:0:0:
305,100,108073,2,0,L|295:17,1,75,2|0,0:0|0:0,0:0:0:0:
237,154,108502,2,0,P|236:204|234:319,1,150,2|2,0:0|0:0,0:0:0:0:
501,371,109573,6,0,P|470:341|434:323,1,75,2|0,0:0|0:0,0:0:0:0:
368,365,110002,2,0,L|404:295,1,75,4|0,3:2|3:0,0:0:0:0:
474,244,110430,2,0,L|457:164,1,75,2|0,3:2|3:0,0:0:0:0:
487,90,110859,1,2,3:2:0:0:
487,90,111073,1,2,3:2:0:0:
411,37,111288,1,2,3:2:0:0:
382,121,111502,1,0,3:0:0:0:
382,121,111716,6,0,L|339:140,3,37.5,4|0|0|0,3:2|3:0|3:0|3:0,0:0:0:0:
328,180,112145,2,0,L|285:161,3,37.5,0|0|2|0,3:0|3:0|3:2|3:0,0:0:0:0:
238,171,112573,2,0,L|218:219,3,37.5,0|0|0|0,3:0|3:0|3:0|3:0,0:0:0:0:
184,258,113002,2,0,L|140:270,3,37.5,2|0|0|0,3:2|3:0|3:0|3:0,0:0:0:0:
68,279,113430,5,6,1:2:0:0:
256,192,113538,12,14,116002,1:2:0:0:
71,109,116859,6,2,P|121:51|100:189,1,404.999987640381,6|0,1:0|0:0,0:3:0:0:
25,182,117716,6,0,P|65:210|117:313,1,150,6|0,1:2|0:0,0:0:0:0:
293,363,118573,5,4,1:0:0:0:
293,363,118788,2,2,P|271:285|253:82,1,269.999991760254,2|0,0:0|0:0,0:3:0:0:
317,25,119430,2,0,P|287:86|347:114,1,134.999995880127,8|0,1:0|0:0,0:0:0:0:
468,43,119859,2,0,P|431:46|397:62,1,75,14|0,3:0|0:0,0:0:0:0:
500,142,120288,5,4,1:0:0:0:
500,142,120502,2,2,P|417:168|415:361,1,269.999991760254,0|0,0:0|0:0,0:3:0:0:
472,366,121145,6,0,B|492:340|492:340|485:251,2,112.5,8|14|12,1:0|3:0|0:3,0:0:0:0:
401,316,122002,6,0,L|300:263,1,112.5,4|8,1:0|1:3,0:0:0:0:
177,370,122645,5,8,1:3:0:0:
177,370,122859,2,2,B|194:297|257:266|316:323|382:243|369:162,1,269.999991760254,10|0,1:0|0:0,0:3:0:0:
304,155,123502,1,0,0:0:0:0:
370,48,123716,6,2,B|265:14|239:84|58:195|12:30,1,404.999987640381,6|0,1:0|0:0,0:3:0:0:
105,7,124573,6,0,B|75:23|66:54|66:54|81:57|81:57|96:87|82:133|82:133|36:144|14:185,1,225,12|0,1:0|0:0,0:0:0:0:
30,304,125430,5,6,1:0:0:0:
30,304,125645,1,0,0:0:0:0:
76,239,125859,1,2,0:0:0:0:
76,239,126073,1,0,0:0:0:0:
139,322,126288,1,8,1:0:0:0:
139,322,126502,1,0,0:0:0:0:
225,265,126716,2,0,P|231:317|223:357,1,75,2|6,0:0|0:3,0:0:0:0:
343,365,127145,5,4,1:0:0:0:
343,365,127359,2,2,P|413:260|505:-3,1,404.999987640381,2|6,0:1|1:0,0:3:0:0:
412,46,128859,6,0,B|401:71|401:71|422:158,2,112.5,6|14|8,1:0|1:3|1:3,0:0:0:0:
330,15,129716,6,2,B|371:52|395:90|395:90|370:250|309:341,1,337.500012874604,6|0,1:0|0:0,0:3:0:0:
265,373,130573,5,4,1:0:0:0:
219,299,130788,1,0,0:3:0:0:
219,299,131002,2,0,L|228:233,3,56.2500021457673,4|4|4|4,0:3|0:3|0:3|0:3,0:0:0:0:
152,335,131430,6,0,P|108:344|0:372,1,150,6|0,1:0|0:0,0:0:0:0:
22,46,132288,5,4,1:0:0:0:
22,46,132502,2,2,P|67:112|211:257,1,269.999991760254,0|0,0:0|0:0,0:3:0:0:
112,280,133145,2,0,P|63:241|96:189,1,134.999995880127,4|0,1:0|0:0,0:0:0:0:
134,121,133466,1,14,1:3:0:0:
152,127,133573,2,0,P|200:109|266:42,1,134.999995880127,2|8,0:0|1:3,0:0:0:0:
361,19,134002,5,4,1:0:0:0:
361,19,134216,2,2,P|284:60|319:250,1,269.999991760254,2|0,0:0|0:0,0:3:0:0:
350,151,134859,6,0,B|377:152|377:152|461:111,1,112.5,8|0,1:0|0:0,0:0:0:0:
488,97,135288,2,0,L|494:52,3,37.5,2|2|2|2,0:1|0:3|0:1|0:3,0:0:0:0:
500,181,135716,6,0,L|487:298,1,112.5,4|14,1:0|1:3,0:0:0:0:
299,312,136359,5,8,1:3:0:0:
352,370,136573,2,2,B|313:383|233:317|290:258|259:195|193:180,1,269.999991760254,6|0,1:0|0:0,0:3:0:0:
113,213,137216,1,0,0:0:0:0:
177,318,137430,6,2,B|101:194|287:157|153:-23|16:39,1,404.999987640381,6|2,1:0|0:0,0:3:0:0:
6,106,138180,1,0,0:0:0:0:
15,121,138288,6,0,B|46:115|76:120|76:120|73:111|73:111|84:100|124:82|124:82|134:81|134:81|153:56|208:31,1,225.000008583069,8|0,1:0|3:0,0:0:0:0:
324,67,139145,5,4,1:0:0:0:
324,67,139359,1,0,0:0:0:0:
249,110,139573,1,2,0:0:0:0:
249,110,139788,1,0,0:0:0:0:
299,195,140002,1,8,1:0:0:0:
299,195,140216,1,0,0:0:0:0:
223,273,140430,2,0,P|186:299|143:326,1,75,14|0,1:0|0:0,0:0:0:0:
4,301,140859,5,4,1:0:0:0:
58,368,141073,2,2,P|184:365|452:289,1,404.999987640381,2|8,0:0|1:0,0:3:0:0:
491,189,141930,6,0,L|479:120,1,56.2500021457673,2|2,0:0|0:0,0:0:0:0:
444,125,142145,2,0,L|456:56,1,56.2500021457673,2|2,0:0|0:0,0:0:0:0:
463,31,142359,1,2,0:0:0:0:
352,90,142573,5,8,1:3:0:0:
352,90,142788,1,8,1:3:0:0:
259,13,143002,1,14,1:3:0:0:
259,13,143216,1,8,1:3:0:0:
181,107,143430,2,0,B|213:213|213:213|213:245|213:245|223:275|223:275|221:298|221:298|231:338,1,225.000008583069,10|2,1:0|3:0,0:0:0:0:
154,377,144073,1,2,0:0:0:0:
77,340,144288,6,0,P|55:286|36:244,1,75,4|2,1:0|0:0,0:0:0:0:
21,248,144609,1,0,0:0:0:0:
21,248,144716,1,8,1:3:0:0:
144,29,145145,6,0,P|110:35|49:42,2,75,8|2|2,1:0|0:0|0:0,0:0:0:0:
202,87,145788,1,2,0:3:0:0:
268,38,146002,1,2,0:0:0:0:
268,38,146216,1,2,0:0:0:0:
337,94,146430,1,8,1:3:0:0:
337,94,146645,1,2,0:0:0:0:
405,15,146859,1,8,1:0:0:0:
490,36,147073,6,0,P|433:59|317:193,1,225,2|4,0:0|1:0,0:0:0:0:
336,252,147930,1,2,0:1:0:0:
409,229,148145,1,14,1:3:0:0:
310,375,148573,6,0,P|358:364|395:361,2,75,8|2|2,1:0|0:0|0:0,0:0:0:0:
260,308,149216,1,2,0:3:0:0:
197,362,149430,1,2,0:0:0:0:
197,362,149645,1,2,0:0:0:0:
135,291,149859,1,8,1:3:0:0:
135,291,150073,1,2,0:0:0:0:
39,359,150288,6,0,P|66:317|144:230,2,150,8|0|14,1:0|0:0|1:3,0:0:0:0:
52,277,151359,2,0,L|41:233,1,37.5,2|0,0:0|0:0,0:0:0:0:
9,216,151573,1,8,1:3:0:0:
127,72,152002,6,0,P|75:57|23:38,2,75,8|2|2,1:0|0:0|0:0,0:0:0:0:
205,39,152645,1,2,0:3:0:0:
275,92,152859,1,2,0:0:0:0:
275,92,153073,1,2,0:0:0:0:
202,140,153288,1,8,1:3:0:0:
202,140,153502,1,2,0:0:0:0:
250,245,153716,1,8,1:0:0:0:
164,284,153930,6,0,B|142:308|127:338|127:338|201:381|285:383,1,225,2|4,0:0|1:0,0:0:0:0:
342,335,154788,1,2,0:1:0:0:
406,379,155002,1,14,1:3:0:0:
493,159,155430,6,0,P|488:198|488:258,2,75,8|2|2,1:0|0:0|0:0,0:0:0:0:
429,105,156073,1,2,0:3:0:0:
467,25,156288,1,2,0:0:0:0:
467,25,156502,1,2,0:0:0:0:
374,10,156716,1,8,1:3:0:0:
374,10,156930,1,8,1:3:0:0:
296,99,157145,6,0,B|272:81|272:81|267:82|267:82|246:64|246:64|201:41|201:41|151:35,2,150,2|2|8,1:0|0:0|0:3,0:0:0:0:
380,102,158216,6,0,L|388:151,1,37.5,2|0,0:0|0:0,0:0:0:0:
346,175,158430,2,0,B|374:195|374:195|374:204|374:204|387:222|387:222|388:243|388:243|413:329,1,150,6|8,0:0|1:0,0:0:0:0:
394,322,159716,1,2,0:0:0:0:
28,355,160359,5,14,1:3:0:0:
120,368,160573,2,0,B|171:342|212:349|212:349|148:328|48:274|48:274|52:202|117:130,1,404.999987640381,8|14,1:0|3:0,0:0:0:0:
129,142,161323,1,0,0:0:0:0:
129,142,161430,1,4,1:0:0:0:
66,76,161645,1,2,0:1:0:0:
150,57,161859,2,0,P|197:30|231:7,1,75,14|2,1:3|0:0,0:0:0:0:
306,68,162288,5,8,1:0:0:0:
306,68,162502,1,2,0:0:0:0:
245,118,162716,1,2,0:0:0:0:
245,118,162930,1,2,0:3:0:0:
297,185,163145,1,2,0:0:0:0:
297,185,163359,1,2,0:0:0:0:
239,252,163573,1,8,1:3:0:0:
239,252,163788,1,2,0:0:0:0:
302,353,164002,6,0,P|360:356|433:369,1,112.5,8|0,1:0|0:0,0:0:0:0:
485,341,164430,2,0,P|430:336|370:257,1,150,2|4,0:0|1:0,0:0:0:0:
464,249,165073,1,2,0:0:0:0:
471,221,165180,1,0,0:0:0:0:
489,201,165288,2,0,P|442:198|400:183,1,75,10|2,1:3|0:0,0:0:0:0:
472,87,165716,5,8,1:0:0:0:
472,87,165930,1,2,0:0:0:0:
403,36,166145,1,2,0:0:0:0:
403,36,166359,1,2,0:3:0:0:
330,93,166573,1,2,0:0:0:0:
330,93,166788,1,2,0:0:0:0:
232,40,167002,1,8,1:3:0:0:
232,40,167216,1,2,0:0:0:0:
186,159,167430,6,0,P|216:111|85:77,1,225,8|4,1:0|0:0,0:0:0:0:
49,120,168288,2,0,P|48:71|76:35,2,75,4|0|10,1:0|0:0|1:3,0:0:0:0:
109,171,168930,1,0,0:0:0:0:
38,251,169145,5,8,1:0:0:0:
38,251,169359,1,2,0:0:0:0:
119,251,169573,1,2,0:0:0:0:
119,251,169788,1,2,0:3:0:0:
159,331,170002,1,2,0:0:0:0:
159,331,170216,1,2,0:0:0:0:
253,303,170430,1,8,1:3:0:0:
253,303,170645,1,2,0:0:0:0:
356,363,170859,6,0,P|309:320|232:233,1,150,8|0,1:0|0:0,0:0:0:0:
287,181,171502,1,0,0:0:0:0:
391,213,171716,5,4,1:0:0:0:
391,213,171930,2,0,P|433:198|468:92,1,150,2|0,0:0|3:0,0:0:0:0:
418,34,172573,2,0,P|442:72|449:106,1,75,8|0,1:0|0:0,0:0:0:0:
352,88,173002,2,0,P|312:71|272:61,1,75,2|2,0:0|0:0,0:0:0:0:
262,78,173323,1,0,0:0:0:0:
248,93,173430,6,0,L|257:170,1,75,2|0,0:0|0:0,0:0:0:0:
179,42,173859,1,10,1:3:0:0:
179,42,174073,1,0,0:0:0:0:
106,92,174288,2,0,P|58:79|-10:-1,1,150,8|0,1:0|0:0,0:0:0:0:
28,274,175145,5,4,1:0:0:0:
28,274,175359,1,2,0:1:0:0:
85,209,175573,2,0,P|72:263|59:364,1,150,14|8,1:3|1:0,0:0:0:0:
122,288,176216,1,0,0:0:0:0:
122,288,176430,1,2,0:0:0:0:
191,335,176645,2,0,P|231:315|269:308,1,75,2|2,0:0|0:0,0:0:0:0:
204,214,177073,6,0,P|180:185|168:148,2,75,2|8|2,0:0|1:3|0:0,0:0:0:0:
203,73,177716,1,8,1:0:0:0:
203,73,178145,1,2,3:2:0:0:
471,28,178573,5,4,1:0:0:0:
57,54,185430,5,4,1:0:0:0:
57,54,185538,2,0,L|153:71,1,75,0|0,0:0|0:0,0:0:0:0:
218,42,185966,2,0,L|255:33,1,37.5,0|2,0:0|0:0,0:0:0:0:
202,130,186288,5,2,0:0:0:0:
202,130,186395,2,0,L|298:147,1,75,0|0,0:0|0:0,0:0:0:0:
363,118,186823,2,0,L|400:112,1,37.5,0|0,0:0|0:0,0:0:0:0:
456,188,187145,5,2,0:0:0:0:
456,188,187252,2,0,L|360:205,1,75,0|0,0:0|0:0,0:0:0:0:
295,176,187680,2,0,L|258:167,1,37.5,0|2,0:0|0:0,0:0:0:0:
311,264,188002,5,2,0:0:0:0:
311,264,188109,2,0,L|215:281,1,75,0|0,0:0|0:0,0:0:0:0:
150,252,188538,2,0,L|113:243,1,37.5,0|0,0:0|0:0,0:0:0:0:
54,353,188859,5,6,0:0:0:0:
54,353,188966,2,0,P|96:355|134:337,1,75,0|0,0:0|0:0,0:0:0:0:
244,370,189395,2,0,P|207:352|187:354,1,37.5,0|2,0:0|0:0,0:0:0:0:
134,217,189716,5,2,0:0:0:0:
134,217,189823,2,0,P|162:248|201:262,1,75,0|0,0:0|0:0,0:0:0:0:
256,363,190252,2,0,P|242:324|227:311,1,37.5,0|2,0:0|0:0,0:0:0:0:
293,172,190573,5,2,0:0:0:0:
293,172,190680,2,0,P|291:213|309:251,1,75,0|0,0:0|0:0,0:0:0:0:
276,361,191109,2,0,P|294:324|292:304,1,37.5,0|2,0:0|0:0,0:0:0:0:
431,245,191430,5,2,0:0:0:0:
431,245,191538,2,0,P|399:273|385:312,1,75,0|0,0:0|0:0,0:0:0:0:
285,366,191966,2,0,P|323:352|336:337,1,37.5,0|2,0:0|0:0,0:0:0:0:
474,313,192288,6,0,P|459:241|459:156,1,140.625,6|0,1:0|0:0,0:0:0:0:
492,91,192823,1,0,0:0:0:0:
492,91,192930,1,2,0:0:0:0:
385,17,193145,6,0,P|374:66|355:165,1,140.625,2|0,0:1|0:0,0:0:0:0:
342,250,193680,1,0,0:0:0:0:
342,250,193788,1,2,0:0:0:0:
262,149,194002,6,0,P|232:106|153:30,1,140.625,2|0,0:1|0:0,0:0:0:0:
71,69,194538,1,0,0:0:0:0:
71,69,194645,1,2,0:0:0:0:
148,171,194859,6,0,P|144:221|43:274,1,140.625,2|0,0:1|0:0,0:0:0:0:
5,230,195395,1,0,0:0:0:0:
5,230,195502,1,2,0:0:0:0:
66,363,195716,6,0,L|74:309,1,46.875,2|2,0:1|0:0,0:0:0:0:
153,284,196038,1,0,0:0:0:0:
198,361,196252,2,0,L|187:301,1,46.875,0|2,0:0|0:0,0:0:0:0:
252,235,196573,6,0,L|263:286,1,46.875,2|2,0:1|0:0,0:0:0:0:
339,314,196895,1,0,0:0:0:0:
384,237,197109,2,0,L|373:297,1,46.875,0|2,0:0|0:0,0:0:0:0:
456,170,197430,6,0,L|445:113,1,46.875,2|2,0:1|0:0,0:0:0:0:
369,91,197752,1,0,0:0:0:0:
324,168,197966,2,0,L|333:106,1,46.875,0|2,0:0|0:0,0:0:0:0:
270,42,198288,6,0,L|259:94,1,46.875,2|2,0:1|0:0,0:0:0:0:
183,121,198609,1,0,0:0:0:0:
138,44,198823,2,0,L|148:103,1,46.875,0|2,0:0|0:0,0:0:0:0:
67,162,199145,5,4,1:0:0:0:
67,162,199252,2,0,P|31:144|8:87,1,93.75,0|2,0:0|0:0,0:0:0:0:
145,206,199680,2,0,L|130:250,1,46.875,0|2,0:0|0:0,0:0:0:0:
254,278,200002,5,2,0:0:0:0:
254,278,200109,2,0,P|290:260|312:205,1,93.75,0|2,0:0|0:0,0:0:0:0:
176,322,200538,2,0,L|190:367,1,46.875,0|0,0:0|0:0,0:0:0:0:
234,200,200859,5,2,0:0:0:0:
234,200,200966,2,0,P|227:139|215:98,1,93.75,0|2,0:0|0:0,0:0:0:0:
212,16,201395,2,0,P|217:54|223:65,1,46.875,0|2,0:0|0:0,0:0:0:0:
322,136,201716,5,6,0:0:0:0:
322,136,201823,2,0,P|383:129|411:102,1,93.75,0|2,0:0|0:0,0:0:0:0:
512,141,202252,2,0,P|480:154|460:156,1,46.875,2|0,0:0|0:0,0:0:0:0:
432,21,202573,5,6,0:0:0:0:
432,21,202680,2,0,P|409:73|408:120,1,93.75,0|2,0:0|0:0,0:0:0:0:
419,225,203109,2,0,P|406:210|397:183,1,46.875,2|0,0:0|0:0,0:0:0:0:
281,85,203430,5,2,0:0:0:0:
281,85,203538,2,0,P|303:141|330:172,1,93.75,0|2,0:0|0:0,0:0:0:0:
416,241,203966,2,0,P|394:238|372:225,1,46.875,2|0,0:0|0:0,0:0:0:0:
215,233,204288,5,6,0:0:0:0:
215,233,204395,2,0,P|267:256|313:258,1,93.75,0|2,0:0|0:0,0:0:0:0:
419,257,204823,2,0,P|403:270|376:276,1,46.875,2|0,0:0|0:0,0:0:0:0:
262,384,205145,5,2,0:0:0:0:
262,384,205252,2,0,P|314:364|346:336,1,93.75,0|2,0:0|0:0,0:0:0:0:
432,267,205680,2,0,P|427:288|415:310,1,46.875,0|2,0:0|0:0,0:0:0:0:
323,331,206002,6,0,P|253:312|111:313,1,168.750006437302,6|2,1:0|0:0,0:0:0:0:
82,369,206538,1,0,0:0:0:0:
82,369,206645,1,2,0:0:0:0:
21,268,206859,6,0,P|77:248|174:168,1,168.750006437302,2|2,0:1|0:0,0:0:0:0:
133,104,207395,1,2,0:0:0:0:
133,104,207502,1,0,0:0:0:0:
28,128,207716,6,0,P|94:81|179:23,1,168.750006437302,6|2,1:0|0:0,0:0:0:0:
243,81,208252,1,0,0:0:0:0:
243,81,208359,1,2,0:0:0:0:
359,25,208573,6,0,P|377:83|472:121,1,168.750006437302,2|2,0:1|0:0,0:0:0:0:
496,36,209109,1,2,0:0:0:0:
496,36,209216,1,0,0:0:0:0:
256,192,209430,12,2,211145,0:0:0:0:
256,192,211252,12,0,212859,0:0:0:0:
57,49,216288,6,2,B|20:83|20:83|420:44,1,404.999987640381,6|0,1:0|0:0,0:3:0:0:
494,89,217145,6,0,P|452:63|388:179,1,225,12|0,1:0|0:0,0:0:0:0:
501,232,218002,6,2,B|385:256|385:256|275:364|275:364|127:385,1,404.999987640381,4|0,1:0|0:0,0:3:0:0:
30,300,218859,2,2,B|151:365|151:365|169:234|169:234|45:165,1,404.999987640381,6|0,1:0|0:0,0:3:0:0:
16,46,219716,5,6,1:0:0:0:
16,46,219930,2,2,B|120:74|30:193|133:241|239:199,1,269.999991760254,0|0,0:0|0:0,0:3:0:0:
197,99,220573,6,0,B|154:121|154:121|90:110,2,112.5,8|6|2,1:0|0:3|0:0,0:0:0:0:
283,41,221430,2,0,B|330:14|330:14|451:41,2,168.750006437302,4|14|8,1:0|1:3|1:3,0:0:0:0:
192,0,222288,6,2,P|203:84|480:128,1,404.999987640381,10|0,1:0|0:0,0:3:0:0:
383,100,223145,6,2,B|368:183|419:234|419:234|477:217|477:217|504:373|333:373,1,404.999987640381,6|0,1:0|0:0,0:3:0:0:
428,274,224002,6,0,B|414:323|376:343|376:343|373:330|373:330|351:326|317:338|317:338|283:358|232:343,1,225,4|0,1:0|0:0,0:0:0:0:
110,370,224859,5,4,1:0:0:0:
110,370,225073,1,0,0:0:0:0:
176,310,225288,1,2,0:0:0:0:
176,310,225502,1,0,0:0:0:0:
118,231,225716,1,8,1:0:0:0:
118,231,225930,1,0,0:0:0:0:
156,133,226145,1,2,0:0:0:0:
156,133,226359,1,2,0:0:0:0:
72,44,226573,5,4,1:0:0:0:
72,44,226788,2,0,P|38:88|23:182,1,140.625,2|4,0:1|0:0,0:0:0:0:
165,38,227430,2,0,P|213:25|304:38,2,140.625,10|2|2,1:0|0:0|0:0,0:0:0:0:
170,143,228288,6,0,P|233:157|335:112,2,168.750006437302,6|14|8,1:0|1:3|1:3,0:0:0:0:
100,193,229145,2,2,B|142:141|224:186|224:186|146:212|160:365|48:351,1,393.750015020371,10|0,1:0|0:0,0:3:0:0:
0,290,230002,5,4,1:0:0:0:
100,277,230216,1,0,3:0:0:0:
150,360,230430,2,0,L|216:369,3,56.2500021457673,4|4|4|4,3:0|3:0|3:0|3:0,0:0:0:0:
232,350,230859,6,0,P|276:341|384:313,1,150,10|0,1:0|0:0,0:0:0:0:
484,40,231716,5,4,1:0:0:0:
484,40,231930,2,2,B|484:125|409:203|439:282|493:289,1,269.999991760254,0|0,0:0|0:0,0:3:0:0:
498,193,232573,2,0,P|478:133|417:146,1,134.999995880127,12|0,1:0|0:0,0:0:0:0:
359,210,232895,1,14,1:3:0:0:
347,202,233002,2,0,P|369:155|367:55,1,134.999995880127,2|8,0:0|1:3,0:0:0:0:
253,7,233430,5,4,1:0:0:0:
253,7,233645,2,2,P|326:46|192:94,1,269.999991760254,0|0,0:0|0:0,0:3:0:0:
132,143,234288,6,0,B|146:120|146:120|152:26,1,112.5,10|0,1:0|0:0,0:0:0:0:
78,38,234716,2,0,L|59:0,3,37.5,2|2|2|2,0:1|0:3|0:1|0:3,0:0:0:0:
20,94,235145,6,0,L|7:211,1,112.5,4|14,1:0|1:3,0:0:0:0:
18,227,235573,1,2,0:0:0:0:
87,371,235788,5,8,1:3:0:0:
5,365,236002,2,2,B|-8:326|58:246|117:303|180:272|195:206,1,269.999991760254,10|0,1:0|0:0,0:3:0:0:
119,176,236645,1,0,0:0:0:0:
100,49,236859,6,2,B|223:-7|357:172|171:209|247:333,1,404.999987640381,6|2,1:0|0:0,0:3:0:0:
301,383,237609,1,0,0:0:0:0:
313,362,237716,6,0,B|330:310|320:267|320:267|313:268|313:268|323:228|312:209|312:209|305:212|305:212|291:188|291:155,1,225,10|0,1:0|3:0,0:0:0:0:
305,46,238573,5,4,1:0:0:0:
305,46,238788,1,0,0:0:0:0:
354,109,239002,1,2,0:0:0:0:
354,109,239216,1,0,0:0:0:0:
426,41,239430,1,8,1:0:0:0:
426,41,239645,1,0,0:0:0:0:
508,126,239859,2,0,P|471:152|450:178,1,56.2500021457673,6|0,1:3|0:0,0:0:0:0:
376,352,240288,5,6,1:0:0:0:
450,289,240502,2,2,B|355:276|166:385|50:369,1,404.999987640381,0|8,0:0|1:0,0:3:0:0:
43,209,241359,6,0,L|53:275,1,67.4999979400635,2|2,0:0|0:0,0:0:0:0:
124,224,241573,2,0,L|142:150,1,67.4999979400635,2|2,0:0|0:0,0:0:0:0:
76,115,241788,1,2,0:0:0:0:
163,32,242002,5,4,1:0:0:0:
163,32,242216,1,8,1:3:0:0:
283,90,242430,1,10,1:3:0:0:
283,90,242645,1,8,1:3:0:0:
389,12,242859,2,0,B|404:124|404:124|404:156|404:156|414:186|414:186|412:209|412:209|422:249,1,225.000008583069,10|2,1:0|0:3,0:0:0:0:
486,298,243502,1,2,0:0:0:0:
395,321,243716,6,0,P|341:343|299:362,1,75,4|0,1:0|0:0,0:0:0:0:
303,377,244038,1,0,0:0:0:0:
303,377,244145,1,4,0:0:0:0:
21,339,244573,6,0,P|59:334|96:328,2,75,8|2|2,1:0|0:0|0:0,0:0:0:0:
52,256,245216,1,2,0:3:0:0:
145,260,245430,1,2,0:0:0:0:
145,260,245645,1,2,0:0:0:0:
187,163,245859,1,8,1:3:0:0:
187,163,246073,1,2,0:0:0:0:
289,207,246288,1,8,1:0:0:0:
260,108,246502,6,0,P|203:85|88:74,1,150,2|6,0:0|0:0,0:0:0:0:
51,132,247145,1,4,1:0:0:0:
9,56,247359,1,2,0:1:0:0:
9,56,247573,1,14,1:3:0:0:
297,31,248002,6,0,P|345:20|382:17,2,75,4|2|2,1:0|0:0|0:0,0:0:0:0:
361,100,248645,1,2,0:3:0:0:
443,64,248859,1,2,0:0:0:0:
443,64,249073,1,2,0:0:0:0:
500,158,249288,1,8,1:3:0:0:
500,158,249502,1,2,0:0:0:0:
440,263,249716,6,0,P|462:191|495:124,2,150,8|0|8,1:0|0:0|0:3,0:0:0:0:
401,357,250788,2,0,L|445:368,1,37.5,2|0,0:0|0:0,0:0:0:0:
481,360,251002,1,14,1:3:0:0:
100,350,251430,6,0,P|48:335|-4:316,2,75,8|2|2,1:0|0:0|0:0,0:0:0:0:
162,289,252073,1,2,0:3:0:0:
119,219,252288,1,2,0:0:0:0:
119,219,252502,1,0,0:0:0:0:
198,129,252716,1,8,1:3:0:0:
198,129,252930,1,2,0:0:0:0:
116,30,253145,1,8,1:0:0:0:
106,119,253359,6,0,P|168:90|268:61,1,150,2|4,0:0|0:0,0:0:0:0:
321,100,254002,1,4,1:0:0:0:
374,39,254216,1,0,0:0:0:0:
374,39,254430,1,14,1:3:0:0:
492,289,254859,6,0,P|487:328|487:388,2,75,8|2|2,1:0|0:0|0:0,0:0:0:0:
427,233,255502,1,2,0:3:0:0:
480,157,255716,1,2,0:0:0:0:
480,157,255930,1,2,0:0:0:0:
377,91,256145,1,8,1:3:0:0:
377,91,256359,1,2,0:0:0:0:
451,0,256573,6,0,B|446:36|446:36|423:81|423:81|405:102|405:102|406:107|406:107|388:131,1,150,2|2,1:0|0:0,0:0:0:0:
313,189,257216,6,0,P|275:167|247:124,1,75,2|4,0:0|1:0,0:0:0:0:
166,138,257645,2,0,P|208:123|243:17,1,150,2|0,0:0|3:0,0:0:0:0:
123,34,258288,2,0,P|147:72|154:106,1,75,4|0,1:2|0:0,0:0:0:0:
70,104,258716,2,0,P|30:87|-10:77,1,75,2|2,0:0|0:0,0:0:0:0:
0,119,259038,1,0,0:0:0:0:
5,158,259145,6,0,L|80:198,1,75,2|0,0:0|0:0,0:0:0:0:
11,259,259573,1,10,1:3:0:0:
11,259,259788,1,0,0:0:0:0:
134,249,260002,2,0,P|177:205|227:133,1,150,8|0,1:0|0:0,0:0:0:0:
381,305,260859,5,4,1:0:0:0:
381,305,261073,1,2,0:1:0:0:
328,364,261288,2,0,P|336:289|353:216,1,150,14|8,1:3|1:0,0:0:0:0:
294,269,261930,1,0,0:0:0:0:
294,269,262145,1,2,0:0:0:0:
361,198,262359,2,0,P|401:178|439:171,1,75,2|2,0:0|0:0,0:0:0:0:
470,54,262788,6,0,P|481:89|505:118,2,75,0|8|2,0:0|1:3|0:0,0:0:0:0:
384,90,263430,1,8,1:0:0:0:
384,90,263859,1,2,0:0:0:0:
33,28,264288,6,0,B|122:51|67:117|134:156,1,168.750006437302,4|8,0:1|0:3,0:0:0:0:
347,229,265573,2,0,B|258:252|313:318|246:357,2,168.750006437302,2|8|2,0:0|0:3|0:0,0:0:0:0:
347,229,267288,1,0,0:0:0:0:
256,192,267716,12,4,269430,0:0:0:0:
256,192,269538,12,4,271145,1:0:0:0:
