osu file format v14

[General]
AudioFilename: audio.mp3
AudioLeadIn: 0
PreviewTime: 76112
Countdown: 0
SampleSet: Normal
StackLeniency: 0.2
Mode: 0
LetterboxInBreaks: 0
WidescreenStoryboard: 0

[Editor]
Bookmarks: 25712,38512,51312,64112,70512,73712,76912,102512,128112,140912,153612,160112,166512,192112
DistanceSpacing: 0.5
BeatDivisor: 4
GridSize: 4
TimelineZoom: 2.3

[Metadata]
Title:Freesol
TitleUnicode:Freesol
Artist:Seven Lions (feat. Skyler Stonestreet)
ArtistUnicode:Seven Lions (feat. Skyler Stonestreet)
Creator:__Phantomhive__
Version:Enlightened
Source:
Tags:dnb drum and bass
BeatmapID:1269257
BeatmapSetID:600699

[Difficulty]
HPDrainRate:7
CircleSize:4
OverallDifficulty:8
ApproachRate:9.5
SliderMultiplier:1.8
SliderTickRate:1

[Events]
//Background and Video events
0,0,"multiversum_memoria_by_rhoberto-d5wysko.jpg",0,0
//Break Periods
//Storyboard Layer 0 (Background)
//Storyboard Layer 1 (Fail)
//Storyboard Layer 2 (Pass)
//Storyboard Layer 3 (Foreground)
//Storyboard Sound Samples

[TimingPoints]
12912,400,4,1,0,100,1,0
12912,-125,4,1,0,50,0,0
36912,-100,4,1,0,50,0,0
37312,-166.666666666667,4,1,0,50,0,0
38512,-166.666666666667,4,1,0,40,0,0
50912,-125,4,1,0,40,0,0
51312,-125,4,1,0,60,0,0
64112,-100,4,1,0,60,0,0
65712,-90.9090909090909,4,1,0,60,0,0
67312,-83.3333333333333,4,1,0,60,0,0
68912,-76.9230769230769,4,1,0,60,0,0
70512,-100,4,1,0,60,0,0
76112,-100,4,1,0,80,0,0
76912,-83.3333333333333,4,1,0,100,0,1
77712,-55.5555555555556,4,1,0,100,0,1
78112,-100,4,1,0,100,0,1
79312,-50,4,1,0,100,0,1
80112,-83.3333333333333,4,1,0,100,0,1
80912,-55.5555555555556,4,1,0,100,0,1
81312,-100,4,1,0,100,0,1
82512,-50,4,1,0,100,0,1
83312,-83.3333333333333,4,1,0,100,0,1
84112,-55.5555555555556,4,1,0,100,0,1
84512,-100,4,1,0,100,0,1
85712,-50,4,1,0,100,0,1
86512,-100,4,1,0,100,0,1
87312,-55.5555555555556,4,1,0,100,0,1
87712,-100,4,1,0,100,0,1
89712,-83.3333333333333,4,1,0,100,0,1
90512,-55.5555555555556,4,1,0,100,0,1
90912,-100,4,1,0,100,0,1
92112,-50,4,1,0,100,0,1
92912,-83.3333333333333,4,1,0,100,0,1
93312,-50,4,1,0,100,0,1
93712,-55.5555555555556,4,1,0,100,0,1
94112,-83.3333333333333,4,1,0,100,0,1
95312,-50,4,1,0,100,0,1
102512,-100,4,1,0,100,0,0
166512,-100,4,1,0,100,0,1
192112,-100,4,1,0,100,0,0

[Colours]
Combo1 : 252,245,116
Combo2 : 0,148,155
Combo3 : 100,210,253
Combo4 : 254,168,73

[HitObjects]
160,64,12912,6,0,P|100:68|52:124,2,108
136,148,13712,1,0,0:0:0:0:
372,272,14512,6,0,P|384:312|380:344,2,72
296,324,15112,1,0,0:0:0:0:
420,192,15312,2,0,B|363:163|301:208|301:208|249:244|174:226,1,252
156,220,16112,38,0,L|136:92,2,108
120,320,16912,1,0,0:0:0:0:
276,88,17712,6,0,P|325:87|350:101,1,72
408,228,18112,1,0,0:0:0:0:
300,160,18312,1,0,0:0:0:0:
472,176,18512,2,0,B|492:200|496:236|496:260|472:300|440:312|404:312|404:312|440:312|464:336,1,252
480,348,19312,38,0,P|436:316|368:320,2,108
388,220,20112,1,0,0:0:0:0:
192,56,20912,5,0,0:0:0:0:
120,204,21112,1,0,0:0:0:0:
296,144,21312,1,0,0:0:0:0:
64,80,21512,1,0,0:0:0:0:
260,216,21712,2,0,B|292:236|340:216|340:216|344:272|388:308|448:308|488:272,1,252
424,212,22512,38,0,P|376:208|312:232,2,108
384,320,23312,2,0,B|292:352|236:288|236:288|160:272|104:344,1,288
256,192,24312,12,0,25512,0:0:0:0:
340,124,25712,6,0,P|344:164|320:214,1,72
324,210,26012,1,0,0:0:0:0:
311,225,26112,1,0,0:0:0:0:
261,52,26312,1,0,0:0:0:0:
427,220,26512,1,0,0:0:0:0:
265,153,26712,1,0,0:0:0:0:
416,72,26912,6,0,P|416:92|412:112,1,36
348,192,27112,2,0,P|345:209|345:227,1,36
396,328,27312,21,0,0:0:0:0:
468,200,27512,1,0,0:0:0:0:
272,316,27712,1,0,0:0:0:0:
488,280,27912,1,0,0:0:0:0:
296,220,28112,2,0,B|204:212|172:308|172:308|128:276|68:304|68:304,1,252
68,304,28912,6,0,L|60:224,1,72
64,212,29212,1,0,0:0:0:0:
76,192,29312,1,0,0:0:0:0:
228,136,29512,1,0,0:0:0:0:
140,276,29712,1,0,0:0:0:0:
68,100,29912,1,0,0:0:0:0:
240,20,30112,6,0,P|240:44|232:68,1,36
152,120,30312,2,0,P|148:137|149:155,1,36
224,240,30512,21,0,0:0:0:0:
388,168,30712,1,0,0:0:0:0:
224,136,30912,1,0,0:0:0:0:
332,268,31112,1,0,0:0:0:0:
432,104,31312,2,0,B|392:80|352:96|352:96|304:0|188:24,1,252
192,24,32112,6,0,L|180:112,1,72
180,116,32412,1,0,0:0:0:0:
176,136,32512,1,0,0:0:0:0:
264,272,32712,1,0,0:0:0:0:
412,120,32912,1,0,0:0:0:0:
268,160,33112,1,0,0:0:0:0:
420,328,33312,6,0,P|424:300|416:272,1,36
344,204,33512,2,0,P|343:186|347:168,1,36
396,48,33712,21,0,0:0:0:0:
456,204,33912,1,0,0:0:0:0:
240,160,34112,1,0,0:0:0:0:
480,92,34312,1,0,0:0:0:0:
296,224,34512,2,0,B|256:260|200:236|200:236|160:316|76:292,1,252
56,288,35312,6,0,L|48:204,1,72
56,196,35612,1,0,0:0:0:0:
68,176,35712,1,0,0:0:0:0:
192,64,35912,1,0,0:0:0:0:
288,172,36112,2,0,B|344:208|408:180|408:180|344:208|320:272,1,252
328,112,36912,6,0,P|352:120|396:100,1,45
432,248,37112,2,0,P|404:268|392:292,1,45
448,108,37312,2,0,P|488:152|480:216,1,107.999996704102
88,96,38512,22,0,P|148:72|192:88,1,107.999996704102
268,184,39112,1,0,0:0:0:0:
144,152,39312,1,0,0:0:0:0:
200,56,39512,1,0,0:0:0:0:
224,264,39712,1,0,0:0:0:0:
84,204,39912,2,0,P|68:168|72:132,1,53.9999983520508
122,52,40312,2,0,P|166:44|206:60,2,80.9999975280763
380,316,41712,6,0,P|392:252|368:208,1,107.999996704102
284,132,42312,1,0,0:0:0:0:
168,220,42512,1,0,0:0:0:0:
316,268,42712,1,0,0:0:0:0:
160,124,42912,1,0,0:0:0:0:
212,340,43112,2,0,P|224:308|224:284,1,53.9999983520508
112,204,43512,2,0,L|24:212,2,80.9999975280763
312,84,44912,37,0,0:0:0:0:
420,192,45112,1,0,0:0:0:0:
236,132,45312,1,0,0:0:0:0:
436,56,45512,1,0,0:0:0:0:
252,212,45712,2,0,B|192:220|164:172|164:172|92:160|56:216,1,215.999993408203
124,80,48112,5,0,0:0:0:0:
272,144,48312,1,0,0:0:0:0:
84,188,48512,1,0,0:0:0:0:
256,32,48712,1,0,0:0:0:0:
220,208,48912,2,0,B|272:244|328:204|328:204|348:256|316:312,1,215.999993408203
192,144,50312,5,0,0:0:0:0:
344,280,50512,1,0,0:0:0:0:
404,24,50712,1,0,0:0:0:0:
120,116,50912,2,0,P|116:172|140:208,1,72
200,224,51312,21,0,0:0:0:0:
204,236,51512,1,0,0:0:0:0:
288,256,51712,5,0,0:0:0:0:
292,268,51912,1,0,0:0:0:0:
376,284,52112,37,0,0:0:0:0:
380,296,52312,1,0,0:0:0:0:
464,308,52512,5,0,0:0:0:0:
468,320,52712,1,0,0:0:0:0:
440,224,52912,37,0,0:0:0:0:
460,200,53112,1,0,0:0:0:0:
384,136,53312,5,0,0:0:0:0:
378,105,53512,1,0,0:0:0:0:
280,132,53712,37,0,0:0:0:0:
251,118,53912,1,0,0:0:0:0:
204,208,54112,5,0,0:0:0:0:
178,227,54312,1,0,0:0:0:0:
256,288,54512,6,0,P|304:308|388:260,1,144
388,180,55112,1,0,0:0:0:0:
320,132,55312,2,0,P|304:176|312:212,1,72
384,272,55712,2,0,B|408:224|384:176|384:176|420:128|396:48|332:32|272:48|244:104,1,360
188,240,56912,5,0,0:0:0:0:
320,132,57112,1,0,0:0:0:0:
140,28,57312,2,0,L|128:108,1,72
200,148,57712,5,0,0:0:0:0:
204,132,57912,1,0,0:0:0:0:
272,184,58112,5,0,0:0:0:0:
276,168,58312,1,0,0:0:0:0:
360,184,58512,37,0,0:0:0:0:
364,168,58712,1,0,0:0:0:0:
428,224,58912,5,0,0:0:0:0:
432,208,59112,1,0,0:0:0:0:
448,108,59312,37,0,0:0:0:0:
408,92,59512,1,0,0:0:0:0:
324,148,59712,5,0,0:0:0:0:
364,164,59912,1,0,0:0:0:0:
372,264,60112,37,0,0:0:0:0:
332,248,60312,1,0,0:0:0:0:
248,308,60512,5,0,0:0:0:0:
288,324,60712,1,0,0:0:0:0:
264,232,60912,6,0,B|232:224|208:232|176:256|152:292|180:352|180:352|128:308|60:344,1,288
40,184,61912,1,0,0:0:0:0:
196,212,62112,2,0,P|224:240|232:272,1,72
132,324,62512,21,0,0:0:0:0:
144,284,62712,1,0,0:0:0:0:
52,216,62912,5,0,0:0:0:0:
64,176,63112,1,0,0:0:0:0:
180,40,63312,5,0,0:0:0:0:
336,228,63512,1,0,0:0:0:0:
64,176,63712,2,0,L|148:152,1,72
360,156,64112,22,0,P|404:192|404:256,1,90
276,344,64512,1,0,0:0:0:0:
168,176,64712,1,0,0:0:0:0:
336,228,64912,1,0,0:0:0:0:
136,304,65112,1,0,0:0:0:0:
192,76,65312,1,0,0:0:0:0:
392,312,65512,1,0,0:0:0:0:
79,190,65712,6,0,L|204:168,1,99.0000030212403
340,184,66112,1,0,0:0:0:0:
164,304,66312,1,0,0:0:0:0:
120,72,66512,1,0,0:0:0:0:
332,272,66712,1,0,0:0:0:0:
56,196,66912,1,0,0:0:0:0:
292,36,67112,1,0,0:0:0:0:
408,292,67312,38,0,P|352:348|300:344,1,107.999996704102
120,192,67712,1,0,0:0:0:0:
352,32,67912,1,0,0:0:0:0:
332,272,68112,1,0,0:0:0:0:
88,64,68312,1,0,0:0:0:0:
408,124,68512,1,0,0:0:0:0:
144,308,68712,1,0,0:0:0:0:
244,48,68912,6,0,L|364:60,1,116.999994644165
424,272,69312,1,0,0:0:0:0:
160,124,69512,1,0,0:0:0:0:
456,12,69712,1,0,0:0:0:0:
248,304,69912,1,0,0:0:0:0:
116,40,70112,1,0,0:0:0:0:
456,144,70312,1,0,0:0:0:0:
112,324,70512,37,0,0:0:0:0:
119,279,70612,1,0,0:0:0:0:
117,234,70712,1,0,0:0:0:0:
104,191,70812,1,0,0:0:0:0:
82,152,70912,5,0,0:0:0:0:
123,169,71012,1,0,0:0:0:0:
165,155,71112,1,0,0:0:0:0:
188,118,71212,1,0,0:0:0:0:
181,74,71312,37,0,0:0:0:0:
147,102,71412,1,0,0:0:0:0:
138,145,71512,1,0,0:0:0:0:
159,184,71612,1,0,0:0:0:0:
200,200,71712,5,0,0:0:0:0:
241,180,71812,1,0,0:0:0:0:
285,176,71912,1,0,0:0:0:0:
329,187,72012,1,0,0:0:0:0:
366,213,72112,37,0,0:0:0:0:
321,215,72212,1,0,0:0:0:0:
284,191,72312,1,0,0:0:0:0:
269,149,72412,1,0,0:0:0:0:
281,107,72512,5,0,0:0:0:0:
314,137,72612,1,0,0:0:0:0:
325,180,72712,1,0,0:0:0:0:
310,221,72812,1,0,0:0:0:0:
274,247,72912,37,0,0:0:0:0:
234,228,73012,1,0,0:0:0:0:
189,224,73112,1,0,0:0:0:0:
146,236,73212,1,0,0:0:0:0:
109,262,73312,5,0,0:0:0:0:
130,301,73412,1,0,0:0:0:0:
164,329,73512,1,0,0:0:0:0:
208,341,73612,1,0,0:0:0:0:
252,333,73712,5,0,0:0:0:0:
221,295,73812,1,0,0:0:0:0:
206,248,73912,1,0,0:0:0:0:
211,199,74012,1,0,0:0:0:0:
234,155,74112,5,0,0:0:0:0:
287,161,74212,1,0,0:0:0:0:
333,188,74312,1,0,0:0:0:0:
363,233,74412,1,0,0:0:0:0:
364,284,74512,37,0,0:0:0:0:
333,234,74612,1,0,0:0:0:0:
324,177,74712,1,0,0:0:0:0:
338,120,74812,1,0,0:0:0:0:
372,73,74912,5,0,0:0:0:0:
331,120,75012,1,0,0:0:0:0:
277,152,75112,1,0,0:0:0:0:
215,165,75212,1,0,0:0:0:0:
153,158,75312,1,0,0:0:0:0:
153,158,76112,37,0,0:0:0:0:
396,344,76312,1,0,0:0:0:0:
272,48,76512,2,0,L|260:152,1,90
300,336,76912,6,0,B|352:320|396:344|396:344|336:236|384:156|460:152|496:208|488:260|416:256|432:208,1,377.999988464356
428,231,77712,2,0,B|334:219|334:219|283:181|283:181|187:169|205:171,1,242.999992584229
88,248,78112,6,0,B|100:296|96:348|96:348|100:280|132:216|132:216|100:160|128:100|180:88|180:88|292:100,1,495
324,168,79312,2,0,B|348:116|420:136|432:188|416:224|388:252|308:320|228:244|200:168|276:96|276:96|68:76,1,630
140,304,80112,6,0,B|196:268|196:268|236:328|320:348|392:328|432:292|432:292|488:344,1,377.999988464356
248,164,80912,2,0,P|304:248|404:184,1,242.999992584229
324,168,81312,6,0,B|340:244|300:312|300:312|192:232|80:300|80:300|144:280|200:312,1,495
368,348,82512,2,0,B|396:300|420:216|392:136|392:136|408:172|436:196,1,270
480,264,82912,2,0,P|400:276|356:252,1,90
336,72,83112,2,0,P|416:60|459:84,1,90
388,144,83312,6,0,B|356:168|280:172|244:112|252:56|252:56|180:152|108:100|156:24|204:32|212:72|168:92,1,377.999988464356
176,212,84112,2,0,P|260:199|336:67,1,242.999992584229
208,88,84512,6,0,B|264:160|264:160|416:160|416:160|324:288|200:296,1,495
101,220,85712,2,0,B|45:136|113:40|113:40|165:212|337:104|269:-8|165:-8|137:76|209:88,1,540
408,124,86512,5,0,0:0:0:0:
232,292,86712,1,0,0:0:0:0:
200,100,86912,1,0,0:0:0:0:
456,296,87112,1,0,0:0:0:0:
264,156,87312,6,0,B|188:208|128:144|128:144|104:192|120:244,1,242.999992584229
296,232,87712,2,0,P|344:144|288:76,1,180
100,144,88312,1,0,0:0:0:0:
92,164,88412,1,0,0:0:0:0:
84,184,88512,2,0,L|89:247,1,45
200,304,88712,2,0,L|203:259,1,45
228,56,88912,5,0,0:0:0:0:
432,176,89112,1,0,0:0:0:0:
200,304,89312,2,0,P|188:252|220:192,1,90
268,260,89712,6,0,P|136:256|124:40,1,377.999988464356
252,180,90512,2,0,P|192:200|232:92,1,242.999992584229
208,144,90912,6,0,B|256:236|200:336|200:336|296:168|476:224,1,495
176,316,92112,6,0,B|204:244|184:184|184:184|120:224,1,180
115,99,92412,2,0,B|87:171|107:231|107:231|145:207,1,180
288,124,92712,1,0,0:0:0:0:
288,124,92912,6,0,B|336:104|336:104|412:104|412:104|480:76,1,161.999995056153
348,28,93312,2,0,L|348:88,1,45
436,216,93412,2,0,L|436:171,1,45
356,36,93512,2,0,L|356:96,1,45
428,208,93612,2,0,L|428:163,1,45
416,200,93712,2,0,B|324:144|236:192|236:192|272:172|300:112,1,242.999992584229
274,155,94112,6,0,B|156:296|-24:216|-24:216|72:80|208:128,1,593.999981872559
