osu file format v14

[General]
AudioFilename: audio.mp3
AudioLeadIn: 0
PreviewTime: 121424
Countdown: 0
SampleSet: Soft
StackLeniency: 0.7
Mode: 0
LetterboxInBreaks: 0
WidescreenStoryboard: 0

[Editor]
Bookmarks: 18847,33616,48385,63154,107462,114847,122231,162847,166539,169308
DistanceSpacing: 1
BeatDivisor: 2
GridSize: 8
TimelineZoom: 1

[Metadata]
Title:Higher Love
TitleUnicode:Higher Love
Artist:Seven Lions & Jason Ross feat. Paul Meany
ArtistUnicode:Seven Lions & Jason Ross feat. Paul Meany
Creator:Xayler
Version:Easy
Source:
Tags:trance edm electronic progressive house melodic dubstep shogunmoon hootowlstar anjunabeats
BeatmapID:1192806
BeatmapSetID:563353

[Difficulty]
HPDrainRate:2
CircleSize:2.5
OverallDifficulty:2
ApproachRate:2
SliderMultiplier:1
SliderTickRate:1

[Events]
//Background and Video events
0,0,"Love.png",0,0
//Break Periods
//Storyboard Layer 0 (Background)
//Storyboard Layer 1 (Fail)
//Storyboard Layer 2 (Pass)
//Storyboard Layer 3 (Foreground)
//Storyboard Sound Samples

[TimingPoints]
4078,461.538461538462,4,2,0,60,1,0
63154,-100,4,2,0,40,0,0
70539,-100,4,2,0,60,0,0
77924,-100,4,2,0,60,0,0
78385,-100,4,2,0,80,0,1
85308,-100,4,2,0,80,0,0
85770,-100,4,2,0,80,0,1
92693,-100,4,2,0,80,0,0
93154,-100,4,2,0,80,0,1
100078,-100,4,2,0,80,0,0
100539,-100,4,2,0,80,0,1
103770,-100,4,2,0,70,0,0
104693,-100,4,2,0,60,0,0
105616,-100,4,2,0,50,0,0
107462,-100,4,2,0,40,0,0
114847,-100,4,2,0,60,0,0
122231,-100,4,2,0,80,0,1
129616,-100,4,2,0,80,0,0
130539,-100,4,2,0,80,0,1
137001,-100,4,2,0,80,0,0
137924,-100,4,2,0,80,0,1
144385,-100,4,2,0,80,0,0
145308,-100,4,2,0,80,0,1
151770,-100,4,2,0,80,0,0
152693,-100,4,2,0,80,0,1
159154,-100,4,2,0,80,0,0
160078,-100,4,2,0,80,0,1
166654,-100,4,2,0,10,0,0
168385,-100,4,2,0,5,0,0

[Colours]
Combo1 : 255,128,128
Combo2 : 0,0,185
Combo3 : 255,128,192
Combo4 : 0,128,255

[HitObjects]
176,256,4078,6,0,L|184:128,1,100,2|0,0:0|0:0,0:0:0:0:
224,64,5001,2,0,P|280:56|328:64,1,100,2|0,0:0|0:0,0:0:0:0:
400,128,5924,2,0,L|408:280,2,150,2|2|2,0:0|0:0|0:0,0:0:0:0:
322,62,7770,6,0,P|273:55|224:64,1,100,2|0,0:0|0:0,0:0:0:0:
275,150,8693,2,0,P|369:150|419:38,1,200,2|2,0:0|0:0,0:0:0:0:
357,257,10539,2,0,P|345:309|357:361,1,100,2|2,0:0|0:0,0:0:0:0:
443,308,11462,6,0,P|473:221|427:108,1,200,2|2,0:0|0:0,0:0:0:0:
346,158,12847,1,0,0:0:0:0:
250,186,13308,2,0,L|142:182,1,100,2|0,0:0|0:0,0:0:0:0:
164,84,14231,2,0,L|263:80,1,100,2|0,0:0|0:0,0:0:0:0:
364,60,15154,6,0,P|416:136|360:216,1,200,2|2,0:0|0:0,0:0:0:0:
264,204,16539,1,0,0:0:0:0:
176,156,17001,2,0,P|132:140|72:140,1,100,2|2,0:0|0:0,0:0:0:0:
80,240,17924,2,0,P|126:256|176:257,1,100,2|2,0:0|0:0,0:0:0:0:
264,208,18847,6,0,L|370:195,1,100,2|0,0:0|0:0,0:0:0:0:
453,152,19770,2,0,P|461:211|446:253,1,100,2|0,0:0|0:0,0:0:0:0:
363,195,20693,1,2,0:0:0:0:
297,119,21154,2,0,L|191:106,2,100,0|2|0,0:0|0:0|0:0,0:0:0:0:
391,87,22539,6,0,P|383:170|317:216,2,150,2|2|2,0:0|0:0|0:0,0:0:0:0:
297,119,24385,2,0,P|235:197|271:287,1,200,2|2,0:0|0:0,0:0:0:0:
362,312,25770,1,2,0:0:0:0:
438,247,26231,6,0,L|461:76,2,150,2|2|2,0:0|0:0|0:0,0:0:0:0:
362,312,28078,2,0,L|246:309,1,100,2|0,0:0|0:0,0:0:0:0:
170,273,29001,2,0,L|70:275,1,100,2|0,0:0|0:0,0:0:0:0:
35,181,29924,6,0,P|76:135|214:165,1,200,2|2,0:0|0:0,0:0:0:0:
259,232,31308,1,0,0:0:0:0:
328,304,31770,2,0,P|380:316|424:304,1,100,2|2,0:0|0:0,0:0:0:0:
473,217,32693,1,2,0:0:0:0:
384,37,33616,6,0,B|392:93|392:93|368:181|368:181|376:237,1,200,2|2,0:0|0:0,0:0:0:0:
324,318,35001,1,8,0:0:0:0:
229,286,35462,2,0,L|233:182,1,100,2|8,0:0|0:0,0:0:0:0:
283,99,36385,2,0,P|239:87|179:99,1,100,2|8,0:0|0:0,0:0:0:0:
110,161,37308,6,0,L|106:260,1,100,2|8,0:0|0:0,0:0:0:0:
172,336,38231,2,0,P|228:336|268:316,1,100,2|8,0:0|0:0,0:0:0:0:
320,232,39154,2,0,P|365:211|414:213,1,100,2|8,0:0|0:0,0:0:0:0:
480,288,40078,1,2,0:0:0:0:
388,332,40539,1,8,0:0:0:0:
288,344,41001,6,0,P|216:332|172:216,1,200,2|2,0:0|0:0,0:0:0:0:
192,128,42385,1,8,0:0:0:0:
272,192,42847,2,0,L|384:188,1,100,2|8,0:0|0:0,0:0:0:0:
460,140,43770,2,0,P|472:196|456:244,1,100,2|8,0:0|0:0,0:0:0:0:
376,288,44693,5,2,0:0:0:0:
276,280,45154,2,0,P|222:280|172:300,2,100,8|2|8,0:0|0:0|0:0,0:0:0:0:
376,288,46539,2,0,P|436:280|472:248,1,100,2|8,0:0|0:0,0:0:0:0:
436,160,47462,1,2,0:0:0:0:
360,96,47924,1,8,0:0:0:0:
264,64,48385,6,0,L|152:68,2,100,2|8|2,0:0|0:0|0:0,0:0:0:0:
360,96,49770,1,8,0:0:0:0:
432,164,50231,2,0,P|444:244|332:300,1,200,2|2,0:0|0:0,0:0:0:0:
264,260,51616,1,8,0:0:0:0:
168,288,52078,6,0,L|56:284,1,100,2|8,0:0|0:0,0:0:0:0:
92,188,53001,2,0,L|191:191,1,100,2|8,0:0|0:0,0:0:0:0:
264,260,53924,2,0,P|320:268|368:260,2,100,2|8|2,0:0|0:0|0:0,0:0:0:0:
191,191,55308,1,8,0:0:0:0:
164,96,55770,6,0,B|264:64|264:128|368:96,1,200,2|2,0:0|0:0,0:0:0:0:
454,64,57154,1,8,0:0:0:0:
440,164,57616,2,0,L|444:264,1,100,2|8,0:0|0:0,0:0:0:0:
388,348,58539,1,2,0:0:0:0:
296,308,59001,1,8,0:0:0:0:
197,325,59462,6,0,L|87:330,2,100,2|8|2,0:0|0:0|0:0,0:0:0:0:
296,308,60847,1,8,0:0:0:0:
372,244,61308,1,2,0:0:0:0:
400,148,61770,2,0,L|392:44,2,100,8|2|8,0:0|0:0|0:0,0:0:0:0:
372,244,63154,6,0,P|312:288|188:244,1,200,2|2,0:0|0:0,0:0:0:0:
168,160,64539,1,8,0:0:0:0:
144,64,65001,2,0,P|96:56|36:72,1,100,2|8,0:0|0:0,0:0:0:0:
16,164,65924,2,0,L|24:272,1,100,2|8,0:0|0:0,0:0:0:0:
88,340,66847,6,0,P|176:352|264:284,1,200,2|2,0:0|0:0,0:0:0:0:
287,192,68231,1,8,0:0:0:0:
365,254,68693,2,0,L|477:250,1,100,2|8,0:0|0:0,0:0:0:0:
432,344,69616,2,0,L|332:347,1,100,2|8,0:0|0:0,0:0:0:0:
244,300,70539,6,0,L|124:304,1,100,2|8,0:0|0:0,0:0:0:0:
48,328,71462,2,0,P|52:268|80:228,1,100,2|8,0:0|0:0,0:0:0:0:
148,168,72385,1,2,0:0:0:0:
228,108,72847,1,8,0:0:0:0:
316,60,73308,2,0,L|436:62,1,100,2|8,0:0|0:0,0:0:0:0:
256,192,74231,12,0,76078,0:0:0:0:
168,304,77924,6,0,P|120:288|88:240,1,100,2|8,0:0|0:0,0:0:0:0:
92,149,78847,2,0,P|123:110|170:95,1,100,2|8,0:0|0:0,0:0:0:0:
266,118,79770,2,0,B|320:129|365:111|365:111|352:167|377:209,1,200,2|2,0:0|0:0,0:0:0:0:
447,276,81154,1,8,0:0:0:0:
351,304,81616,6,0,L|251:300,1,100,2|8,0:0|0:0,0:0:0:0:
276,203,82539,2,0,L|375:206,1,100,2|8,0:0|0:0,0:0:0:0:
468,167,83462,2,0,L|472:67,1,100,2|8,0:0|0:0,0:0:0:0:
373,50,84385,1,2,0:0:0:0:
296,114,84847,1,8,0:0:0:0:
197,102,85308,6,0,P|145:90|93:98,1,100,2|8,0:0|0:0,0:0:0:0:
141,186,86231,2,0,P|193:198|245:190,1,100,2|8,0:0|0:0,0:0:0:0:
302,115,87154,2,0,B|356:126|401:108|401:108|388:164|413:206,1,200,2|2,0:0|0:0,0:0:0:0:
464,289,88539,1,8,0:0:0:0:
376,337,89001,6,0,P|326:342|278:330,1,100,2|8,0:0|0:0,0:0:0:0:
200,267,89924,2,0,P|187:218|193:169,1,100,2|8,0:0|0:0,0:0:0:0:
253,89,90847,1,2,0:0:0:0:
340,136,91308,1,8,0:0:0:0:
431,177,91770,2,0,P|465:142|475:85,1,100,2|8,0:0|0:0,0:0:0:0:
395,33,92693,6,0,L|280:28,1,100,2|8,0:0|0:0,0:0:0:0:
199,59,93616,2,0,L|99:63,1,100,2|8,0:0|0:0,0:0:0:0:
25,131,94539,2,0,P|25:207|131:259,1,200,2|2,0:0|0:0,0:0:0:0:
183,179,95924,1,8,0:0:0:0:
274,218,96385,6,0,L|386:216,1,100,2|8,0:0|0:0,0:0:0:0:
432,134,97308,2,0,P|464:173|475:231,1,100,2|8,0:0|0:0,0:0:0:0:
442,314,98231,2,0,P|397:334|331:326,1,100,2|8,0:0|0:0,0:0:0:0:
259,283,99154,2,0,P|227:244|216:186,1,100,2|8,0:0|0:0,0:0:0:0:
116,182,100078,6,0,B|68:199|68:199|30:234,1,100,2|8,0:0|0:0,0:0:0:0:
54,330,101001,1,2,0:0:0:0:
153,343,101462,1,8,0:0:0:0:
251,325,101924,2,0,P|305:313|356:320,1,100,2|8,0:0|0:0,0:0:0:0:
445,345,102847,2,0,P|456:291|449:240,1,100,2|8,0:0|0:0,0:0:0:0:
428,149,103770,5,2,0:0:0:0:
448,52,104231,1,8,0:0:0:0:
351,78,104693,2,0,L|230:78,1,100,2|8,0:0|0:0,0:0:0:0:
153,55,105616,2,0,L|35:63,1,100,2|8,0:0|0:0,0:0:0:0:
12,153,106539,2,0,L|21:257,1,100,2|8,0:0|0:0,0:0:0:0:
85,329,107462,6,0,P|166:349|263:274,1,200,2|2,0:0|0:0,0:0:0:0:
275,188,108847,1,8,0:0:0:0:
354,248,109308,2,0,P|405:265|455:265,2,100,2|8|2,0:0|0:0|0:0,0:0:0:0:
275,188,110693,1,8,0:0:0:0:
242,93,111154,6,0,P|161:73|64:148,1,200,2|2,0:0|0:0,0:0:0:0:
36,229,112539,1,8,0:0:0:0:
84,316,113001,2,0,P|140:335|188:335,2,100,2|8|2,0:0|0:0|0:0,0:0:0:0:
36,229,114385,1,8,0:0:0:0:
69,135,114847,6,0,L|184:123,1,100,2|8,0:0|0:0,0:0:0:0:
263,93,115770,2,0,L|362:103,1,100,2|8,0:0|0:0,0:0:0:0:
450,150,116693,2,0,L|461:257,2,100,2|8|2,0:0|0:0|0:0,0:0:0:0:
450,49,118078,1,8,0:0:0:0:
256,192,118539,12,0,120385,0:0:0:0:
329,300,122231,6,0,P|235:324|151:263,1,200,2|2,0:0|0:0,0:0:0:0:
131,171,123616,1,8,0:0:0:0:
121,71,124078,2,0,B|228:40|228:103|321:72,1,200,2|2,0:0|0:0,0:0:0:0:
411,38,125462,1,8,0:0:0:0:
399,137,125924,6,0,L|404:242,1,100,2|8,0:0|0:0,0:0:0:0:
457,321,126847,2,0,P|406:336|348:319,1,100,2|8,0:0|0:0,0:0:0:0:
303,244,127770,2,0,P|254:234|207:249,1,100,2|8,0:0|0:0,0:0:0:0:
129,312,128693,1,2,0:0:0:0:
41,264,129154,1,8,0:0:0:0:
16,166,129616,6,0,P|69:95|186:95,1,200,2|2,0:0|0:0,0:0:0:0:
262,134,131001,1,8,0:0:0:0:
355,97,131462,2,0,P|451:98|512:174,1,200,2|2,0:0|0:0,0:0:0:0:
502,273,132847,1,8,0:0:0:0:
435,347,133308,6,0,P|388:358|332:346,1,100,2|8,0:0|0:0,0:0:0:0:
263,281,134231,2,0,P|214:271|165:282,1,100,2|8,0:0|0:0,0:0:0:0:
90,348,135154,2,0,P|70:307|75:241,1,100,2|8,0:0|0:0,0:0:0:0:
111,161,136078,1,2,0:0:0:0:
201,119,136539,1,8,0:0:0:0:
268,45,137001,6,0,P|353:37|432:136,1,200,2|2,0:0|0:0,0:0:0:0:
419,213,138385,1,8,0:0:0:0:
366,298,138847,2,0,P|281:306|202:207,1,200,2|2,0:0|0:0,0:0:0:0:
206,128,140231,1,8,0:0:0:0:
167,35,140693,6,0,P|113:27|54:46,1,100,2|8,0:0|0:0,0:0:0:0:
20,125,141616,2,0,L|25:225,1,100,2|8,0:0|0:0,0:0:0:0:
72,313,142539,2,0,P|126:321|185:302,2,100,2|8|2,0:0|0:0|0:0,0:0:0:0:
119,224,143924,1,8,0:0:0:0:
182,146,144385,6,0,B|284:115|284:179|386:146,1,200,2|2,0:0|0:0,0:0:0:0:
473,116,145770,1,8,0:0:0:0:
454,214,146231,2,0,P|408:289|303:304,1,200,2|2,0:0|0:0,0:0:0:0:
250,219,147616,1,8,0:0:0:0:
250,118,148078,6,0,P|204:43|99:28,1,200,2|2,0:0|0:0,0:0:0:0:
23,92,149462,1,8,0:0:0:0:
41,190,149924,2,0,L|49:294,1,100,2|8,0:0|0:0,0:0:0:0:
131,345,150847,2,0,L|247:341,1,100,2|8,0:0|0:0,0:0:0:0:
329,321,151770,6,0,P|389:321|430:342,2,100,2|8|2,0:0|0:0|0:0,0:0:0:0:
230,341,153154,1,8,0:0:0:0:
131,357,153616,2,0,P|71:357|30:336,2,100,2|8|2,0:0|0:0|0:0,0:0:0:0:
164,262,155001,1,8,0:0:0:0:
166,162,155462,6,0,P|184:112|223:81,1,100,2|8,0:0|0:0,0:0:0:0:
317,63,156385,2,0,L|419:65,1,100,2|8,0:0|0:0,0:0:0:0:
482,140,157308,2,0,P|464:190|425:221,1,100,2|8,0:0|0:0,0:0:0:0:
331,244,158231,1,2,0:0:0:0:
241,288,158693,1,8,0:0:0:0:
142,274,159154,6,0,P|92:273|47:293,2,100,2|8|2,0:0|0:0|0:0,0:0:0:0:
241,288,160539,1,8,0:0:0:0:
340,301,161001,2,0,P|389:301|435:282,2,100,2|8|2,0:0|0:0|0:0,0:0:0:0:
303,208,162385,1,8,0:0:0:0:
235,133,162847,6,0,L|118:129,1,100,2|8,0:0|0:0,0:0:0:0:
55,69,163770,2,0,P|35:118|44:170,1,100,2|8,0:0|0:0,0:0:0:0:
101,243,164693,2,0,P|157:247|204:226,1,100,2|8,0:0|0:0,0:0:0:0:
270,162,165616,2,0,P|316:144|364:150,2,75,2|8|0,0:0|0:0|0:0,0:0:0:0:
256,192,166539,12,0,169308,0:0:0:0:
