osu file format v14

[General]
AudioFilename: audio.mp3
AudioLeadIn: 0
PreviewTime: 121424
Countdown: 0
SampleSet: Soft
StackLeniency: 0.7
Mode: 0
LetterboxInBreaks: 0
WidescreenStoryboard: 1

[Editor]
Bookmarks: 18847,33616,48385,63154,107462,114847,122231,162847,166539,169308
DistanceSpacing: 1
BeatDivisor: 4
GridSize: 8
TimelineZoom: 1

[Metadata]
Title:Higher Love
TitleUnicode:Higher Love
Artist:Seven Lions & Jason Ross feat. Paul Meany
ArtistUnicode:Seven Lions & Jason Ross feat. Paul Meany
Creator:Xayler
Version:Discrepancy
Source:
Tags:trance edm electronic progressive house melodic dubstep shogunmoon hootowlstar anjunabeats
BeatmapID:2422302
BeatmapSetID:563353

[Difficulty]
HPDrainRate:7
CircleSize:4.2
OverallDifficulty:8
ApproachRate:8.8
SliderMultiplier:1.6
SliderTickRate:1

[Events]
//Background and Video events
0,0,"Love.png",0,0
//Break Periods
//Storyboard Layer 0 (Background)
//Storyboard Layer 1 (Fail)
//Storyboard Layer 2 (Pass)
//Storyboard Layer 3 (Foreground)
//Storyboard Layer 4 (Overlay)
//Storyboard Sound Samples

[TimingPoints]
4078,461.538461538462,4,2,0,60,1,0
33039,-100,4,2,0,5,0,0
33154,-100,4,2,0,60,0,0
33270,-100,4,2,0,5,0,0
33385,-100,4,2,0,60,0,0
33501,-100,4,2,0,5,0,0
33616,-100,4,2,0,60,0,0
38116,-100,4,2,0,5,0,0
38231,-100,4,2,0,60,0,0
41808,-100,4,2,0,5,0,0
41924,-100,4,2,0,60,0,0
46885,-100,4,2,0,5,0,0
47001,-100,4,2,0,60,0,0
52885,-100,4,2,0,5,0,0
53001,-100,4,2,0,60,0,0
56578,-100,4,2,0,5,0,0
56693,-100,4,2,0,60,0,0
61654,-100,4,2,0,5,0,0
61770,-100,4,2,0,60,0,0
63154,-125,4,2,0,40,0,0
70539,-83.3333333333333,4,2,0,60,0,0
77808,-83.3333333333333,4,2,0,5,0,0
77924,-55.5555555555556,4,2,0,60,0,0
78270,-55.5555555555556,4,2,0,5,0,0
78385,-62.5,4,2,0,80,0,1
80116,-62.5,4,2,0,5,0,1
80231,-62.5,4,2,0,80,0,1
80578,-62.5,4,2,0,5,0,1
80693,-62.5,4,2,0,80,0,1
81039,-62.5,4,2,0,5,0,1
81154,-62.5,4,2,0,80,0,1
81501,-62.5,4,2,0,5,0,1
81616,-62.5,4,2,0,80,0,1
82539,-55.5555555555556,4,2,0,80,0,1
83462,-50,4,2,0,80,0,1
84270,-50,4,2,0,5,0,1
84385,-50,4,2,0,80,0,1
85308,-55.5555555555556,4,2,0,80,0,0
85654,-55.5555555555556,4,2,0,5,0,0
85770,-62.5,4,2,0,80,0,1
87501,-62.5,4,2,0,5,0,1
87616,-62.5,4,2,0,80,0,1
87962,-62.5,4,2,0,5,0,1
88078,-62.5,4,2,0,80,0,1
88424,-62.5,4,2,0,5,0,1
88539,-62.5,4,2,0,80,0,1
88885,-62.5,4,2,0,5,0,1
89001,-62.5,4,2,0,80,0,1
89924,-71.4285714285714,4,2,0,80,0,1
90847,-83.3333333333333,4,2,0,80,0,1
91654,-83.3333333333333,4,2,0,5,0,1
91770,-83.3333333333333,4,2,0,80,0,1
92001,-62.5,4,2,0,80,0,1
92116,-62.5,4,2,0,5,0,1
92231,-62.5,4,2,0,80,0,1
92347,-62.5,4,2,0,5,0,1
92462,-62.5,4,2,0,80,0,1
92693,-55.5555555555556,4,2,0,80,0,0
93039,-55.5555555555556,4,2,0,5,0,0
93154,-62.5,4,2,0,80,0,1
93501,-62.5,4,2,0,5,0,1
93616,-62.5,4,2,0,80,0,1
94885,-62.5,4,2,0,5,0,1
95001,-62.5,4,2,0,80,0,1
95347,-62.5,4,2,0,5,0,1
95462,-62.5,4,2,0,80,0,1
95808,-62.5,4,2,0,5,0,1
95924,-62.5,4,2,0,80,0,1
96270,-62.5,4,2,0,5,0,1
96385,-62.5,4,2,0,80,0,1
97308,-55.5555555555556,4,2,0,80,0,1
98231,-50,4,2,0,80,0,1
99039,-50,4,2,0,5,0,1
99154,-50,4,2,0,80,0,1
100078,-55.5555555555556,4,2,0,80,0,0
100424,-55.5555555555556,4,2,0,5,0,0
100539,-62.5,4,2,0,80,0,1
100885,-62.5,4,2,0,5,0,1
101001,-62.5,4,2,0,80,0,1
102270,-62.5,4,2,0,5,0,1
102385,-62.5,4,2,0,80,0,1
102731,-62.5,4,2,0,5,0,1
102847,-62.5,4,2,0,80,0,1
103193,-62.5,4,2,0,5,0,1
103308,-62.5,4,2,0,80,0,1
103654,-62.5,4,2,0,5,0,1
103770,-71.4285714285714,4,2,0,70,0,0
104693,-83.3333333333333,4,2,0,60,0,0
105616,-100,4,2,0,50,0,0
106424,-100,4,2,0,5,0,0
106539,-100,4,2,0,50,0,0
107462,-125,4,2,0,40,0,0
108501,-125,4,2,0,5,0,0
108616,-125,4,2,0,40,0,0
109424,-125,4,2,0,5,0,0
109539,-125,4,2,0,40,0,0
110347,-125,4,2,0,5,0,0
110462,-125,4,2,0,40,0,0
112193,-125,4,2,0,5,0,0
112308,-125,4,2,0,40,0,0
113116,-125,4,2,0,5,0,0
113231,-125,4,2,0,40,0,0
114039,-125,4,2,0,5,0,0
114154,-125,4,2,0,40,0,0
114847,-83.3333333333333,4,2,0,60,0,0
120385,-62.5,4,2,0,60,0,0
121539,-83.3333333333333,4,2,0,60,0,0
121654,-83.3333333333333,4,2,0,5,0,0
121770,-83.3333333333333,4,2,0,60,0,0
121885,-83.3333333333333,4,2,0,5,0,0
122001,-83.3333333333333,4,2,0,60,0,0
122116,-83.3333333333333,4,2,0,5,0,0
122231,-62.5,4,2,0,80,0,1
122347,-62.5,4,2,0,5,0,1
122462,-62.5,4,2,0,80,0,1
123616,-62.5,4,2,0,80,0,1
123731,-62.5,4,2,0,5,0,1
123847,-62.5,4,2,0,80,0,1
123962,-62.5,4,2,0,5,0,1
124078,-62.5,4,2,0,80,0,1
124193,-62.5,4,2,0,5,0,1
124308,-62.5,4,2,0,80,0,1
125347,-62.5,4,2,0,5,0,1
125462,-62.5,4,2,0,80,0,1
125578,-62.5,4,2,0,5,0,1
125693,-62.5,4,2,0,80,0,1
125808,-62.5,4,2,0,5,0,1
125924,-62.5,4,2,0,80,0,1
126039,-62.5,4,2,0,5,0,1
126154,-62.5,4,2,0,80,0,1
126501,-62.5,4,2,0,5,0,1
126616,-62.5,4,2,0,80,0,1
126731,-62.5,4,2,0,5,0,1
126847,-62.5,4,2,0,80,0,1
127654,-62.5,4,2,0,5,0,1
127770,-62.5,4,2,0,80,0,1
127885,-62.5,4,2,0,5,0,1
128001,-62.5,4,2,0,80,0,1
128347,-62.5,4,2,0,5,0,1
128462,-62.5,4,2,0,80,0,1
128578,-62.5,4,2,0,5,0,1
128693,-62.5,4,2,0,80,0,1
128808,-62.5,4,2,0,5,0,1
128924,-62.5,4,2,0,80,0,1
129616,-100,4,2,0,60,0,0
129731,-100,4,2,0,5,0,0
129847,-100,4,2,0,60,0,0
129962,-100,4,2,0,5,0,0
130078,-100,4,2,0,60,0,0
130424,-100,4,2,0,5,0,0
130539,-62.5,4,2,0,80,0,1
131116,-62.5,4,2,0,5,0,1
131231,-62.5,4,2,0,80,0,1
131347,-62.5,4,2,0,5,0,1
131462,-62.5,4,2,0,80,0,1
131578,-62.5,4,2,0,5,0,1
131693,-62.5,4,2,0,80,0,1
132962,-62.5,4,2,0,5,0,1
133078,-62.5,4,2,0,80,0,1
133193,-62.5,4,2,0,5,0,1
133308,-62.5,4,2,0,80,0,1
133424,-62.5,4,2,0,5,0,1
133539,-62.5,4,2,0,80,0,1
134808,-62.5,4,2,0,5,0,1
134924,-62.5,4,2,0,80,0,1
135039,-62.5,4,2,0,5,0,1
135154,-62.5,4,2,0,80,0,1
135270,-62.5,4,2,0,5,0,1
135385,-62.5,4,2,0,80,0,1
135501,-62.5,4,2,0,5,0,1
135616,-62.5,4,2,0,80,0,1
135962,-62.5,4,2,0,5,0,1
136078,-62.5,4,2,0,80,0,1
136424,-62.5,4,2,0,5,0,1
136539,-62.5,4,2,0,80,0,1
136654,-62.5,4,2,0,5,0,1
136770,-62.5,4,2,0,80,0,1
136885,-62.5,4,2,0,5,0,1
137001,-125,4,2,0,60,0,0
137116,-125,4,2,0,5,0,0
137231,-100,4,2,0,60,0,0
137347,-100,4,2,0,5,0,0
137462,-83.3333333333333,4,2,0,60,0,0
137578,-83.3333333333333,4,2,0,5,0,0
137693,-71.4285714285714,4,2,0,60,0,0
137808,-71.4285714285714,4,2,0,5,0,0
137924,-62.5,4,2,0,80,0,1
138501,-62.5,4,2,0,5,0,1
138616,-62.5,4,2,0,80,0,1
138731,-62.5,4,2,0,5,0,1
138847,-62.5,4,2,0,80,0,1
138962,-62.5,4,2,0,5,0,1
139078,-62.5,4,2,0,80,0,1
140116,-62.5,4,2,0,5,0,1
140231,-62.5,4,2,0,80,0,1
140347,-62.5,4,2,0,5,0,1
140462,-62.5,4,2,0,80,0,1
140578,-62.5,4,2,0,5,0,1
140693,-62.5,4,2,0,80,0,1
140808,-62.5,4,2,0,5,0,1
140924,-62.5,4,2,0,80,0,1
141270,-62.5,4,2,0,5,0,1
141385,-62.5,4,2,0,80,0,1
141501,-62.5,4,2,0,5,0,1
141616,-62.5,4,2,0,80,0,1
142424,-62.5,4,2,0,5,0,1
142539,-62.5,4,2,0,80,0,1
142654,-62.5,4,2,0,5,0,1
142770,-62.5,4,2,0,80,0,1
143116,-62.5,4,2,0,5,0,1
143231,-62.5,4,2,0,80,0,1
143347,-62.5,4,2,0,5,0,1
143462,-62.5,4,2,0,80,0,1
143578,-62.5,4,2,0,5,0,1
143693,-62.5,4,2,0,80,0,1
144385,-100,4,2,0,60,0,0
144501,-100,4,2,0,5,0,0
144616,-100,4,2,0,60,0,0
144731,-100,4,2,0,5,0,0
144847,-100,4,2,0,60,0,0
145193,-100,4,2,0,5,0,0
145308,-62.5,4,2,0,80,0,1
145885,-62.5,4,2,0,5,0,1
146001,-62.5,4,2,0,80,0,1
146116,-62.5,4,2,0,5,0,1
146231,-62.5,4,2,0,80,0,1
146347,-62.5,4,2,0,5,0,1
146462,-62.5,4,2,0,80,0,1
147731,-62.5,4,2,0,5,0,1
147847,-62.5,4,2,0,80,0,1
147962,-62.5,4,2,0,5,0,1
148078,-62.5,4,2,0,80,0,1
148193,-62.5,4,2,0,5,0,1
148308,-62.5,4,2,0,80,0,1
149578,-62.5,4,2,0,5,0,1
149693,-62.5,4,2,0,80,0,1
149808,-62.5,4,2,0,5,0,1
149924,-62.5,4,2,0,80,0,1
150039,-62.5,4,2,0,5,0,1
150154,-62.5,4,2,0,80,0,1
150270,-62.5,4,2,0,5,0,1
150385,-62.5,4,2,0,80,0,1
150731,-62.5,4,2,0,5,0,1
150847,-62.5,4,2,0,80,0,1
151770,-100,4,2,0,60,0,0
152347,-100,4,2,0,5,0,0
152462,-100,4,2,0,60,0,0
152578,-100,4,2,0,5,0,0
152693,-62.5,4,2,0,80,0,1
153270,-62.5,4,2,0,5,0,1
153385,-62.5,4,2,0,80,0,1
153501,-62.5,4,2,0,5,0,1
153616,-62.5,4,2,0,80,0,1
153847,-62.5,4,2,0,5,0,1
153962,-62.5,4,2,0,80,0,1
154193,-62.5,4,2,0,5,0,1
154308,-62.5,4,2,0,80,0,1
154424,-62.5,4,2,0,5,0,1
154539,-62.5,4,2,0,80,0,1
155116,-62.5,4,2,0,5,0,1
155231,-62.5,4,2,0,80,0,1
155347,-62.5,4,2,0,5,0,1
155462,-62.5,4,2,0,80,0,1
155578,-62.5,4,2,0,5,0,1
155693,-62.5,4,2,0,80,0,1
156962,-62.5,4,2,0,5,0,1
157078,-62.5,4,2,0,80,0,1
157193,-62.5,4,2,0,5,0,1
157308,-62.5,4,2,0,80,0,1
157424,-62.5,4,2,0,5,0,1
157539,-62.5,4,2,0,80,0,1
157654,-62.5,4,2,0,5,0,1
157770,-62.5,4,2,0,80,0,1
158116,-62.5,4,2,0,5,0,1
158231,-62.5,4,2,0,80,0,1
159154,-100,4,2,0,60,0,0
159731,-100,4,2,0,5,0,0
159847,-100,4,2,0,60,0,0
159962,-100,4,2,0,5,0,0
160078,-62.5,4,2,0,80,0,1
160654,-62.5,4,2,0,5,0,1
160770,-62.5,4,2,0,80,0,1
160885,-62.5,4,2,0,5,0,1
161001,-62.5,4,2,0,80,0,1
161231,-62.5,4,2,0,5,0,1
161347,-62.5,4,2,0,80,0,1
161578,-62.5,4,2,0,5,0,1
161693,-62.5,4,2,0,80,0,1
161808,-62.5,4,2,0,5,0,1
161924,-62.5,4,2,0,80,0,1
162501,-62.5,4,2,0,5,0,1
162616,-62.5,4,2,0,80,0,1
162731,-62.5,4,2,0,5,0,1
162847,-62.5,4,2,0,80,0,1
165616,-50,4,2,0,80,0,1
165847,-50,4,2,0,5,0,1
165962,-50,4,2,0,80,0,1
166193,-50,4,2,0,5,0,1
166308,-50,4,2,0,80,0,1
166424,-50,4,2,0,5,0,1
166539,-50,4,2,0,60,0,1
166654,-50,4,2,0,40,0,0
168385,-50,4,2,0,5,0,0

[Colours]
Combo1 : 204,0,0
Combo2 : 149,202,255
Combo3 : 255,132,132
Combo4 : 0,87,174

[HitObjects]
99,97,4078,5,0,0:0:0:0:
187,189,4308,2,0,L|176:106,1,80
222,257,4770,2,0,L|233:174,1,80
265,321,5231,2,0,L|254:238,1,80
423,187,5693,6,0,P|388:198|347:188,1,80
383,43,6154,2,0,P|394:78|384:119,1,80
236,72,6616,2,0,L|315:82,1,80
258,180,7078,1,0,0:0:0:0:
383,43,7308,2,0,P|394:78|384:119,1,80
258,180,7770,37,0,0:0:0:0:
230,105,8001,1,0,0:0:0:0:
208,243,8231,1,0,0:0:0:0:
258,180,8462,1,0,0:0:0:0:
128,233,8693,1,0,0:0:0:0:
208,243,8924,1,0,0:0:0:0:
97,159,9154,1,0,0:0:0:0:
128,233,9385,1,0,0:0:0:0:
238,96,9616,6,0,L|158:106,1,80
53,67,10078,1,0,0:0:0:0:
171,181,10308,2,0,P|175:144|158:105,1,80
56,236,10770,2,0,P|51:199|68:160,1,80
175,318,11231,38,0,B|95:286|95:350|15:318,1,160
56,214,11924,1,0,0:0:0:0:
198,162,12154,2,0,P|187:197|197:238,1,80
258,333,12616,1,0,0:0:0:0:
345,190,12847,2,0,L|265:200,1,80
391,308,13308,6,0,L|470:318,1,80
444,209,13770,1,0,0:0:0:0:
316,333,14001,2,0,P|311:293|328:257,1,80
456,133,14462,2,0,P|460:172|443:208,1,80
337,50,14924,38,0,B|417:82|417:18|497:50,1,160
457,154,15616,1,0,0:0:0:0:
335,245,15847,2,0,P|330:205|347:169,1,80
416,82,16308,1,0,0:0:0:0:
488,228,16539,2,0,L|409:218,1,80
329,88,17001,5,0,0:0:0:0:
250,96,17231,1,0,0:0:0:0:
170,216,17462,1,0,0:0:0:0:
266,225,17693,1,0,0:0:0:0:
136,106,17924,1,0,0:0:0:0:
26,123,18154,1,0,0:0:0:0:
170,216,18385,1,0,0:0:0:0:
49,139,18615,1,0,0:0:0:0:
188,30,18847,37,0,0:0:0:0:
299,94,19078,2,0,L|216:105,1,80
360,182,19539,2,0,L|280:171,1,80
422,249,20001,2,0,L|342:259,1,80
439,93,20462,6,0,P|450:128|440:169,1,80
340,53,20924,2,0,P|329:91|340:129,1,80
430,262,21385,2,0,L|351:252,1,80
264,180,21847,1,0,0:0:0:0:
439,93,22078,2,0,P|450:128|440:169,1,80
228,87,22539,38,0,P|299:73|352:135,1,160
253,259,23231,2,0,L|263:180,1,80
153,205,23693,1,0,0:0:0:0:
279,334,23924,2,0,P|239:338|203:321,1,80
358,253,24385,6,0,B|454:221|422:285|518:253,1,160
488,96,25078,2,0,P|491:135|475:171,1,80
378,44,25539,2,0,P|374:83|390:119,1,80
512,254,26001,38,0,B|432:286|432:222|352:254,1,160
255,299,26693,1,0,0:0:0:0:
356,175,26924,2,0,P|367:210|357:251,1,80
324,358,27385,1,0,0:0:0:0:
209,204,27616,2,0,L|289:214,1,80
197,82,28078,6,0,L|118:92,1,80
13,52,28539,1,0,0:0:0:0:
130,167,28770,2,0,P|134:130|117:91,1,80
15,222,29232,2,0,P|10:185|27:146,1,80
251,247,29693,38,0,B|171:215|171:279|91:247,1,160
132,143,30385,1,0,0:0:0:0:
286,160,30616,2,0,P|290:123|273:84,1,80
199,0,31078,1,0,0:0:0:0:
132,143,31308,2,0,L|211:133,1,80
63,61,31770,5,0,0:0:0:0:
36,153,32001,1,0,0:0:0:0:
158,44,32231,1,0,0:0:0:0:
185,136,32462,1,0,0:0:0:0:
161,55,32693,1,0,0:0:0:0:
182,198,32924,2,0,L|187:150,1,40
278,70,33154,2,0,L|238:74,1,40
73,109,33385,2,0,L|112:113,1,40
277,226,33616,6,0,B|286:174|286:174|270:118|270:118|278:67,1,160
375,0,34308,1,0,0:0:0:0:
419,154,34539,2,0,P|415:114|431:78,1,80
511,199,35001,1,0,0:0:0:0:
367,267,35231,6,0,B|271:299|303:235|207:267,1,160
277,367,35924,1,0,0:0:0:0:
130,304,36154,2,0,P|119:269|129:228,1,80
246,117,36616,1,0,0:0:0:0:
73,149,36847,1,0,0:0:0:0:
257,192,37078,6,0,P|261:152|245:116,1,80
238,298,37539,2,0,P|278:302|314:286,1,80
185,165,38001,2,0,L|137:169,1,40
268,74,38231,2,0,B|300:154|236:154|268:234,1,160
418,177,38924,6,0,P|378:173|342:189,1,80
242,315,39385,2,0,P|282:319|318:303,1,80
254,153,39847,2,0,P|250:193|266:229,1,80
362,101,40308,2,0,P|366:141|350:177,1,80
284,30,40770,5,0,0:0:0:0:
465,94,41001,1,0,0:0:0:0:
276,126,41231,1,0,0:0:0:0:
399,0,41462,2,0,B|415:48|375:72|391:120,1,120
426,180,41924,2,0,P|465:184|501:168,1,80
326,186,42385,1,0,0:0:0:0:
434,345,42616,6,0,P|445:310|435:269,1,80
215,308,43078,2,0,B|311:340|279:276|375:308,1,160
256,218,43770,1,0,0:0:0:0:
396,296,44001,1,0,0:0:0:0:
354,151,44231,1,0,0:0:0:0:
292,307,44462,6,0,P|257:318|216:308,1,80
251,89,44924,2,0,B|219:185|283:153|251:249,1,160
149,344,45616,1,0,0:0:0:0:
307,319,45847,1,0,0:0:0:0:
162,249,46077,1,0,0:0:0:0:
321,325,46308,6,0,P|332:290|322:249,1,80
145,237,46770,2,0,L|184:233,1,40
61,137,47001,2,0,B|29:233|93:201|61:297,1,160
202,371,47693,2,0,P|162:374|126:358,1,80
272,291,48154,1,0,0:0:0:0:
175,145,48385,6,0,B|184:197|184:197|168:253|168:253|176:304,1,160
277,366,49078,1,0,0:0:0:0:
367,234,49308,2,0,P|382:270|378:309,1,80
277,207,49770,1,0,0:0:0:0:
399,103,50001,6,0,B|303:135|335:71|239:103,1,160
143,166,50693,1,0,0:0:0:0:
281,248,50924,2,0,P|292:213|282:172,1,80
165,281,51385,1,0,0:0:0:0:
320,364,51616,1,0,0:0:0:0:
151,273,51847,6,0,P|147:233|163:197,1,80
342,241,52308,2,0,P|305:256|266:252,1,80
386,135,52770,2,0,L|434:131,1,40
263,96,53001,2,0,B|231:176|295:176|263:256,1,160
113,200,53693,6,0,P|153:196|189:212,1,80
290,337,54154,2,0,P|250:341|214:325,1,80
324,203,54616,2,0,P|287:219|264:251,1,80
351,112,55078,2,0,P|387:128|410:160,1,80
255,117,55539,5,0,0:0:0:0:
433,45,55770,1,0,0:0:0:0:
324,203,56001,1,0,0:0:0:0:
351,23,56231,2,0,B|335:71|375:95|359:143,1,120
324,203,56693,2,0,P|285:207|249:191,1,80
424,205,57154,1,0,0:0:0:0:
292,366,57385,6,0,P|281:331|291:290,1,80
511,329,57847,2,0,B|415:361|447:297|351:329,1,160
260,220,58539,1,0,0:0:0:0:
358,347,58770,1,0,0:0:0:0:
375,196,59001,1,0,0:0:0:0:
260,318,59231,6,0,P|225:329|184:319,1,80
223,99,59693,2,0,B|255:195|191:163|223:259,1,160
323,356,60385,1,0,0:0:0:0:
165,328,60616,1,0,0:0:0:0:
313,267,60847,1,0,0:0:0:0:
150,334,61078,6,0,P|139:299|149:258,1,80
342,179,61539,2,0,L|390:175,1,40
219,140,61770,2,0,B|187:220|251:220|219:300,1,160
82,375,62462,2,0,P|122:378|158:362,1,80
12,295,62923,1,0,0:0:0:0:
139,179,63154,6,0,P|140:210|127:239,1,64
109,305,63501,2,0,P|137:291|169:294,1,64
231,322,63847,2,0,L|227:248,1,64
301,138,64308,2,0,P|303:169|289:197,1,64
288,50,64770,2,0,P|319:47|347:61,1,64
224,153,65231,2,0,P|192:155|164:141,1,64
305,231,65693,2,0,P|319:202|316:171,1,64
231,299,66154,2,0,P|216:270|219:239,1,64
218,239,66847,6,0,P|249:238|278:251,1,64
344,269,67194,2,0,P|330:241|333:209,1,64
361,147,67540,2,0,L|287:151,1,64
162,191,68001,2,0,P|159:160|173:132,1,64
254,270,68462,2,0,P|257:239|243:211,1,64
241,359,68924,2,0,P|272:362|300:348,1,64
121,316,69385,2,0,P|149:301|180:304,1,64
44,360,69847,2,0,P|29:331|32:300,1,64
31,300,70539,5,0,0:0:0:0:
73,162,70770,1,0,0:0:0:0:
121,316,71001,1,0,0:0:0:0:
68,148,71231,2,0,L|164:154,1,95.9999970703126
296,96,71693,1,0,0:0:0:0:
222,255,71924,1,0,0:0:0:0:
302,82,72154,6,0,L|296:178,1,95.9999970703126
388,8,72616,1,0,0:0:0:0:
199,41,72847,1,0,0:0:0:0:
422,101,73078,2,0,P|426:62|400:13,1,95.9999970703126
167,136,73539,2,0,P|163:97|189:48,1,95.9999970703126
418,209,74001,1,0,0:0:0:0:
141,315,74231,5,0,0:0:0:0:
160,289,74347,1,0,0:0:0:0:
188,273,74462,1,0,0:0:0:0:
220,266,74578,1,0,0:0:0:0:
260,272,74693,5,0,0:0:0:0:
257,232,74808,1,0,0:0:0:0:
253,192,74924,1,0,0:0:0:0:
249,152,75039,1,0,0:0:0:0:
241,105,75154,5,0,0:0:0:0:
287,120,75270,1,0,0:0:0:0:
335,122,75385,1,0,0:0:0:0:
382,111,75501,1,0,0:0:0:0:
422,72,75616,5,0,0:0:0:0:
417,128,75731,1,0,0:0:0:0:
411,184,75847,1,0,0:0:0:0:
405,240,75962,1,0,0:0:0:0:
397,296,76078,6,0,L|402:357,1,47.9999985351563
306,219,76308,2,0,L|310:162,1,47.9999985351563
375,287,76539,2,0,L|379:344,1,47.9999985351563
284,228,76769,2,0,L|288:172,1,47.9999985351563
242,344,77001,1,0,0:0:0:0:
68,263,77231,6,0,L|118:259,1,47.9999985351563
206,134,77462,2,0,L|210:181,1,47.9999985351563
244,352,77693,2,0,L|248:304,1,47.9999985351563
344,118,77924,6,0,P|272:84|210:182,1,215.999993408203
277,230,78385,6,0,L|413:222,1,128
186,332,78847,2,0,L|50:324,1,128
175,111,79308,2,0,L|183:247,1,128
289,38,79770,6,0,L|276:239,1,192
200,262,80231,2,0,P|209:179|311:154,1,192
376,111,80693,2,0,L|363:302,1,192
287,335,81154,2,0,P|296:252|398:227,1,192
462,265,81616,6,0,L|454:137,1,128
246,8,82078,2,0,L|238:135,1,128
473,289,82539,6,0,L|464:145,1,143.999995605469
236,0,83001,2,0,L|227:143,1,143.999995605469
486,315,83462,6,0,P|511:244|473:168,1,160
121,256,83924,2,0,B|237:312|237:200|353:256,1,240
441,304,84385,1,0,0:0:0:0:
181,118,84616,1,0,0:0:0:0:
296,365,84847,1,0,0:0:0:0:
361,51,85078,1,0,0:0:0:0:
121,256,85308,6,0,P|183:206|281:289,1,215.999993408203
329,344,85770,6,0,L|339:216,1,128
229,0,86231,2,0,L|239:127,1,128
483,111,86693,2,0,L|355:100,1,128
148,243,87154,6,0,L|341:227,1,192
410,182,87616,2,0,B|450:274|370:274|410:366,1,192
479,319,88078,2,0,L|287:334,1,192
219,381,88539,2,0,B|179:289|259:289|219:197,1,192
151,147,89001,6,0,P|218:158|267:125,1,128
480,241,89462,2,0,P|413:252|364:219,1,128
431,29,89924,6,0,L|439:144,1,111.999996582031
258,238,90385,2,0,L|265:126,1,111.999996582031
144,15,90847,6,0,P|190:9|232:32,1,95.9999970703126
78,178,91308,2,0,P|105:113|179:102,1,143.999995605469
246,121,91770,1,0,0:0:0:0:
144,356,92001,6,0,P|135:323|144:289,1,64
255,212,92231,2,0,P|264:245|255:279,1,64
13,193,92462,2,0,L|80:198,1,64
251,81,92693,6,0,P|155:110|167:208,1,215.999993408203
243,241,93154,6,0,B|307:233|307:233|371:258|371:258|435:249,1,192
499,204,93616,2,0,L|488:75,1,128
301,234,94078,2,0,L|290:361,1,128
366,129,94539,6,0,P|306:100|213:171,1,192
135,195,95001,2,0,P|195:166|288:237,1,192
365,261,95462,2,0,P|305:232|212:303,1,192
134,327,95924,2,0,P|194:298|287:369,1,192
368,379,96385,6,0,L|358:239,1,128
220,50,96847,2,0,L|210:177,1,128
481,135,97308,6,0,L|337:146,1,143.999995605469
96,278,97770,2,0,L|240:289,1,143.999995605469
489,128,98231,6,0,P|414:137|361:80,1,160
157,368,98693,2,0,P|196:274|95:277,1,240
57,373,99154,1,0,0:0:0:0:
20,103,99385,1,0,0:0:0:0:
303,254,99616,1,0,0:0:0:0:
344,278,99731,1,0,0:0:0:0:
386,301,99847,2,0,P|392:340|378:377,1,80
262,160,100078,6,0,P|319:128|420:218,1,215.999993408203
384,288,100539,6,0,B|320:296|320:296|256:271|256:271|192:280,1,192
120,310,101001,2,0,L|131:181,1,128
323,34,101462,2,0,L|333:161,1,128
87,78,101924,6,0,P|145:46|238:112,1,192
161,143,102385,2,0,P|246:112|311:176,1,192
234,207,102847,2,0,P|319:176|384:240,1,192
308,272,103308,2,0,P|393:241|458:305,1,192
512,356,103770,6,0,P|462:342|413:370,1,111.999996582031
254,228,104231,2,0,P|304:214|353:242,1,111.999996582031
286,384,104693,6,0,L|296:283,1,95.9999970703126
176,189,105154,2,0,L|185:284,1,95.9999970703126
89,372,105616,6,0,P|126:353|165:357,1,80
9,249,106078,2,0,P|57:287|114:276,1,120
168,227,106539,1,0,0:0:0:0:
29,147,106770,1,0,0:0:0:0:
52,141,106885,1,0,0:0:0:0:
75,136,107001,1,0,0:0:0:0:
98,130,107116,1,0,0:0:0:0:
121,124,107231,1,0,0:0:0:0:
227,0,107462,6,0,L|220:71,1,64
202,129,107808,2,0,P|234:116|269:120,1,64
322,151,108154,2,0,B|338:199|306:199|322:247,1,96
359,301,108616,2,0,P|390:302|419:289,1,64
512,174,109078,2,0,P|472:163|426:188,1,96
376,233,109539,2,0,P|360:204|360:172,1,64
438,336,110001,2,0,P|398:347|352:322,1,96
312,268,110462,2,0,P|280:268|252:283,1,64
252,283,111154,6,0,L|245:212,1,64
264,154,111500,2,0,P|232:167|197:163,1,64
144,131,111847,2,0,B|128:83|160:83|144:35,1,96
88,0,112308,2,0,P|56:-1|27:11,1,64
139,101,112770,2,0,P|179:112|225:87,1,96
245,23,113231,2,0,P|272:38|289:64,1,64
242,239,113693,2,0,P|272:203|319:199,1,96,0|0,2:0|0:0,0:0:0:0:
374,159,114154,2,0,P|386:187|384:219,1,64
385,220,114847,5,0,0:0:0:0:
474,333,115078,1,0,0:0:0:0:
512,145,115308,1,0,0:0:0:0:
471,348,115539,2,0,L|369:341,1,95.9999970703126
232,364,116001,1,0,0:0:0:0:
352,215,116231,1,0,0:0:0:0:
222,377,116462,2,0,L|229:275,1,95.9999970703126
110,82,116924,6,0,L|116:145,1,47.9999985351563
103,206,117154,1,0,0:0:0:0:
241,21,117385,2,0,L|235:84,1,47.9999985351563
248,150,117615,1,0,0:0:0:0:
468,270,117847,2,0,L|405:276,1,47.9999985351563
330,308,118077,1,0,0:0:0:0:
103,206,118308,2,0,L|166:212,1,47.9999985351563
280,54,118539,5,0,0:0:0:0:
276,86,118654,1,0,0:0:0:0:
272,118,118770,1,0,0:0:0:0:
268,150,118885,1,0,0:0:0:0:
264,191,119001,5,0,0:0:0:0:
259,232,119116,1,0,0:0:0:0:
254,273,119231,1,0,0:0:0:0:
249,314,119347,1,0,0:0:0:0:
244,361,119462,5,0,0:0:0:0:
200,380,119578,1,0,0:0:0:0:
152,373,119693,1,0,0:0:0:0:
123,335,119808,1,0,0:0:0:0:
123,278,119924,5,0,0:0:0:0:
169,245,120039,1,0,0:0:0:0:
225,253,120154,1,0,0:0:0:0:
252,303,120270,1,0,0:0:0:0:
230,369,120385,6,0,L|158:364,1,64
314,266,120616,2,0,L|386:261,1,64
152,175,120847,2,0,L|80:170,1,64
376,67,121078,2,0,L|448:62,1,64
78,2,121308,1,0,0:0:0:0:
164,119,121539,6,0,P|166:143|159:166,1,47.9999985351563
84,199,121770,2,0,P|76:176|78:152,1,47.9999985351563
231,69,122001,2,0,P|243:89|248:112,1,47.9999985351563
2,123,122231,6,0,P|20:93|48:75,1,64
196,257,122462,2,0,B|208:286|242:293|242:293|308:233|200:194|248:112,1,256
148,336,123154,1,0,0:0:0:0:
320,155,123385,1,0,0:0:0:0:
90,175,123616,2,0,P|54:173|23:158,1,64
174,54,123847,2,0,P|138:56|107:71,1,64
187,239,124078,6,0,P|189:203|204:172,1,64
345,59,124308,2,0,P|398:63|316:116,1,256
492,255,125001,1,0,0:0:0:0:
260,206,125231,2,0,P|227:202|194:213,1,64
240,361,125462,2,0,L|235:291,1,64
359,166,125693,2,0,L|354:229,1,64
384,78,125924,6,0,P|351:74|318:85,1,64
198,210,126154,2,0,P|221:121|150:61,1,192
131,271,126616,2,0,P|157:292|199:300,1,64
442,188,126847,2,0,B|347:132|283:260|187:204,1,256
386,320,127539,2,0,P|393:287|385:248,1,64
277,355,127770,6,0,P|270:322|278:283,1,64
442,188,128001,2,0,B|385:172|385:172|305:197|305:197|249:180,1,192
290,41,128462,2,0,L|301:116,1,64
163,222,128693,2,0,L|172:158,1,64
300,336,128924,1,0,0:0:0:0:
256,361,129039,1,0,0:0:0:0:
206,374,129154,1,0,0:0:0:0:
154,368,129270,1,0,0:0:0:0:
110,342,129385,2,0,P|77:338|47:353,1,64
163,221,129616,6,0,L|169:182,1,40
109,77,129847,2,0,L|114:116,1,40
297,72,130078,2,0,P|243:61|198:102,1,120
163,221,130539,5,0,0:0:0:0:
400,142,130770,1,0,0:0:0:0:
235,321,131001,2,0,P|232:288|243:259,1,64
423,230,131231,2,0,P|426:263|415:292,1,64
271,173,131462,6,0,P|260:143|263:111,1,64
451,112,131693,2,0,B|469:94|466:59|466:59|457:4|383:11|344:81|362:136,1,256
433,339,132385,1,0,0:0:0:0:
355,136,132616,2,0,P|265:119|201:188,1,192
421,0,133078,2,0,P|426:27|416:62,1,64
323,121,133308,6,0,P|317:93|326:59,1,64
476,184,133539,2,0,P|423:158|397:296,1,256
420,54,134231,1,0,0:0:0:0:
246,209,134462,2,0,L|44:194,1,192
149,323,134924,2,0,P|154:350|141:385,1,64
50,333,135154,6,0,P|44:305|52:271,1,64
140,146,135385,2,0,L|132:220,1,64
18,61,135616,2,0,B|103:90|99:24|206:65,1,192
274,107,136078,1,0,0:0:0:0:
366,207,136308,2,0,L|374:144,1,64
397,291,136539,2,0,L|447:252,1,64
313,314,136770,2,0,L|350:365,1,64
165,32,137001,6,0,L|166:72,1,32
223,124,137231,2,0,L|220:166,1,40
144,278,137462,2,0,P|138:254|146:229,1,47.9999985351563
276,309,137693,2,0,P|280:334|269:365,1,55.9999982910157
166,384,137924,5,0,0:0:0:0:
352,211,138154,1,0,0:0:0:0:
192,55,138385,2,0,L|121:59,1,64
250,131,138616,2,0,L|322:126,1,64
142,190,138847,6,0,L|74:193,1,64
334,248,139078,2,0,P|369:289|273:268,1,256
450,82,139770,1,0,0:0:0:0:
216,97,140001,2,0,L|210:32,1,64
342,210,140231,2,0,L|339:274,1,64
144,217,140462,2,0,L|208:212,1,64
411,101,140693,6,0,L|347:96,1,64
81,254,140924,2,0,L|275:238,1,192
386,114,141385,2,0,P|354:118|328:135,1,64
156,43,141616,2,0,P|251:22|314:172,1,256
143,220,142308,2,0,L|133:155,1,64
39,345,142539,6,0,L|47:277,1,64
291,364,142770,2,0,P|247:306|138:330,1,192
360,277,143231,2,0,L|443:286,1,64
268,181,143462,2,0,L|333:176,1,64
163,67,143693,1,0,0:0:0:0:
209,63,143808,1,0,0:0:0:0:
259,60,143924,1,0,0:0:0:0:
310,59,144039,1,0,0:0:0:0:
363,56,144154,2,0,L|438:64,1,64
176,41,144385,6,0,L|180:99,1,40
105,186,144616,2,0,L|109:128,1,40
272,93,144847,2,0,P|295:84|268:106,1,120
418,12,145308,5,0,0:0:0:0:
378,204,145539,1,0,0:0:0:0:
166,80,145770,2,0,L|170:15,1,64
86,163,146001,2,0,L|78:84,1,64
242,244,146231,6,0,L|245:176,1,64
36,277,146462,2,0,P|113:244|128:389,1,256
186,135,147154,1,0,0:0:0:0:
313,305,147385,2,0,L|508:292,1,192
338,187,147847,2,0,L|340:122,1,64
413,15,148078,6,0,L|417:81,1,64
255,111,148308,2,0,L|-4:106,1,256
257,17,149001,1,0,0:0:0:0:
123,187,149231,2,0,L|135:384,1,192
311,345,149693,2,0,P|276:332|245:341,1,64
431,349,149924,6,0,P|420:313|397:296,1,64
285,174,150154,2,0,P|287:212|306:235,1,64
492,46,150385,2,0,P|426:39|370:140,1,192
397,217,150847,1,0,0:0:0:0:
211,342,151078,2,0,L|205:80,1,256
391,37,151770,6,0,L|386:130,1,80
216,47,152116,1,0,0:0:0:0:
228,31,152231,2,0,L|282:34,1,40
383,130,152462,2,0,L|329:133,1,40
249,126,152693,5,0,0:0:0:0:
177,292,152924,2,0,L|377:277,1,192
478,213,153385,2,0,L|468:283,1,64
307,203,153616,6,0,L|296:68,1,128
243,11,153962,2,0,L|229:154,1,128
158,238,154308,2,0,L|226:229,1,64
321,244,154539,1,0,0:0:0:0:
408,95,154770,2,0,P|462:148|438:258,1,192
323,327,155231,2,0,L|329:257,1,64
269,139,155462,6,0,L|272:215,1,64
139,333,155693,2,0,P|194:251|74:176,1,256
13,363,156385,1,0,0:0:0:0:
257,376,156616,2,0,L|454:357,1,192
479,213,157078,2,0,L|487:290,1,64
389,157,157308,6,0,L|380:231,1,64
474,43,157539,2,0,L|476:113,1,64
244,139,157770,2,0,P|267:67|388:60,1,192
459,108,158231,1,0,0:0:0:0:
375,295,158462,1,0,0:0:0:0:
335,294,158578,2,0,P|327:254|336:221,1,64
224,280,158808,1,0,0:0:0:0:
173,274,158924,2,0,P|169:236|179:200,1,64
391,37,159154,6,0,L|386:130,1,80
216,47,159500,1,0,0:0:0:0:
228,31,159615,2,0,L|282:34,1,40
383,130,159846,2,0,L|329:133,1,40
240,128,160078,5,0,0:0:0:0:
92,60,160308,2,0,P|53:110|113:215,1,192
233,147,160770,2,0,L|226:210,1,64
114,300,161001,6,0,L|258:314,1,128
310,358,161347,2,0,L|178:379,1,128
100,295,161693,2,0,L|89:358,1,64
4,366,161924,1,0,0:0:0:0:
61,198,162154,2,0,P|126:163|223:230,1,192
271,350,162616,2,0,L|279:282,1,64
434,135,162847,5,0,0:0:0:0:
469,122,162962,1,0,0:0:0:0:
495,93,163078,1,0,0:0:0:0:
508,57,163193,1,0,0:0:0:0:
490,23,163308,1,0,0:0:0:0:
474,58,163424,1,0,0:0:0:0:
456,92,163539,1,0,0:0:0:0:
441,127,163654,1,0,0:0:0:0:
404,101,163770,5,0,0:0:0:0:
360,93,163885,1,0,0:0:0:0:
315,97,164001,1,0,0:0:0:0:
274,115,164116,1,0,0:0:0:0:
240,145,164231,1,0,0:0:0:0:
216,187,164347,1,0,0:0:0:0:
205,231,164462,2,0,L|210:302,1,64
113,51,164693,5,0,0:0:0:0:
170,58,164808,1,0,0:0:0:0:
227,67,164924,1,0,0:0:0:0:
284,76,165039,1,0,0:0:0:0:
346,121,165154,1,0,0:0:0:0:
365,196,165270,1,0,0:0:0:0:
328,263,165385,1,0,0:0:0:0:
251,272,165501,1,0,0:0:0:0:
176,245,165616,6,0,P|192:166|234:222,1,160
83,330,165962,2,0,B|115:266|51:234|83:170,1,160
194,9,166308,2,0,L|197:99,1,80
216,314,166539,5,0,0:0:0:0:
256,192,166654,12,0,169308,0:0:0:0:
