osu file format v14

[General]
AudioFilename: audio.mp3
AudioLeadIn: 0
PreviewTime: -1
Countdown: 0
SampleSet: Normal
StackLeniency: 0.7
Mode: 2
LetterboxInBreaks: 0
WidescreenStoryboard: 0

[Editor]
Bookmarks: 115438
DistanceSpacing: 1
BeatDivisor: 6
GridSize: 4
TimelineZoom: 4.299998

[Metadata]
Title:The Sirens
TitleUnicode:The Sirens
Artist:Seven Lions & Jason Ross
ArtistUnicode:Seven Lions & Jason Ross
Creator:-Ken
Version:EZ
Source:
Tags:
BeatmapID:1602936
BeatmapSetID:761487

[Difficulty]
HPDrainRate:3
CircleSize:2
OverallDifficulty:4.7
ApproachRate:4.7
SliderMultiplier:2.3
SliderTickRate:3

[Events]
//Background and Video events
0,0,"bg.png",0,0
//Break Periods
2,67637,79443
//Storyboard Layer 0 (Background)
//Storyboard Layer 1 (Fail)
//Storyboard Layer 2 (Pass)
//Storyboard Layer 3 (Foreground)
//Storyboard Sound Samples

[TimingPoints]
14472.7542217761,413.793103448276,4,1,0,30,1,0
16127,-125,4,1,0,30,0,0
21093,-100,4,1,0,50,0,0
27714,-100,4,1,0,70,0,0
67024,-58.8235294117647,4,1,0,30,0,0
67438,-100,4,1,0,30,0,0
80679,-100,4,1,0,20,0,0
107162,-100,4,1,0,30,0,0
113783,-100,4,1,0,50,0,0
123714,-100,4,1,0,50,0,1
124541,-66.6666666666667,4,1,0,70,0,0
127024,-66.6666666666667,4,1,0,70,0,1
127852,-66.6666666666667,4,1,0,70,0,0
130334,-66.6666666666667,4,1,0,70,0,1
131162,-66.6666666666667,4,1,0,70,0,0
133645,-66.6666666666667,4,1,0,70,0,1
134472,-66.6666666666667,4,1,0,70,0,0
134748,-50,4,1,0,70,0,0
135024,-66.6666666666667,4,1,0,70,0,0
136955,-66.6666666666667,4,1,0,70,0,1
137783,-66.6666666666667,4,1,0,70,0,0
140265,-66.6666666666667,4,1,0,70,0,1
141093,-66.6666666666667,4,1,0,70,0,0
142748,-50,4,1,0,70,0,0
146886,-66.6666666666667,4,1,0,70,0,0
150196,-66.6666666666667,4,1,0,70,0,1
162610,-66.6666666666667,4,1,0,70,0,0
163438,-83.3333333333333,4,1,0,70,0,0
175852,-62.5,4,1,0,70,0,0
176679,-133.333333333333,4,1,0,70,0,1
177507,-66.6666666666667,4,1,0,70,0,0
179989,-133.333333333333,4,1,0,70,0,1
180817,-66.6666666666667,4,1,0,70,0,0
183300,-133.333333333333,4,1,0,70,0,1
184127,-66.6666666666667,4,1,0,70,0,0
186610,-66.6666666666667,4,1,0,70,0,1
187300,-66.6666666666667,4,1,0,70,0,1
187300,-66.6666666666667,4,1,0,70,0,0
187438,-66.6666666666667,4,1,0,70,0,1
188127,-66.6666666666667,4,1,0,70,0,0
188265,-66.6666666666667,4,1,0,70,0,1
188955,-66.6666666666667,4,1,0,70,0,0
189921,-66.6666666666667,4,1,0,70,0,1
202334,-66.6666666666667,4,1,0,70,0,0
203162,-100,4,1,0,70,0,0
228817,-133.333333333333,4,1,0,70,0,0

[Colours]
Combo1 : 128,64,64
Combo2 : 0,0,36
Combo3 : 149,255,255

[HitObjects]
168,296,14472,5,0,0:0:0:0:
83,274,14610,1,0,0:0:0:0:
100,189,14748,1,0,0:0:0:0:
248,204,14886,5,0,0:0:0:0:
163,182,15024,1,0,0:0:0:0:
180,97,15162,1,0,0:0:0:0:
328,232,15300,5,0,0:0:0:0:
243,210,15438,1,0,0:0:0:0:
260,125,15576,1,0,0:0:0:0:
408,140,15714,5,0,0:0:0:0:
323,118,15852,1,0,0:0:0:0:
340,33,15990,1,0,0:0:0:0:
488,36,16127,6,0,L|376:36,2,61.3333333333333
320,124,16541,6,0,L|416:124,2,61.3333333333333
488,204,16955,6,0,L|404:204,2,61.3333333333333
320,292,17369,6,0,L|396:292,2,61.3333333333333
472,300,17783,6,0,P|468:224|416:232,1,122.666666666667
284,224,18196,2,0,P|216:184|256:148,1,122.666666666667
336,144,18610,1,0,0:0:0:0:
413,144,18747,1,0,0:0:0:0:
490,144,18885,1,0,0:0:0:0:
220,148,19024,2,0,P|168:208|212:256,1,122.666666666667
324,268,19438,5,0,0:0:0:0:
401,268,19575,1,0,0:0:0:0:
324,268,19713,1,0,0:0:0:0:
196,272,19852,5,0,0:0:0:0:
119,272,19989,1,0,0:0:0:0:
196,272,20127,1,0,0:0:0:0:
352,208,20265,5,0,0:0:0:0:
440,204,20402,1,0,0:0:0:0:
440,204,20540,1,0,0:0:0:0:
124,192,20679,2,0,P|124:112|196:96,1,122.666666666667
424,88,21093,5,0,0:0:0:0:
480,139,21230,1,0,0:0:0:0:
493,213,21368,1,0,0:0:0:0:
458,279,21506,1,0,0:0:0:0:
390,311,21644,1,0,0:0:0:0:
317,296,21782,1,0,0:0:0:0:
104,92,21921,5,0,0:0:0:0:
49,143,22058,1,0,0:0:0:0:
36,217,22196,1,0,0:0:0:0:
71,283,22334,1,0,0:0:0:0:
139,315,22472,1,0,0:0:0:0:
212,300,22610,1,0,0:0:0:0:
444,276,22748,6,0,L|452:192,1,76.6666666666667
308,176,23024,2,0,L|408:176,1,76.6666666666667
284,280,23300,2,0,L|284:184,1,76.6666666666667
424,188,23576,2,0,L|328:180,1,76.6666666666667
496,188,23852,2,0,L|504:292,1,76.6666666666667
380,268,24127,6,0,L|280:268,2,76.6666666666667
244,216,24541,2,0,L|144:216,1,76.6666666666667
416,276,24817,5,0,0:0:0:0:
421,257,24852,1,0,0:0:0:0:
424,238,24886,1,0,0:0:0:0:
425,219,24921,1,0,0:0:0:0:
424,200,24955,1,0,0:0:0:0:
421,181,24989,1,0,0:0:0:0:
416,162,25024,1,0,0:0:0:0:
409,144,25058,1,0,0:0:0:0:
400,127,25093,1,0,0:0:0:0:
389,111,25127,1,0,0:0:0:0:
376,97,25162,1,0,0:0:0:0:
362,84,25196,1,0,0:0:0:0:
347,73,25231,5,0,0:0:0:0:
330,63,25265,1,0,0:0:0:0:
312,55,25300,1,0,0:0:0:0:
294,50,25334,1,0,0:0:0:0:
275,46,25369,1,0,0:0:0:0:
256,45,25404,1,0,0:0:0:0:
236,46,25438,1,0,0:0:0:0:
217,48,25472,1,0,0:0:0:0:
199,53,25507,1,0,0:0:0:0:
181,60,25541,1,0,0:0:0:0:
164,69,25576,1,0,0:0:0:0:
148,80,25610,1,0,0:0:0:0:
133,93,25645,5,0,0:0:0:0:
120,107,25679,1,0,0:0:0:0:
109,122,25714,1,0,0:0:0:0:
99,139,25748,1,0,0:0:0:0:
91,156,25783,1,0,0:0:0:0:
85,175,25817,1,0,0:0:0:0:
81,194,25852,1,0,0:0:0:0:
80,213,25886,1,0,0:0:0:0:
80,232,25921,1,0,0:0:0:0:
83,251,25955,1,0,0:0:0:0:
88,270,25989,1,0,0:0:0:0:
95,288,26024,1,0,0:0:0:0:
224,320,26058,6,0,B|268:332|460:288|460:288|232:288,1,460
32,272,27162,1,0,0:0:0:0:
500,80,27438,1,0,0:0:0:0:
64,320,27714,5,0,0:0:0:0:
51,244,27851,1,0,0:0:0:0:
39,168,27989,1,0,0:0:0:0:
260,208,28127,1,0,0:0:0:0:
336,208,28264,1,0,0:0:0:0:
413,208,28402,1,0,0:0:0:0:
160,336,28541,5,0,0:0:0:0:
147,260,28678,1,0,0:0:0:0:
135,184,28816,1,0,0:0:0:0:
376,108,28955,1,0,0:0:0:0:
460,108,29093,1,0,0:0:0:0:
376,108,29231,1,0,0:0:0:0:
64,320,29369,5,0,0:0:0:0:
51,244,29506,1,0,0:0:0:0:
39,168,29644,1,0,0:0:0:0:
300,208,29782,1,0,0:0:0:0:
384,208,29919,1,0,0:0:0:0:
300,208,30057,1,0,0:0:0:0:
80,200,30196,5,0,0:0:0:0:
80,200,30334,1,0,0:0:0:0:
80,200,30472,1,0,0:0:0:0:
384,112,30610,1,0,0:0:0:0:
468,112,30747,1,0,0:0:0:0:
384,112,30885,1,0,0:0:0:0:
80,128,31024,5,0,0:0:0:0:
172,128,31162,1,0,0:0:0:0:
172,128,31300,1,0,0:0:0:0:
440,128,31438,5,0,0:0:0:0:
440,128,31576,1,0,0:0:0:0:
348,128,31714,1,0,0:0:0:0:
40,248,31852,5,0,0:0:0:0:
132,248,31990,1,0,0:0:0:0:
132,248,32128,1,0,0:0:0:0:
400,248,32266,5,0,0:0:0:0:
400,248,32404,1,0,0:0:0:0:
308,248,32542,1,0,0:0:0:0:
68,160,32679,5,0,0:0:0:0:
160,160,32817,1,0,0:0:0:0:
160,160,32955,1,0,0:0:0:0:
428,160,33093,5,0,0:0:0:0:
428,160,33231,1,0,0:0:0:0:
336,160,33369,1,0,0:0:0:0:
44,272,33507,5,0,0:0:0:0:
276,272,33645,1,0,0:0:0:0:
328,272,33714,1,0,0:0:0:0:
276,272,33783,1,0,0:0:0:0:
44,272,33921,2,0,L|140:272,1,76.6666666666667
420,272,34196,1,0,0:0:0:0:
296,240,34334,5,0,0:0:0:0:
256,160,34472,1,0,0:0:0:0:
384,164,34610,1,0,0:0:0:0:
296,240,34748,2,0,L|252:144,2,76.6666666666667
170,239,35162,5,0,0:0:0:0:
152,164,35300,1,0,0:0:0:0:
276,164,35438,1,0,0:0:0:0:
170,239,35576,2,0,L|148:144,2,76.6666666666667
296,240,35989,5,0,0:0:0:0:
312,156,36127,1,0,0:0:0:0:
188,164,36265,1,0,0:0:0:0:
296,240,36403,2,0,L|364:168,2,76.6666666666667
184,240,36817,6,0,L|80:240,2,76.6666666666667
312,240,37231,2,0,L|432:240,2,76.6666666666667
168,240,37645,5,0,0:0:0:0:
64,236,37783,1,0,0:0:0:0:
64,236,37921,1,0,0:0:0:0:
176,244,38058,5,0,0:0:0:0:
280,240,38196,1,0,0:0:0:0:
280,240,38334,1,0,0:0:0:0:
160,240,38472,5,0,0:0:0:0:
56,236,38610,1,0,0:0:0:0:
56,236,38748,1,0,0:0:0:0:
176,244,38885,5,0,0:0:0:0:
280,240,39023,1,0,0:0:0:0:
280,240,39161,1,0,0:0:0:0:
116,244,39300,6,0,P|64:176|120:116,1,153.333333333333
208,124,39714,1,0,0:0:0:0:
93,126,39852,1,0,0:0:0:0:
132,308,40127,5,0,0:0:0:0:
79,256,40264,1,0,0:0:0:0:
97,185,40402,1,0,0:0:0:0:
168,166,40540,1,0,0:0:0:0:
444,204,40679,5,0,0:0:0:0:
473,191,40714,1,0,0:0:0:0:
494,167,40748,1,0,0:0:0:0:
503,137,40783,1,0,0:0:0:0:
498,105,40817,1,0,0:0:0:0:
480,79,40852,1,0,0:0:0:0:
453,63,40886,1,0,0:0:0:0:
421,60,40921,1,0,0:0:0:0:
152,140,40955,6,0,L|88:140,1,38.3333333333333
28,112,41093,2,0,L|-4:156,1,38.3333333333333
148,112,41231,1,0,0:0:0:0:
444,248,41369,5,0,0:0:0:0:
348,248,41507,1,0,0:0:0:0:
444,248,41644,1,0,0:0:0:0:
244,248,41783,5,0,0:0:0:0:
340,248,41921,1,0,0:0:0:0:
244,248,42058,1,0,0:0:0:0:
492,196,42196,5,0,0:0:0:0:
492,138,42334,1,0,0:0:0:0:
492,81,42472,1,0,0:0:0:0:
276,164,42610,5,0,0:0:0:0:
336,112,42748,1,0,0:0:0:0:
400,64,42886,1,0,0:0:0:0:
152,184,43024,5,0,0:0:0:0:
128,124,43162,1,0,0:0:0:0:
108,64,43300,1,0,0:0:0:0:
384,132,43438,5,0,0:0:0:0:
288,132,43576,1,0,0:0:0:0:
384,132,43713,1,0,0:0:0:0:
152,136,43852,5,0,0:0:0:0:
248,136,43990,1,0,0:0:0:0:
152,136,44127,1,0,0:0:0:0:
380,248,44265,5,0,0:0:0:0:
476,248,44403,1,0,0:0:0:0:
476,248,44541,1,0,0:0:0:0:
236,256,44679,5,0,0:0:0:0:
140,256,44817,1,0,0:0:0:0:
140,256,44955,1,0,0:0:0:0:
464,136,45093,5,0,0:0:0:0:
368,136,45231,1,0,0:0:0:0:
464,136,45368,1,0,0:0:0:0:
148,252,45507,5,0,0:0:0:0:
244,252,45645,1,0,0:0:0:0:
148,252,45782,1,0,0:0:0:0:
380,248,45921,5,0,0:0:0:0:
476,248,46059,1,0,0:0:0:0:
380,248,46196,1,0,0:0:0:0:
132,136,46335,5,0,0:0:0:0:
36,136,46473,1,0,0:0:0:0:
36,136,46611,1,0,0:0:0:0:
316,136,46748,5,0,0:0:0:0:
448,140,46886,1,0,0:0:0:0:
488,128,46955,1,0,0:0:0:0:
504,96,47024,1,0,0:0:0:0:
220,208,47162,5,0,0:0:0:0:
128,208,47299,1,0,0:0:0:0:
220,208,47437,1,0,0:0:0:0:
96,152,47576,5,0,0:0:0:0:
170,143,47713,1,0,0:0:0:0:
230,188,47851,1,0,0:0:0:0:
242,261,47989,1,0,0:0:0:0:
200,323,48127,1,0,0:0:0:0:
127,339,48265,1,0,0:0:0:0:
270,320,48403,5,0,0:0:0:0:
195,308,48540,1,0,0:0:0:0:
147,250,48678,1,0,0:0:0:0:
149,175,48816,1,0,0:0:0:0:
200,120,48954,1,0,0:0:0:0:
275,113,49092,1,0,0:0:0:0:
360,236,49231,5,0,0:0:0:0:
434,245,49368,1,0,0:0:0:0:
494,200,49506,1,0,0:0:0:0:
506,127,49644,1,0,0:0:0:0:
464,65,49782,1,0,0:0:0:0:
391,49,49920,1,0,0:0:0:0:
248,48,50058,5,0,0:0:0:0:
368,52,50196,2,0,L|412:52,2,38.3333333333333
248,48,50472,2,0,L|152:48,2,76.6666666666667
472,56,50886,5,0,0:0:0:0:
444,105,51023,1,0,0:0:0:0:
416,154,51161,1,0,0:0:0:0:
464,52,51300,5,0,0:0:0:0:
422,99,51437,1,0,0:0:0:0:
381,147,51575,1,0,0:0:0:0:
452,48,51714,5,0,0:0:0:0:
400,84,51851,1,0,0:0:0:0:
349,121,51989,1,0,0:0:0:0:
452,48,52127,5,0,0:0:0:0:
368,48,52265,1,0,0:0:0:0:
284,48,52403,1,0,0:0:0:0:
432,48,52541,5,0,0:0:0:0:
339,48,52679,1,0,0:0:0:0:
246,48,52817,1,0,0:0:0:0:
24,48,52955,5,0,0:0:0:0:
117,48,53093,1,0,0:0:0:0:
210,48,53231,1,0,0:0:0:0:
475,237,53369,6,0,B|475:125|475:125|475:249,1,230
200,240,53921,5,0,0:0:0:0:
92,240,54058,5,0,0:0:0:0:
377,258,54196,5,0,0:0:0:0:
398,251,54222,1,0,0:0:0:0:
418,240,54248,1,0,0:0:0:0:
437,228,54274,1,0,0:0:0:0:
452,210,54300,1,0,0:0:0:0:
462,192,54326,1,0,0:0:0:0:
470,171,54352,1,0,0:0:0:0:
473,149,54377,1,0,0:0:0:0:
472,124,54403,5,0,0:0:0:0:
466,104,54429,1,0,0:0:0:0:
456,83,54455,1,0,0:0:0:0:
444,65,54481,1,0,0:0:0:0:
426,50,54507,1,0,0:0:0:0:
408,39,54533,1,0,0:0:0:0:
386,32,54558,1,0,0:0:0:0:
364,27,54584,1,0,0:0:0:0:
341,29,54610,5,0,0:0:0:0:
76,40,54748,2,0,L|76:132,1,76.6666666666667
312,120,55024,1,0,0:0:0:0:
432,124,55162,2,0,L|432:216,1,76.6666666666667
200,120,55438,1,0,0:0:0:0:
80,124,55576,2,0,L|80:216,1,76.6666666666667
432,124,55852,5,0,0:0:0:0:
328,124,55989,1,0,0:0:0:0:
432,124,56127,1,0,0:0:0:0:
160,124,56265,5,0,0:0:0:0:
52,124,56403,1,0,0:0:0:0:
52,124,56541,1,0,0:0:0:0:
432,124,56679,5,0,0:0:0:0:
328,124,56816,1,0,0:0:0:0:
432,124,56954,1,0,0:0:0:0:
160,124,57092,5,0,0:0:0:0:
52,124,57230,1,0,0:0:0:0:
52,124,57368,1,0,0:0:0:0:
392,296,57507,5,0,0:0:0:0:
480,248,57645,1,0,0:0:0:0:
392,204,57783,1,0,0:0:0:0:
148,228,57921,2,0,P|96:216|120:128,1,153.333333333333
392,296,58334,5,0,0:0:0:0:
444,246,58472,1,0,0:0:0:0:
399,189,58610,1,0,0:0:0:0:
120,296,58748,5,0,0:0:0:0:
67,246,58886,1,0,0:0:0:0:
112,189,59024,1,0,0:0:0:0:
432,124,59162,5,0,0:0:0:0:
348,124,59299,1,0,0:0:0:0:
432,124,59437,1,0,0:0:0:0:
96,176,59576,5,0,0:0:0:0:
40,160,59713,1,0,0:0:0:0:
96,136,59851,1,0,0:0:0:0:
312,100,59989,5,0,0:0:0:0:
312,156,60127,1,0,0:0:0:0:
312,100,60265,1,0,0:0:0:0:
96,116,60403,5,0,0:0:0:0:
96,64,60541,1,0,0:0:0:0:
96,116,60679,1,0,0:0:0:0:
364,232,60817,5,0,0:0:0:0:
472,232,60955,1,0,0:0:0:0:
364,232,61093,1,0,0:0:0:0:
136,268,61231,5,0,0:0:0:0:
360,160,61369,1,0,0:0:0:0:
360,104,61507,1,0,0:0:0:0:
148,232,61645,5,0,0:0:0:0:
40,232,61783,1,0,0:0:0:0:
148,232,61921,1,0,0:0:0:0:
376,268,62059,5,0,0:0:0:0:
152,160,62197,1,0,0:0:0:0:
152,104,62335,1,0,0:0:0:0:
428,164,62472,5,0,0:0:0:0:
320,164,62610,1,0,0:0:0:0:
428,164,62748,1,0,0:0:0:0:
116,240,62886,5,0,0:0:0:0:
344,240,63024,1,0,0:0:0:0:
344,240,63162,1,0,0:0:0:0:
84,164,63300,5,0,0:0:0:0:
192,164,63438,1,0,0:0:0:0:
84,164,63576,1,0,0:0:0:0:
396,240,63714,5,0,0:0:0:0:
168,240,63852,1,0,0:0:0:0:
168,240,63990,1,0,0:0:0:0:
304,216,64127,5,0,0:0:0:0:
292,192,64265,1,0,0:0:0:0:
276,160,64403,1,0,0:0:0:0:
208,216,64541,5,0,0:0:0:0:
220,192,64679,1,0,0:0:0:0:
236,160,64817,1,0,0:0:0:0:
359,192,64955,5,0,0:0:0:0:
338,148,65093,1,0,0:0:0:0:
309,90,65231,1,0,0:0:0:0:
151,192,65369,5,0,0:0:0:0:
172,148,65507,1,0,0:0:0:0:
201,90,65645,1,0,0:0:0:0:
412,184,65783,5,0,0:0:0:0:
388,137,65921,1,0,0:0:0:0:
368,81,66059,1,0,0:0:0:0:
103,187,66196,5,0,0:0:0:0:
127,140,66334,1,0,0:0:0:0:
158,77,66472,1,0,0:0:0:0:
376,76,66610,5,0,0:0:0:0:
160,40,66748,1,0,0:0:0:0:
376,76,66886,1,0,0:0:0:0:
158,77,67024,2,0,P|34:105|174:205,1,391.000007457733
116,260,80679,5,0,0:0:0:0:
116,192,80817,1,0,0:0:0:0:
116,192,80955,1,0,0:0:0:0:
220,188,81093,5,0,0:0:0:0:
220,120,81231,1,0,0:0:0:0:
220,120,81369,1,0,0:0:0:0:
324,112,81507,5,0,0:0:0:0:
324,44,81645,1,0,0:0:0:0:
324,44,81783,1,0,0:0:0:0:
428,120,81921,5,0,0:0:0:0:
428,188,82059,1,0,0:0:0:0:
428,188,82197,1,0,0:0:0:0:
324,192,82334,5,0,0:0:0:0:
228,192,82472,1,0,0:0:0:0:
324,192,82610,1,0,0:0:0:0:
448,192,82748,6,0,P|492:268|416:304,1,153.333333333333
334,300,83162,1,0,0:0:0:0:
247,300,83300,1,0,0:0:0:0:
160,301,83438,1,0,0:0:0:0:
288,296,83576,6,0,P|343:234|294:198,1,153.333333333333
168,188,83989,2,0,L|80:188,2,76.6666666666667
276,184,84403,2,0,L|372:184,2,76.6666666666667
168,188,84817,2,0,L|156:108,2,76.6666666666667
300,192,85231,6,0,B|392:192|392:192|304:192,1,153.333333333333
192,192,85645,5,0,0:0:0:0:
100,188,85783,1,0,0:0:0:0:
192,192,85921,1,0,0:0:0:0:
320,192,86058,6,0,B|412:192|412:192|324:192,1,153.333333333333
212,196,86472,5,0,0:0:0:0:
304,196,86610,1,0,0:0:0:0:
212,196,86748,1,0,0:0:0:0:
336,196,86886,6,0,P|420:160|344:104,1,153.333333333333
276,112,87300,5,0,0:0:0:0:
368,112,87438,1,0,0:0:0:0:
276,112,87576,1,0,0:0:0:0:
400,112,87714,6,0,P|484:76|408:20,1,153.333333333333
344,28,88127,5,0,0:0:0:0:
252,32,88265,1,0,0:0:0:0:
160,32,88403,1,0,0:0:0:0:
292,32,88541,2,0,P|316:120|256:148,1,153.333333333333
148,144,88955,5,0,0:0:0:0:
56,148,89093,1,0,0:0:0:0:
168,152,89231,1,0,0:0:0:0:
280,152,89369,2,0,P|304:240|244:268,1,153.333333333333
132,152,89783,5,0,0:0:0:0:
40,156,89921,1,0,0:0:0:0:
152,156,90059,1,0,0:0:0:0:
264,160,90197,2,0,P|288:248|228:276,1,153.333333333333
124,260,90610,6,0,L|88:188,1,76.6666666666667
192,184,90886,1,0,0:0:0:0:
64,256,91024,2,0,L|132:168,1,76.6666666666667
8,176,91300,1,0,0:0:0:0:
124,260,91438,6,0,L|88:188,1,76.6666666666667
192,184,91714,1,0,0:0:0:0:
64,256,91852,2,0,L|132:168,1,76.6666666666667
8,176,92128,1,0,0:0:0:0:
136,180,92265,5,0,0:0:0:0:
209,171,92402,1,0,0:0:0:0:
248,108,92540,1,0,0:0:0:0:
120,104,92679,5,0,0:0:0:0:
46,95,92816,1,0,0:0:0:0:
7,32,92954,1,0,0:0:0:0:
136,180,93093,5,0,0:0:0:0:
209,171,93230,1,0,0:0:0:0:
248,108,93368,1,0,0:0:0:0:
116,252,93507,5,0,0:0:0:0:
42,243,93644,1,0,0:0:0:0:
3,180,93782,1,0,0:0:0:0:
0,152,93852,1,0,0:0:0:0:
180,304,93921,6,0,P|460:232|144:72,1,843.333333333333
44,308,95576,6,0,P|32:208|424:336,1,843.333333333333
276,344,97231,2,0,P|172:336|416:120,1,843.333333333333
280,116,98886,6,0,B|72:116|72:116|40:56|116:16|116:16|244:24|332:88|352:288|40:276,1,843.333333333333
204,260,100541,6,0,P|336:256|96:116,1,843.333333333333
228,112,102196,6,0,B|432:112|432:112|504:176|432:240|432:240|140:240|140:240|72:176|148:112|148:112|228:112,1,843.333333333333
308,144,103852,6,0,B|104:144|104:144|32:208|104:272|104:272|396:272|396:272|464:208|388:144|388:144|308:144,1,843.333333333333
176,272,105507,6,0,B|176:124|176:124|336:124|336:124|336:56|336:56|176:56|176:56|176:368,1,843.333333333333
80,332,107162,5,0,0:0:0:0:
24,292,107300,1,0,0:0:0:0:
84,248,107438,1,0,0:0:0:0:
216,328,107576,5,0,0:0:0:0:
288,288,107714,1,0,0:0:0:0:
216,252,107852,1,0,0:0:0:0:
80,256,107990,5,0,0:0:0:0:
84,212,108128,1,0,0:0:0:0:
176,208,108265,1,0,0:0:0:0:
268,208,108403,5,0,0:0:0:0:
176,208,108541,1,0,0:0:0:0:
308,152,108679,1,0,0:0:0:0:
216,152,108817,5,0,0:0:0:0:
308,152,108955,1,0,0:0:0:0:
176,208,109093,1,0,0:0:0:0:
268,208,109231,5,0,0:0:0:0:
176,208,109369,1,0,0:0:0:0:
288,160,109507,1,0,0:0:0:0:
172,152,109645,5,0,0:0:0:0:
80,152,109783,1,0,0:0:0:0:
172,152,109921,1,0,0:0:0:0:
288,148,110058,5,0,0:0:0:0:
380,148,110196,1,0,0:0:0:0:
288,148,110334,1,0,0:0:0:0:
172,152,110472,5,0,0:0:0:0:
168,84,110610,1,0,0:0:0:0:
288,72,110748,1,0,0:0:0:0:
172,152,110886,5,0,0:0:0:0:
168,84,111024,1,0,0:0:0:0:
288,72,111162,1,0,0:0:0:0:
172,152,111300,5,0,0:0:0:0:
168,84,111438,1,0,0:0:0:0:
288,72,111576,1,0,0:0:0:0:
172,152,111714,5,0,0:0:0:0:
168,84,111852,1,0,0:0:0:0:
288,72,111990,1,0,0:0:0:0:
416,72,112127,5,0,0:0:0:0:
500,72,112265,1,0,0:0:0:0:
500,72,112403,1,0,0:0:0:0:
360,72,112541,5,0,0:0:0:0:
276,72,112679,1,0,0:0:0:0:
276,72,112817,1,0,0:0:0:0:
416,72,112955,5,0,0:0:0:0:
500,72,113093,1,0,0:0:0:0:
500,72,113231,1,0,0:0:0:0:
360,72,113369,5,0,0:0:0:0:
264,72,113507,1,0,0:0:0:0:
360,72,113645,1,0,0:0:0:0:
480,68,113783,5,0,0:0:0:0:
487,143,113920,1,0,0:0:0:0:
463,216,114058,1,0,0:0:0:0:
413,273,114196,1,0,0:0:0:0:
343,304,114334,1,0,0:0:0:0:
267,306,114472,1,0,0:0:0:0:
48,304,114610,5,0,0:0:0:0:
33,229,114747,1,0,0:0:0:0:
54,156,114885,1,0,0:0:0:0:
105,100,115023,1,0,0:0:0:0:
176,72,115161,1,0,0:0:0:0:
251,80,115299,1,0,0:0:0:0:
464,304,115438,5,0,0:0:0:0:
478,229,115575,1,0,0:0:0:0:
457,156,115713,1,0,0:0:0:0:
406,100,115852,1,0,0:0:0:0:
335,72,115989,1,0,0:0:0:0:
260,80,116127,1,0,0:0:0:0:
24,244,116265,6,0,L|124:244,2,76.6666666666667
152,244,116679,1,0,0:0:0:0:
24,244,116817,2,0,L|104:244,1,76.6666666666667
392,308,117093,5,0,0:0:0:0:
457,270,117231,1,0,0:0:0:0:
490,202,117369,1,0,0:0:0:0:
479,128,117507,1,0,0:0:0:0:
427,73,117645,1,0,0:0:0:0:
353,57,117783,1,0,0:0:0:0:
232,64,117921,5,0,0:0:0:0:
161,91,118058,1,0,0:0:0:0:
117,152,118196,1,0,0:0:0:0:
113,228,118334,1,0,0:0:0:0:
151,293,118472,1,0,0:0:0:0:
218,328,118610,1,0,0:0:0:0:
488,284,118748,5,0,0:0:0:0:
448,200,118886,1,0,0:0:0:0:
408,116,119024,1,0,0:0:0:0:
284,240,119162,1,0,0:0:0:0:
236,152,119300,1,0,0:0:0:0:
196,64,119438,1,0,0:0:0:0:
488,284,119576,5,0,0:0:0:0:
448,200,119714,1,0,0:0:0:0:
408,116,119852,1,0,0:0:0:0:
196,224,119990,1,0,0:0:0:0:
148,136,120128,1,0,0:0:0:0:
108,48,120266,1,0,0:0:0:0:
232,52,120403,5,0,0:0:0:0:
270,52,120541,1,0,0:0:0:0:
308,52,120679,1,0,0:0:0:0:
228,76,120817,5,0,0:0:0:0:
278,76,120955,1,0,0:0:0:0:
328,76,121093,1,0,0:0:0:0:
228,104,121231,5,0,0:0:0:0:
298,104,121369,1,0,0:0:0:0:
369,104,121507,1,0,0:0:0:0:
236,140,121645,5,0,0:0:0:0:
306,140,121783,1,0,0:0:0:0:
377,140,121921,1,0,0:0:0:0:
240,184,122058,5,0,0:0:0:0:
310,184,122196,1,0,0:0:0:0:
381,184,122334,1,0,0:0:0:0:
184,176,122472,5,0,0:0:0:0:
114,176,122610,1,0,0:0:0:0:
43,176,122748,1,0,0:0:0:0:
512,152,122886,1,0,0:0:0:0:
156,316,123714,5,0,0:0:0:0:
420,264,123852,1,0,0:0:0:0:
156,316,123989,1,0,0:0:0:0:
156,260,124127,5,0,0:0:0:0:
432,268,124265,1,0,0:0:0:0:
156,260,124403,1,0,0:0:0:0:
388,232,124541,6,0,L|508:176,1,115.000004386902
180,176,124817,1,0,0:0:0:0:
416,144,124955,1,0,0:0:0:0:
204,112,125093,1,0,0:0:0:0:
448,72,125231,1,0,0:0:0:0:
64,316,125369,6,0,L|48:180,1,115.000004386902
416,280,125645,1,0,0:0:0:0:
188,268,125783,1,0,0:0:0:0:
448,216,125921,1,0,0:0:0:0:
200,156,126058,1,0,0:0:0:0:
472,116,126196,6,0,L|508:252,1,115.000004386902
152,216,126472,1,0,0:0:0:0:
388,180,126610,1,0,0:0:0:0:
420,80,126748,1,0,0:0:0:0:
72,104,126886,1,0,0:0:0:0:
168,104,127024,5,0,0:0:0:0:
225,104,127093,1,0,0:0:0:0:
283,104,127162,1,0,0:0:0:0:
340,104,127231,1,0,0:0:0:0:
172,180,127300,1,0,0:0:0:0:
115,180,127369,1,0,0:0:0:0:
464,176,127438,5,0,0:0:0:0:
460,288,127576,1,0,0:0:0:0:
344,288,127714,1,0,0:0:0:0:
96,280,127852,5,0,0:0:0:0:
96,236,127886,1,0,0:0:0:0:
96,193,127921,1,0,0:0:0:0:
96,150,127955,1,0,0:0:0:0:
96,107,127989,1,0,0:0:0:0:
96,107,128024,1,0,0:0:0:0:
96,107,128058,1,0,0:0:0:0:
184,100,128127,5,0,0:0:0:0:
428,88,128265,1,0,0:0:0:0:
216,188,128403,1,0,0:0:0:0:
472,152,128541,1,0,0:0:0:0:
92,256,128679,6,0,L|40:144,1,115.000004386902
392,176,128955,5,0,0:0:0:0:
160,144,129093,1,0,0:0:0:0:
388,112,129231,1,0,0:0:0:0:
132,80,129369,1,0,0:0:0:0:
412,244,129507,5,0,0:0:0:0:
437,230,129541,1,0,0:0:0:0:
454,207,129576,1,0,0:0:0:0:
458,178,129610,1,0,0:0:0:0:
448,151,129645,1,0,0:0:0:0:
427,131,129679,1,0,0:0:0:0:
408,124,129714,1,0,0:0:0:0:
336,120,129783,1,0,0:0:0:0:
66,244,129921,5,0,0:0:0:0:
44,226,129955,1,0,0:0:0:0:
32,200,129990,1,0,0:0:0:0:
33,171,130024,1,0,0:0:0:0:
48,146,130059,1,0,0:0:0:0:
73,131,130093,1,0,0:0:0:0:
108,128,130128,1,0,0:0:0:0:
180,132,130196,1,0,0:0:0:0:
432,236,130334,5,0,0:0:0:0:
296,236,130472,1,0,0:0:0:0:
440,192,130610,1,0,0:0:0:0:
276,192,130748,1,0,0:0:0:0:
504,152,130886,1,0,0:0:0:0:
216,148,131024,1,0,0:0:0:0:
432,180,131162,5,0,0:0:0:0:
455,156,131196,1,0,0:0:0:0:
463,123,131231,1,0,0:0:0:0:
452,92,131265,1,0,0:0:0:0:
424,72,131300,1,0,0:0:0:0:
391,70,131334,1,0,0:0:0:0:
360,72,131369,1,0,0:0:0:0:
288,80,131438,5,0,0:0:0:0:
40,208,131576,1,0,0:0:0:0:
276,188,131714,1,0,0:0:0:0:
48,92,131852,1,0,0:0:0:0:
412,224,131989,6,0,L|460:120,1,115.000004386902
124,144,132265,5,0,0:0:0:0:
372,112,132403,1,0,0:0:0:0:
136,204,132541,1,0,0:0:0:0:
396,164,132679,1,0,0:0:0:0:
140,108,132817,6,0,L|136:72,6,28.7500010967255
208,52,133093,1,0,0:0:0:0:
460,56,133231,1,0,0:0:0:0:
212,48,133369,1,0,0:0:0:0:
464,52,133507,1,0,0:0:0:0:
178,280,133645,5,0,0:0:0:0:
109,276,133713,1,0,0:0:0:0:
54,235,133782,1,0,0:0:0:0:
35,169,133851,1,0,0:0:0:0:
55,104,133920,1,0,0:0:0:0:
111,63,133989,1,0,0:0:0:0:
179,61,134058,5,0,0:0:0:0:
436,104,134196,1,0,0:0:0:0:
192,160,134334,1,0,0:0:0:0:
440,212,134472,6,0,L|444:184,6,28.7500010967255
308,188,134748,2,0,L|-20:188,1,306.666666666667
504,128,135300,5,0,0:0:0:0:
148,132,135576,1,0,0:0:0:0:
0,132,135644,1,0,0:0:0:0:
148,132,135713,1,0,0:0:0:0:
456,196,135852,1,0,0:0:0:0:
245,208,135989,1,0,0:0:0:0:
32,208,136127,1,0,0:0:0:0:
224,157,136403,5,0,0:0:0:0:
7,128,136541,1,0,0:0:0:0:
121,128,136679,1,0,0:0:0:0:
7,128,136817,1,0,0:0:0:0:
405,302,136955,5,0,0:0:0:0:
422,272,136989,1,0,0:0:0:0:
431,239,137024,1,0,0:0:0:0:
431,206,137058,1,0,0:0:0:0:
422,172,137093,1,0,0:0:0:0:
405,143,137127,1,0,0:0:0:0:
381,118,137162,1,0,0:0:0:0:
352,102,137196,1,0,0:0:0:0:
318,93,137231,1,0,0:0:0:0:
285,93,137265,1,0,0:0:0:0:
252,102,137300,1,0,0:0:0:0:
222,120,137334,1,0,0:0:0:0:
198,144,137369,5,0,0:0:0:0:
181,174,137403,1,0,0:0:0:0:
172,207,137438,1,0,0:0:0:0:
172,240,137472,1,0,0:0:0:0:
182,274,137507,1,0,0:0:0:0:
191,299,137541,1,0,0:0:0:0:
206,313,137576,1,0,0:0:0:0:
234,326,137610,1,0,0:0:0:0:
266,326,137645,1,0,0:0:0:0:
294,322,137679,1,0,0:0:0:0:
323,315,137714,1,0,0:0:0:0:
491,259,137783,6,0,L|410:258,1,57.500002193451
279,252,137921,2,0,L|203:252,1,57.500002193451
489,173,138058,1,0,0:0:0:0:
361,176,138334,6,0,L|476:176,1,115.000004386902
136,305,138610,5,0,0:0:0:0:
32,267,138747,1,0,0:0:0:0:
15,159,138885,1,0,0:0:0:0:
318,197,139024,5,0,0:0:0:0:
422,159,139161,1,0,0:0:0:0:
439,51,139299,1,0,0:0:0:0:
85,80,139438,1,0,0:0:0:0:
218,74,139576,1,0,0:0:0:0:
94,145,139714,1,0,0:0:0:0:
229,135,139852,1,0,0:0:0:0:
103,211,139989,1,0,0:0:0:0:
362,203,140127,1,0,0:0:0:0:
107,302,140265,5,0,0:0:0:0:
90,272,140299,1,0,0:0:0:0:
81,239,140334,1,0,0:0:0:0:
81,206,140368,1,0,0:0:0:0:
90,172,140403,1,0,0:0:0:0:
107,143,140437,1,0,0:0:0:0:
131,118,140472,1,0,0:0:0:0:
160,102,140506,1,0,0:0:0:0:
194,93,140541,1,0,0:0:0:0:
227,93,140575,1,0,0:0:0:0:
260,102,140610,1,0,0:0:0:0:
290,120,140644,1,0,0:0:0:0:
436,160,140679,5,0,0:0:0:0:
453,190,140713,1,0,0:0:0:0:
462,223,140748,1,0,0:0:0:0:
462,256,140782,1,0,0:0:0:0:
453,290,140817,1,0,0:0:0:0:
436,319,140851,1,0,0:0:0:0:
412,344,140886,1,0,0:0:0:0:
383,360,140920,1,0,0:0:0:0:
349,369,140955,1,0,0:0:0:0:
316,369,140989,1,0,0:0:0:0:
283,360,141024,1,0,0:0:0:0:
253,342,141058,1,0,0:0:0:0:
225,318,141093,5,0,0:0:0:0:
442,204,141231,1,0,0:0:0:0:
210,171,141369,1,0,0:0:0:0:
210,171,141645,5,0,0:0:0:0:
346,140,141783,1,0,0:0:0:0:
210,171,141921,1,0,0:0:0:0:
492,112,142058,1,0,0:0:0:0:
340,112,142127,1,0,0:0:0:0:
188,104,142196,1,0,0:0:0:0:
421,224,142334,5,0,0:0:0:0:
296,239,142472,1,0,0:0:0:0:
424,235,142610,1,0,0:0:0:0:
184,264,142748,6,0,P|31:165|201:107,1,383.333333333333
328,264,143162,6,0,P|481:165|311:107,1,383.333333333333
37,224,143576,2,0,L|32:176,12,38.3333333333333
249,129,144127,1,0,0:0:0:0:
117,158,144265,1,0,0:0:0:0:
408,204,144403,1,0,0:0:0:0:
280,204,144541,1,0,0:0:0:0:
492,205,144679,1,0,0:0:0:0:
380,208,144955,5,0,0:0:0:0:
512,205,145093,1,0,0:0:0:0:
247,200,145231,5,0,0:0:0:0:
133,200,145368,1,0,0:0:0:0:
20,200,145506,1,0,0:0:0:0:
167,200,145645,5,0,0:0:0:0:
280,200,145782,1,0,0:0:0:0:
393,200,145920,1,0,0:0:0:0:
40,111,146058,5,0,0:0:0:0:
354,113,146196,1,0,0:0:0:0:
354,113,146334,1,0,0:0:0:0:
40,111,146472,5,0,0:0:0:0:
354,113,146610,1,0,0:0:0:0:
354,113,146748,1,0,0:0:0:0:
120,120,146886,5,0,0:0:0:0:
15,189,147023,1,0,0:0:0:0:
109,266,147161,1,0,0:0:0:0:
407,263,147300,5,0,0:0:0:0:
437,152,147437,1,0,0:0:0:0:
467,41,147575,1,0,0:0:0:0:
46,273,147714,5,0,0:0:0:0:
140,196,147852,1,0,0:0:0:0:
46,273,147989,1,0,0:0:0:0:
421,268,148127,5,0,0:0:0:0:
327,191,148265,1,0,0:0:0:0:
421,268,148402,1,0,0:0:0:0:
152,282,148541,5,0,0:0:0:0:
26,281,148679,1,0,0:0:0:0:
26,260,148817,1,0,0:0:0:0:
360,282,148955,5,0,0:0:0:0:
486,281,149093,1,0,0:0:0:0:
486,260,149231,1,0,0:0:0:0:
77,185,149369,5,0,0:0:0:0:
229,188,149438,1,0,0:0:0:0:
381,186,149507,1,0,0:0:0:0:
229,168,149576,1,0,0:0:0:0:
68,162,149645,1,0,0:0:0:0:
230,150,149714,1,0,0:0:0:0:
396,162,149783,5,0,0:0:0:0:
230,135,149852,1,0,0:0:0:0:
64,132,149921,1,0,0:0:0:0:
232,115,149989,1,0,0:0:0:0:
402,112,150058,1,0,0:0:0:0:
232,115,150127,1,0,0:0:0:0:
66,186,150196,5,0,0:0:0:0:
348,122,150334,1,0,0:0:0:0:
348,122,150472,1,0,0:0:0:0:
71,83,150610,5,0,0:0:0:0:
354,78,150748,1,0,0:0:0:0:
354,78,150886,1,0,0:0:0:0:
36,217,151024,5,0,0:0:0:0:
354,78,151162,1,0,0:0:0:0:
354,78,151300,1,0,0:0:0:0:
41,147,151438,1,0,0:0:0:0:
164,148,151576,1,0,0:0:0:0:
41,147,151714,1,0,0:0:0:0:
352,267,151852,5,0,0:0:0:0:
392,253,151903,1,0,0:0:0:0:
423,223,151955,1,0,0:0:0:0:
438,183,152007,1,0,0:0:0:0:
434,140,152058,1,0,0:0:0:0:
412,104,152110,1,0,0:0:0:0:
377,80,152162,1,0,0:0:0:0:
334,73,152214,1,0,0:0:0:0:
293,86,152265,5,0,0:0:0:0:
82,179,152403,1,0,0:0:0:0:
333,153,152541,1,0,0:0:0:0:
115,266,152679,5,0,0:0:0:0:
78,243,152730,1,0,0:0:0:0:
53,209,152782,1,0,0:0:0:0:
43,167,152834,1,0,0:0:0:0:
50,125,152885,1,0,0:0:0:0:
72,89,152937,1,0,0:0:0:0:
107,64,152989,1,0,0:0:0:0:
149,55,153041,1,0,0:0:0:0:
191,63,153092,5,0,0:0:0:0:
419,118,153231,1,0,0:0:0:0:
173,189,153369,1,0,0:0:0:0:
410,242,153507,5,0,0:0:0:0:
128,178,153645,1,0,0:0:0:0:
128,178,153783,1,0,0:0:0:0:
405,139,153921,5,0,0:0:0:0:
122,134,154059,1,0,0:0:0:0:
122,134,154197,1,0,0:0:0:0:
440,273,154335,5,0,0:0:0:0:
122,134,154473,1,0,0:0:0:0:
122,134,154611,1,0,0:0:0:0:
435,203,154749,1,0,0:0:0:0:
312,204,154887,1,0,0:0:0:0:
435,203,155025,1,0,0:0:0:0:
92,289,155162,6,0,P|37:170|126:178,1,230.000008773804
102,156,155472,1,0,0:0:0:0:
338,159,155576,1,0,0:0:0:0:
328,152,155610,1,0,0:0:0:0:
81,156,155714,1,0,0:0:0:0:
92,154,155748,1,0,0:0:0:0:
371,96,155852,1,0,0:0:0:0:
361,89,155886,1,0,0:0:0:0:
73,210,155989,6,0,P|54:71|138:73,1,230.000008773804
418,57,156403,6,0,L|446:55,8,21.5625008225441
270,57,156679,1,0,0:0:0:0:
55,162,156817,5,0,0:0:0:0:
358,157,156955,1,0,0:0:0:0:
241,156,157093,1,0,0:0:0:0:
480,246,157231,5,0,0:0:0:0:
196,243,157369,1,0,0:0:0:0:
313,242,157507,1,0,0:0:0:0:
8,220,157645,5,0,0:0:0:0:
292,217,157783,1,0,0:0:0:0:
175,216,157921,1,0,0:0:0:0:
463,172,158058,5,0,0:0:0:0:
179,169,158196,1,0,0:0:0:0:
296,168,158334,1,0,0:0:0:0:
33,137,158472,6,0,L|21:89,10,28.7500010967255
110,95,158886,1,0,0:0:0:0:
356,87,159024,1,0,0:0:0:0:
109,172,159162,1,0,0:0:0:0:
368,180,159300,1,0,0:0:0:0:
385,279,159438,1,0,0:0:0:0:
45,274,159576,1,0,0:0:0:0:
309,259,159714,6,0,L|287:260,11,21.5625008225441
184,244,160127,5,0,0:0:0:0:
101,181,160264,1,0,0:0:0:0:
163,98,160402,1,0,0:0:0:0:
309,178,160541,5,0,0:0:0:0:
391,115,160678,1,0,0:0:0:0:
329,32,160816,1,0,0:0:0:0:
163,158,160955,5,0,0:0:0:0:
148,233,161092,1,0,0:0:0:0:
133,309,161230,1,0,0:0:0:0:
322,159,161369,5,0,0:0:0:0:
336,234,161506,1,0,0:0:0:0:
351,310,161644,1,0,0:0:0:0:
79,228,161783,5,0,0:0:0:0:
76,207,161817,1,0,0:0:0:0:
77,186,161852,1,0,0:0:0:0:
81,166,161886,1,0,0:0:0:0:
88,146,161921,1,0,0:0:0:0:
97,128,161955,1,0,0:0:0:0:
109,111,161989,1,0,0:0:0:0:
123,96,162024,1,0,0:0:0:0:
136,84,162058,1,0,0:0:0:0:
157,72,162093,1,0,0:0:0:0:
181,63,162127,1,0,0:0:0:0:
205,57,162162,1,0,0:0:0:0:
343,53,162196,5,0,0:0:0:0:
372,56,162231,1,0,0:0:0:0:
396,62,162265,1,0,0:0:0:0:
420,69,162300,1,0,0:0:0:0:
438,80,162334,1,0,0:0:0:0:
452,92,162369,1,0,0:0:0:0:
467,106,162403,1,0,0:0:0:0:
479,123,162438,1,0,0:0:0:0:
489,141,162472,1,0,0:0:0:0:
497,160,162507,1,0,0:0:0:0:
501,180,162541,1,0,0:0:0:0:
503,201,162576,1,0,0:0:0:0:
501,222,162610,5,0,0:0:0:0:
430,291,162749,5,0,0:0:0:0:
337,336,162886,1,0,0:0:0:0:
239,359,163024,1,0,0:0:0:0:
137,363,163162,1,0,0:0:0:0:
36,343,163300,1,0,0:0:0:0:
316,228,163438,6,0,L|332:124,2,91.9999971923829
156,297,163852,6,0,L|140:193,2,91.9999971923829
332,208,164266,6,0,L|348:104,2,91.9999971923829
172,277,164680,6,0,L|156:173,2,91.9999971923829
314,92,165093,6,0,L|205:91,2,91.9999971923829
157,159,165507,6,0,L|266:158,2,91.9999971923829
312,227,165920,6,0,L|203:226,2,91.9999971923829
156,297,166334,6,0,L|265:296,2,91.9999971923829
316,224,166748,5,0,0:0:0:0:
432,220,166886,1,0,0:0:0:0:
432,220,167024,1,0,0:0:0:0:
288,224,167162,5,0,0:0:0:0:
172,220,167300,1,0,0:0:0:0:
172,220,167438,1,0,0:0:0:0:
316,224,167576,5,0,0:0:0:0:
432,220,167714,1,0,0:0:0:0:
432,220,167852,1,0,0:0:0:0:
288,224,167990,5,0,0:0:0:0:
172,220,168128,1,0,0:0:0:0:
172,220,168266,1,0,0:0:0:0:
304,224,168403,6,0,L|424:224,2,91.9999971923829
156,220,168817,1,0,0:0:0:0:
116,140,168955,1,0,0:0:0:0:
80,64,169093,1,0,0:0:0:0:
208,192,169231,6,0,L|88:192,2,91.9999971923829
360,188,169645,1,0,0:0:0:0:
400,108,169783,1,0,0:0:0:0:
436,32,169921,1,0,0:0:0:0:
264,296,170058,6,0,L|264:196,1,91.9999971923829
372,208,170334,2,0,L|268:208,1,91.9999971923829
396,208,170610,2,0,L|396:104,1,91.9999971923829
172,292,170886,6,0,L|172:192,1,91.9999971923829
64,204,171162,2,0,L|168:204,1,91.9999971923829
40,204,171438,2,0,L|40:100,1,91.9999971923829
368,216,171714,2,0,L|492:216,1,91.9999971923829
288,144,171989,2,0,L|288:276,1,91.9999971923829
432,72,172265,2,0,L|432:200,1,91.9999971923829
32,272,172541,5,0,0:0:0:0:
55,170,172678,1,0,0:0:0:0:
151,128,172816,1,0,0:0:0:0:
288,192,172955,5,0,0:0:0:0:
264,90,173092,1,0,0:0:0:0:
168,48,173230,1,0,0:0:0:0:
56,184,173369,6,0,L|156:184,2,91.9999971923829
408,180,173783,6,0,L|308:180,2,91.9999971923829
52,192,174196,5,0,0:0:0:0:
164,160,174334,1,0,0:0:0:0:
56,120,174472,1,0,0:0:0:0:
336,184,174610,1,0,0:0:0:0:
336,112,174748,1,0,0:0:0:0:
464,128,174886,1,0,0:0:0:0:
196,160,175024,5,0,0:0:0:0:
324,292,175162,1,0,0:0:0:0:
414,297,175299,1,0,0:0:0:0:
484,240,175437,1,0,0:0:0:0:
495,151,175575,1,0,0:0:0:0:
443,78,175713,1,0,0:0:0:0:
28,180,175852,6,0,L|308:180,2,245.333333333333
384,328,176679,6,0,P|500:216|340:136,1,345.000013160706
104,128,177645,5,0,0:0:0:0:
396,128,177783,1,0,0:0:0:0:
396,128,177921,1,0,0:0:0:0:
104,128,178058,1,0,0:0:0:0:
104,128,178196,1,0,0:0:0:0:
396,128,178334,5,0,0:0:0:0:
104,128,178472,1,0,0:0:0:0:
104,128,178610,1,0,0:0:0:0:
396,128,178748,5,0,0:0:0:0:
396,128,178886,1,0,0:0:0:0:
104,128,179024,1,0,0:0:0:0:
396,128,179162,1,0,0:0:0:0:
104,128,179300,5,0,0:0:0:0:
396,128,179438,1,0,0:0:0:0:
396,128,179576,1,0,0:0:0:0:
176,216,179714,1,0,0:0:0:0:
56,212,179852,1,0,0:0:0:0:
376,280,179989,6,0,P|444:276|352:120,1,345.000013160706
72,168,180955,5,0,0:0:0:0:
72,128,181093,1,0,0:0:0:0:
384,108,181231,1,0,0:0:0:0:
72,168,181369,1,0,0:0:0:0:
72,168,181507,1,0,0:0:0:0:
384,108,181645,5,0,0:0:0:0:
384,108,181783,1,0,0:0:0:0:
76,172,181921,1,0,0:0:0:0:
392,108,182058,1,0,0:0:0:0:
392,108,182196,1,0,0:0:0:0:
76,128,182334,1,0,0:0:0:0:
320,232,182472,6,0,P|456:188|444:68,1,230.000008773804
64,204,182886,2,0,L|179:204,2,115.000004386902
316,212,183300,6,0,P|416:216|396:16,1,345.000013160706
188,24,184265,1,0,0:0:0:0:
477,199,184403,1,0,0:0:0:0:
486,106,184541,1,0,0:0:0:0:
260,184,184679,1,0,0:0:0:0:
240,108,184817,1,0,0:0:0:0:
16,180,184955,5,0,0:0:0:0:
56,108,185093,1,0,0:0:0:0:
332,228,185231,1,0,0:0:0:0:
376,156,185369,1,0,0:0:0:0:
100,184,185507,1,0,0:0:0:0:
48,112,185645,1,0,0:0:0:0:
400,92,185783,5,0,0:0:0:0:
144,80,185921,1,0,0:0:0:0:
144,80,186058,1,0,0:0:0:0:
400,92,186196,5,0,0:0:0:0:
144,80,186334,1,0,0:0:0:0:
144,80,186471,1,0,0:0:0:0:
360,324,186610,6,0,P|512:164|264:144,1,575.00002193451
36,200,187438,6,0,P|40:80|264:240,1,575.00002193451
32,244,188265,6,0,P|256:224|488:-40,1,575.00002193451
8,132,189093,5,0,0:0:0:0:
240,136,189369,1,0,0:0:0:0:
472,136,189645,1,0,0:0:0:0:
88,216,189921,5,0,0:0:0:0:
452,208,190058,6,0,B|496:276|452:336|452:336|532:260|452:40|452:40|292:40|292:40,1,575.00002193451
60,196,190886,1,0,0:0:0:0:
456,196,191024,5,0,0:0:0:0:
348,196,191162,1,0,0:0:0:0:
240,192,191300,1,0,0:0:0:0:
348,196,191438,1,0,0:0:0:0:
36,296,191576,1,0,0:0:0:0:
448,276,191714,1,0,0:0:0:0:
56,196,191852,5,0,0:0:0:0:
164,196,191990,1,0,0:0:0:0:
272,192,192128,1,0,0:0:0:0:
164,196,192266,1,0,0:0:0:0:
120,184,192334,1,0,0:0:0:0:
404,156,192403,5,0,0:0:0:0:
444,68,192541,1,0,0:0:0:0:
152,80,192679,1,0,0:0:0:0:
432,232,192817,5,0,0:0:0:0:
472,144,192955,1,0,0:0:0:0:
56,160,193093,1,0,0:0:0:0:
292,368,193231,6,0,P|488:288|264:16,1,690.000026321412
35,234,194196,5,0,0:0:0:0:
359,202,194334,1,0,0:0:0:0:
68,284,194472,1,0,0:0:0:0:
192,280,194610,1,0,0:0:0:0:
68,284,194748,1,0,0:0:0:0:
444,204,194886,5,0,0:0:0:0:
120,172,195024,1,0,0:0:0:0:
444,284,195162,1,0,0:0:0:0:
320,280,195300,1,0,0:0:0:0:
452,280,195438,1,0,0:0:0:0:
308,288,195507,1,0,0:0:0:0:
164,288,195576,1,0,0:0:0:0:
444,224,195714,5,0,0:0:0:0:
466,120,195851,1,0,0:0:0:0:
367,83,195989,1,0,0:0:0:0:
64,132,196127,5,0,0:0:0:0:
344,148,196265,1,0,0:0:0:0:
40,248,196403,1,0,0:0:0:0:
279,306,196541,6,0,P|416:324|282:21,1,690.000026321412
32,248,197507,1,0,0:0:0:0:
12,160,197645,1,0,0:0:0:0:
384,140,197783,1,0,0:0:0:0:
144,128,197921,1,0,0:0:0:0:
388,136,198058,1,0,0:0:0:0:
56,304,198196,5,0,0:0:0:0:
36,200,198334,1,0,0:0:0:0:
312,192,198472,1,0,0:0:0:0:
36,169,198610,1,0,0:0:0:0:
274,190,198748,1,0,0:0:0:0:
111,192,198817,1,0,0:0:0:0:
270,190,198886,1,0,0:0:0:0:
512,192,199024,5,0,0:0:0:0:
512,192,199162,1,0,0:0:0:0:
512,192,199300,1,0,0:0:0:0:
16,196,199438,5,0,0:0:0:0:
16,196,199576,1,0,0:0:0:0:
16,196,199714,1,0,0:0:0:0:
368,204,199852,6,0,L|388:80,1,115.000004386902
229,97,200058,1,0,0:0:0:0:
72,100,200127,1,0,0:0:0:0:
344,92,200265,1,0,0:0:0:0:
448,88,200403,1,0,0:0:0:0:
344,92,200541,1,0,0:0:0:0:
112,296,200679,6,0,L|92:172,1,115.000004386902
251,185,200885,1,0,0:0:0:0:
408,192,200954,1,0,0:0:0:0:
136,184,201092,1,0,0:0:0:0:
32,180,201230,1,0,0:0:0:0:
136,184,201368,1,0,0:0:0:0:
376,320,201507,5,0,0:0:0:0:
475,266,201644,1,0,0:0:0:0:
512,161,201782,1,0,0:0:0:0:
480,55,201920,1,0,0:0:0:0:
384,0,202058,1,0,0:0:0:0:
273,13,202196,1,0,0:0:0:0:
4,328,202334,1,0,0:0:0:0:
396,212,202748,5,0,0:0:0:0:
288,212,202886,1,0,0:0:0:0:
396,212,203024,1,0,0:0:0:0:
496,212,203162,1,0,0:0:0:0:
108,224,203300,1,0,0:0:0:0:
272,120,203576,1,0,0:0:0:0:
120,128,203851,5,0,0:0:0:0:
440,120,203989,1,0,0:0:0:0:
376,96,204127,1,0,0:0:0:0:
148,236,204403,1,0,0:0:0:0:
348,196,204679,1,0,0:0:0:0:
48,152,204817,5,0,0:0:0:0:
136,144,204955,1,0,0:0:0:0:
348,160,205231,1,0,0:0:0:0:
132,204,205507,1,0,0:0:0:0:
432,244,205645,1,0,0:0:0:0:
340,248,205783,2,0,L|180:248,1,153.333333333333
280,248,206196,1,0,0:0:0:0:
186,248,206334,1,0,0:0:0:0:
280,192,206472,5,0,0:0:0:0:
24,184,206610,1,0,0:0:0:0:
248,136,206886,5,0,0:0:0:0:
32,272,207162,5,0,0:0:0:0:
312,272,207300,1,0,0:0:0:0:
392,200,207438,1,0,0:0:0:0:
184,188,207714,6,0,P|112:140|164:92,1,153.333333333333
464,72,208127,1,0,0:0:0:0:
404,152,208265,1,0,0:0:0:0:
188,272,208541,1,0,0:0:0:0:
392,272,208817,5,0,0:0:0:0:
124,272,208955,1,0,0:0:0:0:
44,200,209093,1,0,0:0:0:0:
264,188,209369,6,0,P|336:140|284:92,1,153.333333333333
0,72,209782,1,0,0:0:0:0:
60,152,209920,1,0,0:0:0:0:
276,272,210196,1,0,0:0:0:0:
32,272,210472,5,0,0:0:0:0:
312,272,210610,1,0,0:0:0:0:
392,200,210748,1,0,0:0:0:0:
140,192,211024,6,0,P|96:128|160:80,1,153.333333333333
396,124,211438,1,0,0:0:0:0:
440,64,211576,1,0,0:0:0:0:
196,120,211852,1,0,0:0:0:0:
440,64,212127,5,0,0:0:0:0:
148,216,212265,1,0,0:0:0:0:
116,144,212403,1,0,0:0:0:0:
364,160,212679,5,0,0:0:0:0:
252,156,212817,1,0,0:0:0:0:
364,160,212955,1,0,0:0:0:0:
104,236,213093,5,0,0:0:0:0:
80,156,213231,1,0,0:0:0:0:
324,208,213507,1,0,0:0:0:0:
120,156,213783,1,0,0:0:0:0:
384,152,213921,1,0,0:0:0:0:
412,76,214058,1,0,0:0:0:0:
176,104,214335,5,0,0:0:0:0:
276,96,214472,1,0,0:0:0:0:
376,80,214610,1,0,0:0:0:0:
136,248,214748,5,0,0:0:0:0:
104,176,214886,1,0,0:0:0:0:
344,196,215162,2,0,P|388:168|320:96,1,153.333333333333
104,136,215576,5,0,0:0:0:0:
32,104,215714,1,0,0:0:0:0:
104,136,215852,1,0,0:0:0:0:
196,160,215989,5,0,0:0:0:0:
268,128,216127,1,0,0:0:0:0:
196,160,216265,1,0,0:0:0:0:
84,280,216403,5,0,0:0:0:0:
65,226,216540,1,0,0:0:0:0:
46,173,216678,1,0,0:0:0:0:
164,204,216817,5,0,0:0:0:0:
146,150,216954,1,0,0:0:0:0:
127,97,217092,1,0,0:0:0:0:
428,280,217231,5,0,0:0:0:0:
446,226,217368,1,0,0:0:0:0:
465,173,217506,1,0,0:0:0:0:
348,204,217645,5,0,0:0:0:0:
388,152,217782,1,0,0:0:0:0:
385,97,217920,1,0,0:0:0:0:
328,64,218058,1,0,0:0:0:0:
16,164,218196,2,0,L|16:328,1,153.333333333333
264,280,218610,5,0,0:0:0:0:
298,265,218679,1,0,0:0:0:0:
316,232,218748,1,0,0:0:0:0:
309,195,218817,1,0,0:0:0:0:
232,176,218886,1,0,0:0:0:0:
28,156,219024,1,0,0:0:0:0:
248,116,219300,1,0,0:0:0:0:
44,80,219576,5,0,0:0:0:0:
424,88,219714,1,0,0:0:0:0:
444,168,219852,1,0,0:0:0:0:
208,208,220127,1,0,0:0:0:0:
404,196,220403,1,0,0:0:0:0:
124,256,220541,1,0,0:0:0:0:
64,188,220679,1,0,0:0:0:0:
312,136,220955,1,0,0:0:0:0:
192,136,221093,1,0,0:0:0:0:
312,136,221231,1,0,0:0:0:0:
44,288,221369,5,0,0:0:0:0:
24,184,221507,1,0,0:0:0:0:
264,228,221783,5,0,0:0:0:0:
294,205,221851,1,0,0:0:0:0:
306,169,221921,1,0,0:0:0:0:
296,132,221989,1,0,0:0:0:0:
267,108,222058,1,0,0:0:0:0:
156,104,222196,1,0,0:0:0:0:
448,104,222334,1,0,0:0:0:0:
232,232,222610,5,0,0:0:0:0:
140,232,222748,1,0,0:0:0:0:
48,228,222886,1,0,0:0:0:0:
428,280,223024,5,0,0:0:0:0:
447,226,223161,1,0,0:0:0:0:
466,173,223299,1,0,0:0:0:0:
348,204,223438,5,0,0:0:0:0:
366,150,223575,1,0,0:0:0:0:
385,97,223713,1,0,0:0:0:0:
84,280,223852,5,0,0:0:0:0:
66,226,223989,1,0,0:0:0:0:
47,173,224127,1,0,0:0:0:0:
164,204,224266,5,0,0:0:0:0:
124,152,224403,1,0,0:0:0:0:
127,97,224541,1,0,0:0:0:0:
184,64,224679,1,0,0:0:0:0:
460,80,224817,5,0,0:0:0:0:
232,208,225093,1,0,0:0:0:0:
448,244,225231,5,0,0:0:0:0:
463,209,225299,1,0,0:0:0:0:
448,244,225368,1,0,0:0:0:0:
368,128,225506,1,0,0:0:0:0:
16,104,225645,1,0,0:0:0:0:
116,112,225783,1,0,0:0:0:0:
16,200,225921,1,0,0:0:0:0:
112,196,226058,1,0,0:0:0:0:
16,200,226196,1,0,0:0:0:0:
408,192,226334,5,0,0:0:0:0:
356,128,226472,1,0,0:0:0:0:
132,124,226748,1,0,0:0:0:0:
364,100,227024,1,0,0:0:0:0:
140,240,227162,1,0,0:0:0:0:
88,168,227300,1,0,0:0:0:0:
328,184,227576,1,0,0:0:0:0:
120,296,227852,1,0,0:0:0:0:
424,276,227989,2,0,P|456:196|292:72,1,306.666666666667
124,68,228610,1,0,0:0:0:0:
68,68,228678,1,0,0:0:0:0:
124,68,228747,1,0,0:0:0:0:
304,48,228817,6,0,P|392:88|352:284,1,316.250012063981
148,256,229645,1,0,0:0:0:0:
