osu file format v14

[General]
AudioFilename: audio.mp3
AudioLeadIn: 0
PreviewTime: 65825
Countdown: 0
SampleSet: Soft
StackLeniency: 0.3
Mode: 0
LetterboxInBreaks: 0
EpilepsyWarning: 1
WidescreenStoryboard: 1

[Editor]
DistanceSpacing: 1.5
BeatDivisor: 4
GridSize: 4
TimelineZoom: 1.9

[Metadata]
Title:Cold Skin
TitleUnicode:Cold Skin
Artist:Seven Lions & Echos
ArtistUnicode:Seven Lions & Echos
Creator:Fursum
Version:Desperation
Source:
Tags:monstercat cut vocals chill electronic edm pono ponoyoshi
BeatmapID:1660748
BeatmapSetID:791658

[Difficulty]
HPDrainRate:6
CircleSize:4
OverallDifficulty:8
ApproachRate:8.8
SliderMultiplier:2
SliderTickRate:1

[Events]
//Background and Video events
0,0,"cold skin.png",0,0
//Break Periods
//Storyboard Layer 0 (Background)
//Storyboard Layer 1 (Fail)
//Storyboard Layer 2 (Pass)
//Storyboard Layer 3 (Foreground)
Sprite,Foreground,Centre,"sb\wave.png",257,340 C,0,66753,,218,97,215 F,0,66753,68753,1,0 S,19,66753,68753,0,0.2
Sprite,Foreground,Centre,"sb\wave.png",337,122 C,0,67170,,218,97,215 F,0,67170,68170,1,0 S,19,67170,68170,0,0.1792655
Sprite,Foreground,Centre,"sb\wave.png",123,279 C,0,67587,,218,97,215 F,0,67587,68587,1,0 S,19,67587,68587,0,0.1717082
Sprite,Foreground,Centre,"sb\wave.png",271,371 C,0,67899,,218,97,215 F,0,67899,68899,1,0 S,19,67899,68899,0,0.1143786
Sprite,Foreground,Centre,"sb\wave.png",286,404 C,0,68003,,218,97,215 F,0,68003,69003,1,0 S,19,68003,69003,0,0.1548741
Sprite,Foreground,Centre,"sb\wave.png",497,245 C,0,68420,,192,220,248 F,0,68420,69420,1,0 S,19,68420,69420,0,0.1496177
Sprite,Foreground,Centre,"sb\wave.png",253,237 C,0,68837,,192,220,248 F,0,68837,69837,1,0 S,19,68837,69837,0,0.1827087
Sprite,Foreground,Centre,"sb\wave.png",253,237 C,0,68941,,192,220,248 F,0,68941,69941,1,0 S,19,68941,69941,0,0.1484439
Sprite,Foreground,Centre,"sb\wave.png",253,237 C,0,69045,,192,220,248 F,0,69045,70045,1,0 S,19,69045,70045,0,0.1571901
Sprite,Foreground,Centre,"sb\wave.png",391,355 C,0,69253,,192,220,248 F,0,69253,70253,1,0 S,19,69253,70253,0,0.1016198
Sprite,Foreground,Centre,"sb\wave.png",358,108 C,0,69670,,192,220,248 F,0,69670,70670,1,0 S,19,69670,70670,0,0.1612073
Sprite,Foreground,Centre,"sb\wave.png",505,363 C,0,70087,,218,97,215 F,0,70087,71087,1,0 S,19,70087,71087,0,0.1868548
Sprite,Foreground,Centre,"sb\wave.png",239,348 C,0,70503,,218,97,215 F,0,70503,71503,1,0 S,19,70503,71503,0,0.1644106
Sprite,Foreground,Centre,"sb\wave.png",264,128 C,0,70920,,218,97,215 F,0,70920,71920,1,0 S,19,70920,71920,0,0.1304048
Sprite,Foreground,Centre,"sb\wave.png",406,177 C,0,71232,,218,97,215 F,0,71232,72232,1,0 S,19,71232,72232,0,0.1338626
Sprite,Foreground,Centre,"sb\wave.png",431,156 C,0,71337,,218,97,215 F,0,71337,72337,1,0 S,19,71337,72337,0,0.1903288
Sprite,Foreground,Centre,"sb\wave.png",178,260 C,0,71753,,192,220,248 F,0,71753,72753,1,0 S,19,71753,72753,0,0.1427628
Sprite,Foreground,Centre,"sb\wave.png",340,310 C,0,71962,,192,220,248 F,0,71962,72962,1,0 S,19,71962,72962,0,0.1000311
Sprite,Foreground,Centre,"sb\wave.png",174,378 C,0,72170,,192,220,248 F,0,72170,73170,1,0 S,19,72170,73170,0,0.1969462
Sprite,Foreground,Centre,"sb\wave.png",174,378 C,0,72274,,192,220,248 F,0,72274,73274,1,0 S,19,72274,73274,0,0.1837752
Sprite,Foreground,Centre,"sb\wave.png",174,378 C,0,72378,,192,220,248 F,0,72378,73378,1,0 S,19,72378,73378,0,0.173743
Sprite,Foreground,Centre,"sb\wave.png",293,200 C,0,72587,,80,222,204 F,0,72587,73587,1,0 S,19,72587,73587,0,0.1199902
Sprite,Foreground,Centre,"sb\wave.png",485,247 C,0,73003,,103,133,237 F,0,73003,74003,1,0 S,19,73003,74003,0,0.1476125
Sprite,Foreground,Centre,"sb\wave.png",489,172 C,0,73107,,201,202,191 F,0,73107,74107,1,0 S,19,73107,74107,0,0.1340873
Sprite,Foreground,Centre,"sb\wave.png",494,97 C,0,73211,,142,145,174 F,0,73211,74211,1,0 S,19,73211,74211,0,0.1392555
Sprite,Foreground,Centre,"sb\wave.png",513,399 C,0,73420,,218,97,215 F,0,73420,74420,1,0 S,19,73420,74420,0,0.1259093
Sprite,Foreground,Centre,"sb\wave.png",265,380 C,0,73837,,218,97,215 F,0,73837,74837,1,0 S,19,73837,74837,0,0.1482259
Sprite,Foreground,Centre,"sb\wave.png",397,174 C,0,74253,,218,97,215 F,0,74253,75253,1,0 S,19,74253,75253,0,0.1898888
Sprite,Foreground,Centre,"sb\wave.png",217,197 C,0,74670,,218,97,215 F,0,74670,75670,1,0 S,19,74670,75670,0,0.1431727
Sprite,Foreground,Centre,"sb\wave.png",217,197 C,0,74774,,218,97,215 F,0,74774,75774,1,0 S,19,74774,75774,0,0.1087311
Sprite,Foreground,Centre,"sb\wave.png",217,197 C,0,74878,,218,97,215 F,0,74878,75878,1,0 S,19,74878,75878,0,0.1712594
Sprite,Foreground,Centre,"sb\wave.png",407,82 C,0,75087,,192,220,248 F,0,75087,76087,1,0 S,19,75087,76087,0,0.1119947
Sprite,Foreground,Centre,"sb\wave.png",439,339 C,0,75503,,192,220,248 F,0,75503,76503,1,0 S,19,75503,76503,0,0.111595
Sprite,Foreground,Centre,"sb\wave.png",395,422 C,0,75712,,192,220,248 F,0,75712,76712,1,0 S,19,75712,76712,0,0.1915051
Sprite,Foreground,Centre,"sb\wave.png",495,222 C,0,75920,,192,220,248 F,0,75920,76920,1,0 S,19,75920,76920,0,0.1713116
Sprite,Foreground,Centre,"sb\wave.png",283,306 C,0,76337,,192,220,248 F,0,76337,77337,1,0 S,19,76337,77337,0,0.1114507
Sprite,Foreground,Centre,"sb\wave.png",444,126 C,0,76753,,218,97,215 F,0,76753,77753,1,0 S,19,76753,77753,0,0.1780401
Sprite,Foreground,Centre,"sb\wave.png",222,73 C,0,77170,,218,97,215 F,0,77170,78170,1,0 S,19,77170,78170,0,0.1015034
Sprite,Foreground,Centre,"sb\wave.png",109,277 C,0,77587,,218,97,215 F,0,77587,78587,1,0 S,19,77587,78587,0,0.1538271
Sprite,Foreground,Centre,"sb\wave.png",378,253 C,0,78003,,218,97,215 F,0,78003,79003,1,0 S,19,78003,79003,0,0.1637761
Sprite,Foreground,Centre,"sb\wave.png",373,291 C,0,78107,,218,97,215 F,0,78107,79107,1,0 S,19,78107,79107,0,0.1837449
Sprite,Foreground,Centre,"sb\wave.png",368,329 C,0,78212,,218,97,215 F,0,78212,79212,1,0 S,19,78212,79212,0,0.1037063
Sprite,Foreground,Centre,"sb\wave.png",539,358 C,0,78420,,192,220,248 F,0,78420,79420,1,0 S,19,78420,79420,0,0.1909779
Sprite,Foreground,Centre,"sb\wave.png",340,440 C,0,78628,,192,220,248 F,0,78628,79628,1,0 S,19,78628,79628,0,0.1949982
Sprite,Foreground,Centre,"sb\wave.png",373,291 C,0,78837,,192,220,248 F,0,78837,79837,1,0 S,19,78837,79837,0,0.1048637
Sprite,Foreground,Centre,"sb\wave.png",515,113 C,0,79253,,80,222,204 F,0,79253,80253,1,0 S,19,79253,80253,0,0.1360395
Sprite,Foreground,Centre,"sb\wave.png",275,76 C,0,79670,,103,133,237 F,0,79670,80670,1,0 S,19,79670,80670,0,0.1023036
Sprite,Foreground,Centre,"sb\wave.png",253,148 C,0,79774,,201,202,191 F,0,79774,80774,1,0 S,19,79774,80774,0,0.1019299
Sprite,Foreground,Centre,"sb\wave.png",232,220 C,0,79878,,142,145,174 F,0,79878,80878,1,0 S,19,79878,80878,0,0.1538511
Sprite,Foreground,Centre,"sb\wave.png",232,220 C,0,80087,,218,97,215 F,0,80087,81087,1,0 S,19,80087,81087,0,0.1888587
Sprite,Foreground,Centre,"sb\wave.png",391,164 C,0,80399,,218,97,215 F,0,80399,81399,1,0 S,19,80399,81399,0,0.1725338
Sprite,Foreground,Centre,"sb\wave.png",391,164 C,0,80503,,218,97,215 F,0,80503,81503,1,0 S,19,80503,81503,0,0.1530509
Sprite,Foreground,Centre,"sb\wave.png",257,325 C,0,80712,,218,97,215 F,0,80712,81712,1,0 S,19,80712,81712,0,0.110053
Sprite,Foreground,Centre,"sb\wave.png",455,282 C,0,80920,,218,97,215 F,0,80920,81920,1,0 S,19,80920,81920,0,0.1443868
Sprite,Foreground,Centre,"sb\wave.png",438,86 C,0,81232,,218,97,215 F,0,81232,82232,1,0 S,19,81232,82232,0,0.1199982
Sprite,Foreground,Centre,"sb\wave.png",382,83 C,0,81337,,218,97,215 F,0,81337,82337,1,0 S,19,81337,82337,0,0.1300995
Sprite,Foreground,Centre,"sb\wave.png",559,136 C,0,81753,,192,220,248 F,0,81753,82753,1,0 S,19,81753,82753,0,0.131653
Sprite,Foreground,Centre,"sb\wave.png",553,400 C,0,82170,,192,220,248 F,0,82170,83170,1,0 S,19,82170,83170,0,0.1376209
Sprite,Foreground,Centre,"sb\wave.png",431,227 C,0,82378,,192,220,248 F,0,82378,83378,1,0 S,19,82378,83378,0,0.1751231
Sprite,Foreground,Centre,"sb\wave.png",316,385 C,0,82587,,255,255,255 F,0,82587,83587,1,0 S,19,82587,83587,0,0.1289648
Sprite,Foreground,Centre,"sb\wave.png",338,394 C,0,83420,,218,97,215 F,0,83420,84420,1,0 S,19,83420,84420,0,0.1013918
Sprite,Foreground,Centre,"sb\wave.png",257,295 C,0,83628,,218,97,215 F,0,83628,84628,1,0 S,19,83628,84628,0,0.19282
Sprite,Foreground,Centre,"sb\wave.png",351,220 C,0,83837,,218,97,215 F,0,83837,84837,1,0 S,19,83837,84837,0,0.1052712
Sprite,Foreground,Centre,"sb\wave.png",351,220 C,0,83941,,218,97,215 F,0,83941,84941,1,0 S,19,83941,84941,0,0.1484591
Sprite,Foreground,Centre,"sb\wave.png",351,220 C,0,84045,,218,97,215 F,0,84045,85045,1,0 S,19,84045,85045,0,0.1303604
Sprite,Foreground,Centre,"sb\wave.png",285,96 C,0,84253,,218,97,215 F,0,84253,85253,1,0 S,19,84253,85253,0,0.1492125
Sprite,Foreground,Centre,"sb\wave.png",121,167 C,0,84566,,218,97,215 F,0,84566,85566,1,0 S,19,84566,85566,0,0.1752598
Sprite,Foreground,Centre,"sb\wave.png",77,147 C,0,84670,,218,97,215 F,0,84670,85670,1,0 S,19,84670,85670,0,0.1729055
Sprite,Foreground,Centre,"sb\wave.png",128,337 C,0,85087,,192,220,248 F,0,85087,86087,1,0 S,19,85087,86087,0,0.1590932
Sprite,Foreground,Centre,"sb\wave.png",284,169 C,0,85295,,192,220,248 F,0,85295,86295,1,0 S,19,85295,86295,0,0.1224119
Sprite,Foreground,Centre,"sb\wave.png",318,360 C,0,85503,,192,220,248 F,0,85503,86503,1,0 S,19,85503,86503,0,0.1122887
Sprite,Foreground,Centre,"sb\wave.png",354,381 C,0,85607,,192,220,248 F,0,85607,86607,1,0 S,19,85607,86607,0,0.1412593
Sprite,Foreground,Centre,"sb\wave.png",396,387 C,0,85711,,192,220,248 F,0,85711,86711,1,0 S,19,85711,86711,0,0.1462041
Sprite,Foreground,Centre,"sb\wave.png",437,376 C,0,85815,,192,220,248 F,0,85815,86815,1,0 S,19,85815,86815,0,0.1331701
Sprite,Foreground,Centre,"sb\wave.png",470,351 C,0,85920,,192,220,248 F,0,85920,86920,1,0 S,19,85920,86920,0,0.1000304
Sprite,Foreground,Centre,"sb\wave.png",487,160 C,0,86232,,192,220,248 F,0,86232,87232,1,0 S,19,86232,87232,0,0.1700367
Sprite,Foreground,Centre,"sb\wave.png",487,160 C,0,86337,,192,220,248 F,0,86337,87337,1,0 S,19,86337,87337,0,0.1290123
Sprite,Foreground,Centre,"sb\wave.png",341,284 C,0,86545,,80,222,204 F,0,86545,87545,1,0 S,19,86545,87545,0,0.1526143
Sprite,Foreground,Centre,"sb\wave.png",263,278 C,0,86649,,103,133,237 F,0,86649,87649,1,0 S,19,86649,87649,0,0.1292236
Sprite,Foreground,Centre,"sb\wave.png",184,271 C,0,86753,,218,97,215 F,0,86753,87753,1,0 S,19,86753,87753,0,0.1032161
Sprite,Foreground,Centre,"sb\wave.png",301,163 C,0,87170,,218,97,215 F,0,87170,88170,1,0 S,19,87170,88170,0,0.1236057
Sprite,Foreground,Centre,"sb\wave.png",301,163 C,0,87274,,218,97,215 F,0,87274,88274,1,0 S,19,87274,88274,0,0.146296
Sprite,Foreground,Centre,"sb\wave.png",301,163 C,0,87378,,218,97,215 F,0,87378,88378,1,0 S,19,87378,88378,0,0.1360377
Sprite,Foreground,Centre,"sb\wave.png",542,146 C,0,87587,,218,97,215 F,0,87587,88587,1,0 S,19,87587,88587,0,0.154314
Sprite,Foreground,Centre,"sb\wave.png",373,115 C,0,87899,,218,97,215 F,0,87899,88899,1,0 S,19,87899,88899,0,0.1361972
Sprite,Foreground,Centre,"sb\wave.png",351,74 C,0,88003,,192,220,248 F,0,88003,89003,1,0 S,19,88003,89003,0,0.1182085
Sprite,Foreground,Centre,"sb\wave.png",501,393 C,0,88420,,192,220,248 F,0,88420,89420,1,0 S,19,88420,89420,0,0.1019418
Sprite,Foreground,Centre,"sb\wave.png",545,400 C,0,88524,,192,220,248 F,0,88524,89524,1,0 S,19,88524,89524,0,0.1672082
Sprite,Foreground,Centre,"sb\wave.png",310,383 C,0,88837,,192,220,248 F,0,88837,89837,1,0 S,19,88837,89837,0,0.1715069
Sprite,Foreground,Centre,"sb\wave.png",268,390 C,0,88941,,192,220,248 F,0,88941,89941,1,0 S,19,88941,89941,0,0.1412121
Sprite,Foreground,Centre,"sb\wave.png",226,396 C,0,89045,,192,220,248 F,0,89045,90045,1,0 S,19,89045,90045,0,0.1797977
//Storyboard Sound Samples

[TimingPoints]
87,416.666666666667,4,2,0,40,1,0
13420,-333.333333333333,4,2,0,30,0,0
19982,-333.333333333333,4,2,0,5,0,0
20087,-333.333333333333,4,2,0,30,0,0
26753,-200,4,2,2,50,0,0
40087,-133.333333333333,4,2,0,55,0,0
51753,-133.333333333333,4,2,2,55,0,0
53420,-100,4,2,0,60,0,0
60087,-200,4,2,0,40,0,0
63420,-200,4,2,0,35,0,0
63628,-200,4,2,0,17,0,0
63837,-166.666666666667,4,2,0,25,0,0
64045,-166.666666666667,4,2,0,32,0,0
64253,-142.857142857143,4,2,0,40,0,0
64462,-142.857142857143,4,2,0,50,0,0
64670,-125,4,2,0,60,0,0
64878,-125,4,2,0,72,0,0
65087,-500,4,2,0,40,0,0
66753,-66.6666666666667,4,2,2,60,0,1
79670,-66.6666666666667,4,2,2,60,0,0
80087,-62.5,4,2,2,70,0,1
82587,-166.666666666667,4,2,2,40,0,0
83420,-58.8235294117647,4,2,2,70,0,1
89253,-133.333333333333,4,2,2,55,0,0
90087,-80,4,2,2,55,0,0

[Colours]
Combo1 : 255,255,255
Combo2 : 80,222,204
Combo3 : 103,133,237
Combo4 : 201,202,191
Combo5 : 142,145,174
Combo6 : 218,97,215
Combo7 : 192,220,248

[HitObjects]
71,189,13420,38,0,B|175:172|142:246|248:227,1,179.999994506836,0|0,3:0|0:0,0:0:0:0:
456,210,15087,2,0,P|407:278|328:250,1,179.999994506836,0|0,3:0|0:0,0:0:0:0:
314,161,16545,2,0,B|347:128|337:65|337:65|365:123|426:136,1,209.999993591309
395,280,18420,6,0,L|392:313,1,29.9999990844727,0|0,3:0|0:0,0:0:0:0:
329,359,18837,1,0,0:0:0:0:
329,359,19045,1,0,0:0:0:0:
259,257,19253,2,0,L|262:290,1,29.9999990844727
190,374,19670,2,0,P|193:345|190:317,1,44.999998626709
185,309,20087,86,0,P|149:326|94:224,1,179.999994506836,0|0,3:0|0:0,0:0:0:0:
292,241,21753,2,0,B|230:259|238:203|171:221,1,119.999996337891,0|0,3:0|0:0,0:0:0:0:
178,219,23420,2,0,L|358:228,1,179.999994506836,0|0,3:0|0:0,0:0:0:0:
450,99,25087,5,0,3:0:0:0:
357,227,25295,2,0,P|365:187|361:160,1,59.9999981689454
256,131,25920,2,0,L|263:184,2,44.999998626709
154,225,26753,54,0,L|166:104,1,100,0|2,1:0|0:3,0:0:0:0:
154,225,28003,1,2,0:3:0:0:
358,274,28420,2,0,P|310:281|272:318,1,100,0|2,1:0|0:3,0:0:0:0:
349,362,29045,1,0,0:0:0:0:
441,278,29253,2,0,L|432:213,1,50
464,64,29670,2,0,L|459:138,1,75,2|0,0:3|0:0,0:0:0:0:
457,153,30087,6,0,P|426:182|366:186,1,100,0|2,1:0|0:3,0:0:0:0:
457,153,31337,1,2,0:3:0:0:
268,181,31753,2,0,L|157:175,2,100,0|2|0,1:0|0:3|0:0,0:0:0:0:
326,247,32795,2,0,L|317:306,2,50,0|2|0,0:0|0:3|0:0,0:0:0:0:
385,127,33420,86,0,P|414:165|410:214,1,100,0|2,1:0|0:3,0:0:0:0:
410,214,34253,1,0,0:0:0:0:
483,155,34462,2,0,L|488:100,2,50,0|2|0,0:0|0:3|0:0,0:0:0:0:
410,214,35087,6,0,P|379:237|310:226,1,100,0|2,1:0|0:3,0:0:0:0:
320,232,35920,1,0,0:0:0:0:
251,168,36128,2,0,L|246:113,2,50,0|2|0,0:0|0:3|0:0,0:0:0:0:
155,240,36753,86,0,L|164:120,1,100,0|2,1:0|0:3,0:0:0:0:
162,140,37587,1,0,0:0:0:0:
77,178,37795,2,0,P|42:187|18:182,2,50,0|2|0,0:0|0:3|0:0,0:0:0:0:
125,60,38420,6,0,P|162:52|224:77,2,100,0|2|0,1:0|0:3|0:0,0:0:0:0:
162,140,39462,1,0,1:0:0:0:
303,109,39670,2,0,L|307:23,1,75,2|0,0:3|0:0,0:0:0:0:
307,11,40087,86,0,P|352:19|408:122,1,150.000005722046,0|8,1:0|0:0,0:0:0:0:
493,193,40712,2,0,L|506:40,1,150.000005722046,0|0,1:0|0:0,0:0:0:0:
347,198,41337,1,8,0:0:0:0:
347,198,41753,6,0,L|192:177,1,150.000005722046,0|8,1:0|0:0,0:0:0:0:
95,245,42378,1,0,1:0:0:0:
234,327,42587,2,0,B|316:329|298:280|379:284,1,150.000005722046,0|8,0:0|0:0,0:0:0:0:
413,100,43420,86,0,P|453:143|441:259,1,150.000005722046,0|8,1:0|0:0,0:0:0:0:
331,340,44045,2,0,L|348:172,1,150.000005722046,0|0,1:0|0:0,0:0:0:0:
417,323,44670,2,0,P|450:341|488:345,1,75.0000028610231,8|0,0:0|0:0,0:0:0:0:
247,233,45087,6,0,P|198:251|134:329,1,150.000005722046,0|8,1:0|0:0,0:0:0:0:
240,338,45712,1,0,1:0:0:0:
83,237,45920,2,0,L|95:91,1,112.500004291535
96,90,46337,1,8,0:0:0:0:
96,90,46753,86,0,P|193:71|257:101,1,150.000005722046,0|8,1:0|0:0,0:0:0:0:
336,200,47378,2,0,L|320:50,1,150.000005722046,0|0,1:0|0:0,0:0:0:0:
204,189,48003,2,0,P|159:194|111:182,1,75.0000028610231,8|0,0:0|0:0,0:0:0:0:
200,324,48420,6,0,L|222:175,1,150.000005722046,0|8,1:0|0:0,0:0:0:0:
298,311,49045,1,0,1:0:0:0:
113,355,49253,2,0,P|92:299|96:208,1,150.000005722046,0|8,0:0|0:0,0:0:0:0:
144,137,49878,1,0,0:0:0:0:
325,225,50087,86,0,L|143:217,1,150.000005722046,0|8,1:0|0:0,0:0:0:0:
214,84,50712,2,0,L|363:90,1,150.000005722046,0|0,1:0|0:0,0:0:0:0:
325,225,51337,1,8,0:0:0:0:
325,225,51753,6,0,L|312:138,1,75.0000028610231,0|0,1:0|0:0,0:0:0:0:
308,122,52066,1,2,0:3:0:0:
308,122,52170,1,8,0:0:0:0:
436,191,52378,2,0,L|422:341,1,150.000005722046,0|0,1:0|0:0,0:0:0:0:
218,339,53003,2,0,P|218:291|247:221,1,112.500004291535,8|0,0:0|0:0,0:0:0:0:
259,204,53420,86,0,P|205:236|70:192,1,200,0|8,1:0|0:0,0:0:0:0:
127,380,54045,2,0,L|329:353,1,200,0|0,1:0|0:0,0:0:0:0:
431,201,54670,2,0,P|366:230|348:268,1,100,8|0,0:0|0:0,0:0:0:0:
210,185,55087,6,0,L|218:79,1,100,0|0,1:0|0:0,0:0:0:0:
54,206,55503,2,0,L|61:305,1,100,8|0,0:0|1:0,0:0:0:0:
226,169,55920,2,0,B|112:161|145:230|25:219,1,200,0|8,0:0|0:0,0:0:0:0:
62,127,56545,1,0,0:0:0:0:
203,264,56753,86,0,L|409:242,1,200,0|8,1:0|0:0,0:0:0:0:
483,98,57378,2,0,P|388:75|304:125,1,200,0|0,1:0|0:0,0:0:0:0:
159,175,58003,2,0,P|109:141|86:88,1,100,8|0,0:0|0:0,0:0:0:0:
261,238,58420,6,0,L|241:360,1,100,0|0,1:0|0:0,0:0:0:0:
404,219,58837,2,0,L|387:120,1,100,8|0,0:0|1:0,0:0:0:0:
238,254,59253,2,0,B|345:264|312:195|426:203,1,200,0|8,0:0|0:0,0:0:0:0:
412,313,59878,1,0,0:0:0:0:
250,149,60087,22,0,L|130:146,2,100,0|0|8,1:0|0:0|0:0,0:0:0:0:
250,149,61128,1,0,0:0:0:0:
188,231,61337,2,0,P|155:195|149:147,2,100
280,239,62378,1,0,1:0:0:0:
343,163,62587,2,0,L|346:56,1,100,8|0,0:0|0:0,0:0:0:0:
461,146,63420,86,0,L|469:211,1,50,0|8,1:0|0:0,0:0:0:0:
332,193,63837,2,0,L|324:252,1,59.9999981689454,8|8,0:0|0:0,0:0:0:0:
472,138,64253,6,0,L|481:212,1,69.9999978637696,8|8,0:0|0:0,0:0:0:0:
315,195,64670,2,0,L|304:278,1,80,8|8,0:0|0:0,0:0:0:0:
380,122,65087,38,0,B|360:68|401:60|372:1,1,120,0|0,0:0|1:0,0:0:0:0:
396,202,66545,1,8,0:0:0:0:
193,284,66753,70,0,P|176:209|249:79,1,225.000008583069,6|2,1:2|0:3,0:0:0:0:
273,66,67170,2,0,L|357:77,2,75.0000028610231,2|2|0,0:0|0:0|0:0,0:0:0:0:
59,223,67587,2,0,P|149:250|235:343,1,150.000005722046,8|0,0:0|0:0,0:0:0:0:
207,315,67899,1,2,0:3:0:0:
222,348,68003,2,0,L|138:359,2,75.0000028610231,2|2|2,1:2|0:0|0:0,0:0:0:0:
433,189,68420,6,0,B|350:187|350:187|304:209|304:209|210:202,1,225.000008583069,2|2,0:0|0:3,0:0:0:0:
189,181,68837,1,0,1:0:0:0:
189,181,68941,1,2,0:0:0:0:
189,181,69045,1,2,0:0:0:0:
327,299,69253,2,0,B|272:191|360:191|311:77,1,225.000008583069,8|2,0:0|0:3,0:0:0:0:
294,52,69670,2,0,P|254:66|226:110,2,75.0000028610231,2|2|0,0:0|0:0|0:0,0:0:0:0:
441,307,70087,86,0,L|184:292,1,225.000008583069,2|0,1:2|0:0,0:0:0:0:
175,292,70503,2,0,L|194:383,2,75.0000028610231,2|2|0,0:0|0:0|0:0,0:0:0:0:
200,72,70920,2,0,P|243:130|359:116,1,150.000005722046,8|0,0:0|0:0,0:0:0:0:
342,121,71232,1,2,0:3:0:0:
367,100,71337,2,0,L|377:21,2,75.0000028610231,2|2|2,1:2|0:0|0:0,0:0:0:0:
114,204,71753,6,0,P|101:120|105:104,1,75.0000028610231,2|0,0:0|0:0,0:0:0:0:
276,254,71962,2,0,L|183:249,1,75.0000028610231,0|2,1:0|0:3,0:0:0:0:
110,322,72170,1,0,1:0:0:0:
110,322,72274,1,2,0:0:0:0:
110,322,72378,1,2,0:0:0:0:
229,144,72587,22,0,P|312:237|437:198,1,225.000008583069,8|0,0:0|0:0,0:0:0:0:
421,191,73003,5,8,3:0:0:0:
425,116,73107,5,8,3:0:0:0:
430,41,73211,5,8,0:0:0:0:
443,352,73420,6,0,B|316:378|352:286|222:312,1,225.000008583069,4|2,1:0|0:3,0:0:0:0:
195,333,73837,2,0,L|106:314,2,75.0000028610231,2|2|0,0:0|0:0|0:0,0:0:0:0:
333,118,74253,2,0,P|286:193|154:150,1,225.000008583069,8|2,0:0|0:3,0:0:0:0:
153,141,74670,1,2,1:2:0:0:
153,141,74774,1,2,0:0:0:0:
153,141,74878,1,2,0:0:0:0:
343,26,75087,6,0,L|357:263,1,225.000008583069,2|2,0:0|0:3,0:0:0:0:
375,283,75503,2,0,L|474:267,1,75.0000028610231,2|2,1:3|0:3,0:0:0:0:
331,366,75712,1,2,0:3:0:0:
431,166,75920,2,0,P|307:154|243:265,1,225.000008583069,8|2,0:0|0:3,0:0:0:0:
219,250,76337,2,0,P|229:324|266:368,2,75.0000028610231,2|2|2,0:0|0:0|0:0,0:0:0:0:
380,70,76753,86,0,P|299:107|179:37,1,225.000008583069,0|2,1:0|0:3,0:0:0:0:
158,17,77170,2,0,P|138:92|119:120,2,75.0000028610231,2|2|2,0:0|0:3|0:3,0:0:0:0:
45,221,77587,2,0,L|280:200,1,225.000008583069,8|2,0:0|0:3,0:0:0:0:
314,197,78003,1,2,1:2:0:0:
309,235,78107,1,2,0:0:0:0:
304,273,78212,1,2,0:0:0:0:
475,302,78420,6,0,P|385:280|366:285,1,75.0000028610231,2|0,0:0|0:0,0:0:0:0:
276,384,78628,2,0,P|312:377|345:360,1,75.0000028610231,0|0,1:0|0:0,0:0:0:0:
309,235,78837,2,0,L|296:138,2,75.0000028610231,0|2|2,1:0|0:0|0:0,0:0:0:0:
451,57,79253,22,0,P|365:89|245:33,1,225.000008583069,8|0,0:0|0:0,0:0:0:0:
211,20,79670,5,8,3:0:0:0:
189,92,79774,5,8,3:0:0:0:
168,164,79878,5,8,0:0:0:0:
168,164,80087,6,0,P|249:173|334:137,1,160,4|0,1:0|0:0,0:0:0:0:
327,108,80399,1,2,0:3:0:0:
327,108,80503,1,2,0:3:0:0:
193,269,80712,2,0,P|259:271|298:322,1,80,0|0,1:0|0:0,0:0:0:0:
391,226,80920,2,0,P|418:151|399:49,1,160,8|2,0:0|0:3,0:0:0:0:
374,30,81232,1,2,0:3:0:0:
318,27,81337,2,0,P|271:24|234:-5,2,80,0|0|2,1:0|0:0|0:3,0:0:0:0:
495,80,81753,6,0,L|513:320,1,240,0|2,0:0|0:3,0:0:0:0:
489,344,82170,1,2,0:3:0:0:
367,171,82378,2,0,L|360:264,1,80,0|0,1:0|0:0,0:0:0:0:
252,329,82587,6,0,P|187:277|195:359,1,209.999993591309,8|0,0:0|0:0,0:0:0:0:
274,338,83420,70,0,L|358:331,1,85.0000016212464,6|2,1:2|0:0,0:0:0:0:
193,239,83628,2,0,L|109:232,1,85.0000016212464,2|2,0:0|0:0,0:0:0:0:
287,164,83837,1,2,0:0:0:0:
287,164,83941,1,2,0:0:0:0:
287,164,84045,2,0,L|371:157,1,85.0000016212464,2|0,0:0|0:0,0:0:0:0:
221,40,84253,2,0,P|171:122|81:115,1,170.000003242493,8|0,0:0|0:0,0:0:0:0:
57,111,84566,1,2,0:3:0:0:
13,91,84670,2,0,L|22:6,2,85.0000016212464,2|2|2,1:2|0:0|0:0,0:0:0:0:
64,281,85087,6,0,P|115:289|151:272,1,85.0000016212464
220,113,85295,2,0,L|211:198,1,85.0000016212464,0|2,1:0|0:0,0:0:0:0:
254,304,85503,1,0,1:0:0:0:
290,325,85607,1,2,0:0:0:0:
332,331,85711,1,2,0:0:0:0:
373,320,85815,1,2,0:0:0:0:
406,295,85920,2,0,P|375:190|395:133,1,170.000003242493,8|0,0:0|0:0,0:0:0:0:
423,104,86232,1,2,0:0:0:0:
423,104,86337,1,2,0:0:0:0:
277,228,86545,21,8,0:3:0:0:
199,222,86649,5,8,0:3:0:0:
120,215,86753,38,0,B|82:43|82:43|174:74,1,255.000004863739,0|0,1:0|0:3,0:0:0:0:
237,107,87170,1,2,0:3:0:0:
237,107,87274,1,2,0:3:0:0:
237,107,87378,1,2,0:3:0:0:
478,90,87587,2,0,P|352:114|323:67,1,170.000003242493,8|0,0:0|0:0,0:0:0:0:
309,59,87899,1,2,0:3:0:0:
287,18,88003,6,0,L|299:203,1,170.000003242493,0|2,1:0|0:3,0:0:0:0:
437,337,88420,1,2,0:3:0:0:
481,344,88524,2,0,B|457:303|457:303|336:282,1,170.000003242493,8|2,0:0|0:3,0:0:0:0:
246,327,88837,1,0,1:0:0:0:
204,334,88941,1,2,0:3:0:0:
162,340,89045,1,2,0:3:0:0:
58,144,89253,6,0,B|38:219|38:219|73:276|73:276|48:366,1,225.000008583069,8|0,0:0|0:0,0:0:0:0:
134,194,90087,6,0,P|206:179|289:213,1,125,0|0,1:0|0:0,0:0:0:0:
294,179,90399,2,0,P|259:251|256:341,1,125,2|2,0:0|0:0,0:0:0:0:
282,327,90712,1,0,1:0:0:0:
398,157,90920,2,0,L|415:280,1,125,8|0,0:0|0:0,0:0:0:0:
473,57,91337,6,0,P|376:31|272:136,1,250,0|0,1:0|0:0,0:0:0:0:
263,253,91962,1,0,1:0:0:0:
113,94,92170,2,0,B|214:82|198:167|300:151,1,187.5,0|0,1:0|0:0,0:0:0:0:
305,125,92587,2,0,L|315:-5,1,125,10|0,0:0|0:0,0:0:0:0:
384,261,93003,1,8,0:3:0:0:
435,59,93212,1,8,0:0:0:0:
172,209,93420,5,0,1:0:0:0:
