osu file format v14

[General]
AudioFilename: audio.mp3
AudioLeadIn: 0
PreviewTime: 65825
Countdown: 0
SampleSet: Soft
StackLeniency: 0.3
Mode: 0
LetterboxInBreaks: 0
EpilepsyWarning: 1
WidescreenStoryboard: 1

[Editor]
DistanceSpacing: 1.2
BeatDivisor: 4
GridSize: 4
TimelineZoom: 1.9

[Metadata]
Title:Cold Skin
TitleUnicode:Cold Skin
Artist:Seven Lions & Echos
ArtistUnicode:Seven Lions & Echos
Creator:Fursum
Version:Advanced
Source:
Tags:monstercat cut vocals chill electronic edm pono ponoyoshi
BeatmapID:1702452
BeatmapSetID:791658

[Difficulty]
HPDrainRate:4
CircleSize:3.3
OverallDifficulty:5
ApproachRate:6.5
SliderMultiplier:1.2
SliderTickRate:1

[Events]
//Background and Video events
0,0,"cold skin.png",0,0
//Break Periods
//Storyboard Layer 0 (Background)
//Storyboard Layer 1 (Fail)
//Storyboard Layer 2 (Pass)
//Storyboard Layer 3 (Foreground)
Sprite,Foreground,Centre,"sb\wave.png",148,387 M,0,66753,,140.9807,387.9807 C,0,66753,,218,97,215 F,0,66753,68753,1,0 S,19,66753,68753,0,0.2
Sprite,Foreground,Centre,"sb\wave.png",141,269 C,0,67170,,218,97,215 F,0,67170,68170,1,0 S,19,67170,68170,0,0.1792655
Sprite,Foreground,Centre,"sb\wave.png",169,112 C,0,67587,,218,97,215 F,0,67587,68587,1,0 S,19,67587,68587,0,0.1717082
Sprite,Foreground,Centre,"sb\wave.png",434,232 C,0,68420,,192,220,248 F,0,68420,69420,1,0 S,19,68420,69420,0,0.1143786
Sprite,Foreground,Centre,"sb\wave.png",230,275 C,0,69045,,192,220,248 F,0,69045,70045,1,0 S,19,69045,70045,0,0.1548741
Sprite,Foreground,Centre,"sb\wave.png",290,340 C,0,69253,,192,220,248 F,0,69253,70253,1,0 S,19,69253,70253,0,0.1496177
Sprite,Foreground,Centre,"sb\wave.png",143,117 C,0,70087,,218,97,215 F,0,70087,71087,1,0 S,19,70087,71087,0,0.1827087
Sprite,Foreground,Centre,"sb\wave.png",261,125 C,0,70503,,218,97,215 F,0,70503,71503,1,0 S,19,70503,71503,0,0.1484439
Sprite,Foreground,Centre,"sb\wave.png",411,97 C,0,70920,,218,97,215 F,0,70920,71920,1,0 S,19,70920,71920,0,0.1571901
Sprite,Foreground,Centre,"sb\wave.png",399,214 C,0,71337,,218,97,215 F,0,71337,72337,1,0 S,19,71337,72337,0,0.1016198
Sprite,Foreground,Centre,"sb\wave.png",374,298 C,0,71962,,192,220,248 F,0,71962,72962,1,0 S,19,71962,72962,0,0.1612073
Sprite,Foreground,Centre,"sb\wave.png",296,259 C,0,72170,,192,220,248 F,0,72170,73170,1,0 S,19,72170,73170,0,0.1868548
Sprite,Foreground,Centre,"sb\wave.png",325,374 C,0,72587,,192,220,248 F,0,72587,73587,1,0 S,19,72587,73587,0,0.1644106
Sprite,Foreground,Centre,"sb\wave.png",214,398 C,0,73003,,192,220,248 F,0,73003,74003,1,0 S,19,73003,74003,0,0.1304048
Sprite,Foreground,Centre,"sb\wave.png",109,305 C,0,73420,,218,97,215 F,0,73420,74420,1,0 S,19,73420,74420,0,0.1338626
Sprite,Foreground,Centre,"sb\wave.png",208,163 C,0,74253,,218,97,215 F,0,74253,75253,1,0 S,19,74253,75253,0,0.1903288
Sprite,Foreground,Centre,"sb\wave.png",325,187 C,0,74670,,218,97,215 F,0,74670,75670,1,0 S,19,74670,75670,0,0.1427628
Sprite,Foreground,Centre,"sb\wave.png",440,315 C,0,75087,,192,220,248 F,0,75087,76087,1,0 S,19,75087,76087,0,0.1000311
Sprite,Foreground,Centre,"sb\wave.png",310,296 C,0,75503,,192,220,248 F,0,75503,76503,1,0 S,19,75503,76503,0,0.1969462
Sprite,Foreground,Centre,"sb\wave.png",179,408 C,0,75920,,192,220,248 F,0,75920,76920,1,0 S,19,75920,76920,0,0.1837752
Sprite,Foreground,Centre,"sb\wave.png",296,401 C,0,76337,,192,220,248 F,0,76337,77337,1,0 S,19,76337,77337,0,0.173743
Sprite,Foreground,Centre,"sb\wave.png",451,415 C,0,76753,,218,97,215 F,0,76753,77753,1,0 S,19,76753,77753,0,0.1199902
Sprite,Foreground,Centre,"sb\wave.png",430,298 C,0,77170,,218,97,215 F,0,77170,78170,1,0 S,19,77170,78170,0,0.1476125
Sprite,Foreground,Centre,"sb\wave.png",558,310 C,0,77587,,218,97,215 F,0,77587,78587,1,0 S,19,77587,78587,0,0.1340873
Sprite,Foreground,Centre,"sb\wave.png",545,395 C,0,78628,,192,220,248 F,0,78628,79628,1,0 S,19,78628,79628,0,0.1392555
Sprite,Foreground,Centre,"sb\wave.png",466,362 C,0,78837,,192,220,248 F,0,78837,79837,1,0 S,19,78837,79837,0,0.1259093
Sprite,Foreground,Centre,"sb\wave.png",356,349 C,0,79253,,192,220,248 F,0,79253,80253,1,0 S,19,79253,80253,0,0.1482259
Sprite,Foreground,Centre,"sb\wave.png",239,337 C,0,79670,,192,220,248 F,0,79670,80670,1,0 S,19,79670,80670,0,0.1898888
Sprite,Foreground,Centre,"sb\wave.png",296,272 C,0,79878,,192,220,248 F,0,79878,80878,1,0 S,19,79878,80878,0,0.1431727
Sprite,Foreground,Centre,"sb\wave.png",251,189 C,0,80087,,218,97,215 F,0,80087,81087,1,0 S,19,80087,81087,0,0.1087311
Sprite,Foreground,Centre,"sb\wave.png",89,389 C,0,80920,,218,97,215 F,0,80920,81920,1,0 S,19,80920,81920,0,0.1712594
Sprite,Foreground,Centre,"sb\wave.png",410,384 C,0,82378,,255,255,255 F,0,82378,83378,1,0 S,19,82378,83378,0,0.1119947
Sprite,Foreground,Centre,"sb\wave.png",367,309 C,0,82587,,255,255,255 F,0,82587,83587,1,0 S,19,82587,83587,0,0.111595
Sprite,Foreground,Centre,"sb\wave.png",227,367 C,0,83420,,218,97,215 F,0,83420,84420,1,0 S,19,83420,84420,0,0.1915051
Sprite,Foreground,Centre,"sb\wave.png",213,182 C,0,83837,,218,97,215 F,0,83837,84837,1,0 S,19,83837,84837,0,0.1713116
Sprite,Foreground,Centre,"sb\wave.png",131,240 C,0,84045,,218,97,215 F,0,84045,85045,1,0 S,19,84045,85045,0,0.1114507
Sprite,Foreground,Centre,"sb\wave.png",219,283 C,0,84253,,218,97,215 F,0,84253,85253,1,0 S,19,84253,85253,0,0.1780401
Sprite,Foreground,Centre,"sb\wave.png",356,307 C,0,84670,,218,97,215 F,0,84670,85670,1,0 S,19,84670,85670,0,0.1015034
Sprite,Foreground,Centre,"sb\wave.png",459,187 C,0,85295,,192,220,248 F,0,85295,86295,1,0 S,19,85295,86295,0,0.1538271
Sprite,Foreground,Centre,"sb\wave.png",541,129 C,0,85503,,192,220,248 F,0,85503,86503,1,0 S,19,85503,86503,0,0.1637761
Sprite,Foreground,Centre,"sb\wave.png",563,273 C,0,85920,,192,220,248 F,0,85920,86920,1,0 S,19,85920,86920,0,0.1837449
Sprite,Foreground,Centre,"sb\wave.png",432,368 C,0,86545,,192,220,248 F,0,86545,87545,1,0 S,19,86545,87545,0,0.1037063
Sprite,Foreground,Centre,"sb\wave.png",340,327 C,0,86753,,218,97,215 F,0,86753,87753,1,0 S,19,86753,87753,0,0.1909779
Sprite,Foreground,Centre,"sb\wave.png",306,231 C,0,87795,,218,97,215 F,0,87795,88795,1,0 S,19,87795,88795,0,0.1949982
Sprite,Foreground,Centre,"sb\wave.png",225,291 C,0,88003,,218,97,215 F,0,88003,89003,1,0 S,19,88003,89003,0,0.1048637
Sprite,Foreground,Centre,"sb\wave.png",106,245 C,0,88420,,218,97,215 F,0,88420,89420,1,0 S,19,88420,89420,0,0.1360395
Sprite,Foreground,Centre,"sb\wave.png",176,136 C,0,88837,,218,97,215 F,0,88837,89837,1,0 S,19,88837,89837,0,0.1023036
//Storyboard Sound Samples

[TimingPoints]
87,416.666666666667,4,2,0,40,1,0
13420,-133.333333333333,4,2,0,30,0,0
26753,-111.111111111111,4,2,2,50,0,0
40087,-90.9090909090909,4,2,0,55,0,0
51753,-90.9090909090909,4,2,2,55,0,0
53420,-83.3333333333333,4,2,0,60,0,0
60087,-100,4,2,0,40,0,0
63420,-100,4,2,0,35,0,0
63628,-100,4,2,0,17,0,0
63837,-100,4,2,0,25,0,0
64045,-133.333333333333,4,2,0,32,0,0
64253,-100,4,2,0,40,0,0
64462,-76.9230769230769,4,2,0,50,0,0
64670,-100,4,2,0,60,0,0
64878,-100,4,2,0,72,0,0
65087,-133.333333333333,4,2,0,40,0,0
66753,-83.3333333333333,4,2,2,60,0,1
79670,-83.3333333333333,4,2,2,60,0,0
80087,-76.9230769230769,4,2,2,70,0,1
82587,-100,4,2,2,40,0,0
83420,-71.4285714285714,4,2,2,70,0,1
89253,-100,4,2,2,55,0,0
90087,-83.3333333333333,4,2,2,55,0,0

[Colours]
Combo1 : 255,255,255
Combo2 : 80,222,204
Combo3 : 103,133,237
Combo4 : 201,202,191
Combo5 : 142,145,174
Combo6 : 218,97,215
Combo7 : 192,220,248

[HitObjects]
435,221,13420,38,0,B|341:234|364:167|264:179,1,180.000006866455,0|0,3:0|0:0,0:0:0:0:
227,271,14670,1,0,0:0:0:0:
137,224,15087,2,0,B|76:143|111:50|111:50|168:46|206:89,1,270.000010299683
228,108,16545,2,0,L|237:215,1,90.0000034332277
235,197,18420,6,0,P|205:222|190:227,1,45.0000017166138,0|0,3:0|0:0,0:0:0:0:
150,220,18837,2,0,P|127:202|115:175,1,45.0000017166138,0|0,0:0|0:0,0:0:0:0:
119,139,19253,2,0,P|141:115|157:108,1,45.0000017166138
201,110,19670,1,0,0:0:0:0:
293,145,20087,86,0,P|254:176|288:286,1,180.000006866455,0|0,3:0|0:0,0:0:0:0:
286,285,21753,2,0,B|191:309|221:226|94:264,1,180.000006866455,0|0,3:0|0:0,0:0:0:0:
114,258,23420,2,0,P|152:225|107:110,1,180.000006866455,0|0,3:0|0:0,0:0:0:0:
123,118,25087,5,0,3:0:0:0:
123,118,25295,2,0,P|169:104|224:117,1,90.0000034332277
252,136,25920,2,0,L|262:222,2,67.5000025749207
303,67,26753,53,0,1:0:0:0:
420,97,27170,2,0,P|387:181|432:295,1,215.999993408203,2|2,0:3|0:3,0:0:0:0:
312,302,28420,2,0,L|197:316,1,107.999996704102,0|2,1:0|0:3,0:0:0:0:
146,327,29045,1,0,0:0:0:0:
87,315,29253,2,0,L|25:271,2,53.9999983520508,0|0|2,0:0|0:0|0:3,0:0:0:0:
172,232,30087,5,0,1:0:0:0:
60,191,30503,2,0,P|128:209|252:136,1,215.999993408203,2|2,0:3|0:3,0:0:0:0:
334,224,31753,85,0,1:0:0:0:
334,224,31962,2,0,P|286:231|253:135,1,161.999995056153,0|0,0:0|0:0,0:0:0:0:
285,93,32795,2,0,L|343:91,2,53.9999983520508,0|2|0,0:0|0:3|0:0,0:0:0:0:
244,49,33420,5,0,1:0:0:0:
127,72,33837,2,0,L|115:204,1,107.999996704102,2|0,0:3|0:0,0:0:0:0:
109,238,34462,2,0,L|142:292,2,53.9999983520508,0|2|0,0:0|0:3|0:0,0:0:0:0:
52,218,35087,85,0,1:0:0:0:
70,100,35503,2,0,P|125:88|185:119,1,107.999996704102,2|0,0:3|0:0,0:0:0:0:
215,147,36128,2,0,L|193:214,2,53.9999983520508,0|2|0,0:0|0:3|0:0,0:0:0:0:
271,126,36753,5,0,1:0:0:0:
374,68,37170,2,0,B|393:104|393:104|377:191,1,107.999996704102,2|0,0:3|0:0,0:0:0:0:
375,229,37795,2,0,L|398:292,2,53.9999983520508,0|2|0,0:0|0:3|0:0,0:0:0:0:
318,211,38420,86,0,P|285:244|276:310,2,107.999996704102,0|2|0,1:0|0:3|0:0,0:0:0:0:
375,229,39462,1,0,1:0:0:0:
407,179,39670,2,0,L|415:93,1,80.9999975280763,2|0,0:3|0:0,0:0:0:0:
417,78,40087,6,0,B|357:104|357:104|270:81,1,132.00000402832,0|8,1:0|0:0,0:0:0:0:
230,37,40712,2,0,L|240:182,1,132.00000402832,0|0,1:0|0:0,0:0:0:0:
246,247,41337,1,8,0:0:0:0:
119,341,41753,86,0,L|132:205,1,132.00000402832,0|8,1:0|0:0,0:0:0:0:
139,130,42378,1,0,1:0:0:0:
205,80,42587,2,0,B|149:46|149:46|84:67,1,132.00000402832,0|8,0:0|0:0,0:0:0:0:
215,226,43420,6,0,P|282:197|361:207,1,132.00000402832,0|8,1:0|0:0,0:0:0:0:
359,276,44045,2,0,P|292:305|213:295,1,132.00000402832,0|0,1:0|0:0,0:0:0:0:
156,286,44670,2,0,P|113:296|84:314,1,66.0000020141602,8|0,0:0|0:0,0:0:0:0:
40,247,45087,86,0,P|97:198|115:128,1,132.00000402832,0|8,1:0|0:0,0:0:0:0:
96,68,45712,1,0,1:0:0:0:
173,84,45920,2,0,L|292:60,1,99.0000030212403,0|0,0:0|0:0,0:0:0:0:
291,59,46337,1,8,0:0:0:0:
457,183,46753,6,0,B|414:235|414:235|422:316,1,132.00000402832,0|8,1:0|0:0,0:0:0:0:
343,319,47378,2,0,L|330:175,1,132.00000402832,0|0,1:0|0:0,0:0:0:0:
252,179,48003,2,0,P|247:225|219:260,1,66.0000020141602,8|0,0:0|0:0,0:0:0:0:
164,271,48420,86,0,P|129:208|148:138,1,132.00000402832,0|8,1:0|0:0,0:0:0:0:
208,113,49045,1,0,1:0:0:0:
252,179,49253,2,0,L|393:165,1,132.00000402832,0|8,0:0|0:0,0:0:0:0:
429,230,49878,1,0,0:0:0:0:
379,291,50087,6,0,L|231:277,1,132.00000402832,0|8,1:0|0:0,0:0:0:0:
194,338,50712,2,0,L|62:350,1,132.00000402832,0|0,1:0|0:0,0:0:0:0:
7,292,51337,1,8,0:0:0:0:
143,186,51753,86,0,P|243:209|268:203,1,99.0000030212403,0|2,1:0|0:3,0:0:0:0:
254,203,52170,1,8,0:0:0:0:
319,248,52378,2,0,L|307:110,1,132.00000402832,0|0,1:0|0:0,0:0:0:0:
386,112,53003,2,0,L|396:231,1,99.0000030212403,8|0,0:0|0:0,0:0:0:0:
395,230,53420,6,0,P|458:263|435:329,1,143.999995605469,0|8,1:0|0:0,0:0:0:0:
356,311,54045,2,0,L|207:295,1,143.999995605469,0|0,1:0|0:0,0:0:0:0:
191,211,54670,2,0,L|272:220,1,71.9999978027344,8|0,0:0|0:0,0:0:0:0:
260,132,55087,86,0,P|224:95|225:55,1,71.9999978027344,0|0,1:0|0:0,0:0:0:0:
296,35,55503,2,0,P|332:72|331:112,1,71.9999978027344,8|0,0:0|1:0,0:0:0:0:
337,176,55920,2,0,P|322:236|345:332,1,143.999995605469,0|8,0:0|0:0,0:0:0:0:
413,356,56545,1,0,0:0:0:0:
440,274,56753,6,0,L|449:123,1,143.999995605469,0|8,1:0|0:0,0:0:0:0:
370,93,57378,2,0,L|361:236,1,143.999995605469,0|0,1:0|0:0,0:0:0:0:
278,264,58003,2,0,P|272:214|246:177,1,71.9999978027344,8|0,0:0|0:0,0:0:0:0:
194,249,58420,86,0,L|101:235,1,71.9999978027344,0|0,1:0|0:0,0:0:0:0:
106,153,58837,2,0,L|177:163,1,71.9999978027344,8|0,0:0|1:0,0:0:0:0:
244,110,59253,2,0,P|203:71|104:81,1,143.999995605469,0|8,0:0|0:0,0:0:0:0:
34,55,59878,1,0,0:0:0:0:
62,137,60087,38,0,P|74:177|50:258,2,120,0|0|8,1:0|0:0|0:0,0:0:0:0:
177,222,61337,2,0,L|308:208,2,120,0|0|0,0:0|0:0|0:0,0:0:0:0:
160,142,62378,1,0,1:0:0:0:
220,84,62587,2,0,L|351:99,1,120,8|0,0:0|0:0,0:0:0:0:
436,204,63420,86,0,L|426:264,3,60,0|8|8|8,1:0|0:0|0:0|0:0,0:0:0:0:
335,278,64253,6,0,L|345:338,3,60,8|8|8|8,0:0|0:0|0:0|0:0,0:0:0:0:
245,313,65087,37,0,0:0:0:0:
245,313,66337,53,0,1:0:0:0:
158,287,66545,1,8,0:0:0:0:
84,331,66753,6,0,P|100:245|74:203,1,107.999996704102,6|2,1:2|0:3,0:0:0:0:
77,213,67170,2,0,L|93:123,1,71.9999978027344,2|0,0:0|0:0,0:0:0:0:
105,56,67587,2,0,B|157:89|157:89|263:60,1,143.999995605469,8|2,0:0|1:2,0:0:0:0:
370,176,68420,6,0,L|212:155,1,143.999995605469,2|0,0:0|1:0,0:0:0:0:
166,219,69045,1,2,0:0:0:0:
226,284,69253,2,0,B|259:238|259:238|224:149,1,143.999995605469,8|2,0:0|0:0,0:0:0:0:
79,61,70087,86,0,P|166:86|202:72,1,107.999996704102,2|0,1:2|0:0,0:0:0:0:
197,69,70503,2,0,P|232:64|283:83,1,71.9999978027344,2|0,0:0|0:0,0:0:0:0:
347,41,70920,2,0,B|316:86|316:86|333:159,1,107.999996704102,8|2,0:0|0:3,0:0:0:0:
335,158,71337,2,0,P|386:204|386:286,1,143.999995605469,2|2,1:2|0:0,0:0:0:0:
310,242,71962,5,0,1:0:0:0:
232,203,72170,2,0,P|223:257|263:316,1,107.999996704102,0|0,1:0|0:0,0:0:0:0:
261,318,72587,2,0,B|210:302|210:302|139:346,1,107.999996704102,8|0,0:0|0:0,0:0:0:0:
150,342,73003,2,0,L|72:328,1,71.9999978027344,8|8,3:0|0:0,0:0:0:0:
47,249,73420,86,0,B|71:201|61:153|61:153|51:139|51:139|33:80|76:31,1,215.999993408203,4|0,1:0|0:0,0:0:0:0:
136,102,74253,2,0,B|179:138|179:138|251:126,1,107.999996704102,8|2,0:0|0:3,0:0:0:0:
253,126,74670,1,2,1:2:0:0:
376,259,75087,6,0,L|246:241,1,107.999996704102,2|2,0:0|0:3,0:0:0:0:
246,240,75503,1,2,1:3:0:0:
115,352,75920,2,0,B|163:325|163:325|225:347,1,107.999996704102,8|2,0:0|0:3,0:0:0:0:
232,345,76337,2,0,L|313:337,1,71.9999978027344,2|0,0:0|0:0,0:0:0:0:
387,359,76753,86,0,P|357:300|366:246,1,107.999996704102,0|2,1:0|0:3,0:0:0:0:
366,242,77170,2,0,P|397:212|429:204,1,71.9999978027344,2|2,0:0|0:3,0:0:0:0:
494,254,77587,2,0,B|463:202|463:202|494:117,2,143.999995605469,8|2|2,0:0|1:2|0:0,0:0:0:0:
481,339,78628,5,0,1:0:0:0:
402,306,78837,2,0,P|348:275|283:292,1,107.999996704102,0|0,1:0|0:0,0:0:0:0:
292,293,79253,2,0,B|246:315|246:315|181:288,1,107.999996704102,8|0,0:0|0:0,0:0:0:0:
175,281,79670,1,8,3:0:0:0:
232,216,79878,1,8,0:0:0:0:
187,133,80087,86,0,B|138:157|73:150|73:150|100:204|87:290,1,233.999989288331,4|0,1:0|1:0,0:0:0:0:
25,333,80920,2,0,B|98:315|98:315|178:367,2,155.999992858887,8|0|0,0:0|1:0|0:0,0:0:0:0:
346,328,82378,1,0,1:0:0:0:
303,253,82587,22,0,B|242:235|242:235|256:358,1,180,8|0,0:0|0:0,0:0:0:0:
163,311,83420,70,0,L|154:214,1,83.9999974365235,6|2,1:2|0:0,0:0:0:0:
149,126,83837,1,2,0:0:0:0:
67,184,84045,1,2,0:0:0:0:
155,227,84253,2,0,B|221:216|221:216|290:251,1,125.999996154785,8|2,0:0|0:3,0:0:0:0:
292,251,84670,2,0,L|308:71,1,167.999994873047,2|0,1:2|0:0,0:0:0:0:
395,131,85295,5,0,1:0:0:0:
477,73,85503,2,0,L|494:199,1,125.999996154785,0|0,1:0|0:0,0:0:0:0:
499,217,85920,2,0,B|442:248|442:248|466:366,1,167.999994873047,8|2,0:0|0:0,0:0:0:0:
368,312,86545,1,8,0:3:0:0:
276,271,86753,86,0,P|254:322|120:323,2,167.999994873047,0|2|8,1:0|0:3|0:0,0:0:0:0:
242,175,87795,1,0,0:0:0:0:
161,235,88003,2,0,P|82:236|37:169,1,125.999996154785,0|2,1:0|0:3,0:0:0:0:
42,189,88420,2,0,P|65:102|123:78,1,125.999996154785,2|0,0:0|0:0,0:0:0:0:
112,80,88837,1,0,1:0:0:0:
249,152,89253,22,0,B|342:117|334:189|422:155,1,180,8|0,0:0|0:0,0:0:0:0:
462,232,90087,6,0,P|419:261|369:246,2,107.999996704102,0|2|0,1:0|0:0|1:0,0:0:0:0:
512,166,90920,2,0,B|467:144|467:144|412:161,1,107.999996704102,8|0,0:0|0:0,0:0:0:0:
399,169,91337,2,0,P|416:97|395:31,1,143.999995605469,0|0,1:0|0:0,0:0:0:0:
324,80,91962,5,0,1:0:0:0:
245,45,92170,2,0,L|121:29,1,107.999996704102,0|0,1:0|0:0,0:0:0:0:
117,26,92587,2,0,B|144:77|144:77|106:161,1,143.999995605469,10|8,0:0|0:3,0:0:0:0:
34,200,93212,1,8,0:0:0:0:
77,274,93420,5,0,1:0:0:0:
