osu file format v14

[General]
AudioFilename: audio.mp3
AudioLeadIn: 0
PreviewTime: 65920
Countdown: 0
SampleSet: Soft
StackLeniency: 0.7
Mode: 2
LetterboxInBreaks: 0
WidescreenStoryboard: 0

[Editor]
DistanceSpacing: 1.5
BeatDivisor: 4
GridSize: 8
TimelineZoom: 1.6

[Metadata]
Title:Cold Skin
TitleUnicode:Cold Skin
Artist:Seven Lions & Echos
ArtistUnicode:Seven Lions & Echos
Creator:-Ken
Version:Platter
Source:
Tags:mbomb magic bomb monstercat chill electronic edm melodic dubstep Fursum
BeatmapID:1977380
BeatmapSetID:946446

[Difficulty]
HPDrainRate:5
CircleSize:3.2
OverallDifficulty:8
ApproachRate:8
SliderMultiplier:1.7
SliderTickRate:1

[Events]
//Background and Video events
0,0,"owo.jpg",0,0
//Break Periods
//Storyboard Layer 0 (Background)
//Storyboard Layer 1 (Fail)
//Storyboard Layer 2 (Pass)
//Storyboard Layer 3 (Foreground)
//Storyboard Layer 4 (Overlay)
//Storyboard Sound Samples

[TimingPoints]
87,416.666666666667,4,2,0,40,1,0
13003,-100,4,2,0,25,0,0
13420,-200,4,2,0,30,0,0
19982,-200,4,2,0,5,0,0
20087,-200,4,2,0,30,0,0
25295,-100,4,2,0,30,0,0
26753,-133.333333333333,4,2,2,50,0,0
40087,-100,4,2,0,55,0,0
51753,-100,4,2,2,55,0,0
53420,-100,4,2,0,60,0,0
60087,-142.857142857143,4,2,0,40,0,0
63420,-142.857142857143,4,2,0,35,0,0
63628,-142.857142857143,4,2,0,17,0,0
63837,-142.857142857143,4,2,0,25,0,0
64045,-142.857142857143,4,2,0,32,0,0
64253,-142.857142857143,4,2,0,40,0,0
64462,-142.857142857143,4,2,0,50,0,0
64670,-142.857142857143,4,2,0,60,0,0
64878,-142.857142857143,4,2,0,72,0,0
65087,-285.714285714284,4,2,0,40,0,0
65816,-285.714285714284,4,2,0,5,0,0
65920,-125,4,2,0,40,0,0
66753,-62.5,4,2,2,60,0,1
78003,-100,4,2,2,60,0,1
79253,-66.6666666666667,4,2,2,60,0,1
79670,-66.6666666666667,4,2,2,60,0,0
80087,-66.6666666666667,4,2,2,70,0,1
81337,-83.3333333333333,4,2,2,70,0,1
82587,-66.6666666666667,4,2,2,40,0,0
83420,-66.6666666666667,4,2,2,70,0,1
84253,-83.3333333333333,4,2,2,70,0,1
84878,-66.6666666666667,4,2,2,70,0,1
85920,-83.3333333333333,4,2,2,70,0,1
86545,-66.6666666666667,4,2,2,70,0,1
87587,-83.3333333333333,4,2,2,70,0,1
88212,-66.6666666666667,4,2,2,70,0,1
89253,-133.333333333333,4,2,2,55,0,1
91753,-83.3333333333333,4,2,2,55,0,1
93420,-83.3333333333333,4,2,2,55,0,0
95503,-83.3333333333333,4,2,2,25,0,0

[Colours]
Combo1 : 128,128,255
Combo2 : 255,194,166
Combo3 : 255,128,128

[HitObjects]
256,192,10087,12,0,13003,0:0:0:0:
410,158,13420,6,0,L|150:158,1,255,0|0,3:0|0:0,0:0:0:0:
453,162,15087,2,0,P|461:218|296:290,1,269.166666666667,0|0,3:0|0:0,0:0:0:0:
265,275,16545,2,0,P|171:217|297:144,1,297.5,0|0,0:0|0:0,0:0:0:0:
40,272,18420,5,0,3:0:0:0:
123,272,18628,1,0,0:0:0:0:
184,272,18837,1,0,0:0:0:0:
232,272,19045,1,0,0:0:0:0:
184,272,19253,1,0,0:0:0:0:
123,272,19462,1,0,0:0:0:0:
40,272,19670,1,0,0:0:0:0:
384,264,20087,6,0,P|456:264|448:120,1,255,0|0,3:0|0:0,0:0:0:0:
161,286,21753,2,0,P|91:173|170:144,1,255,0|0,3:0|0:0,0:0:0:0:
457,273,23420,2,0,L|457:9,1,255,0|0,3:0|0:0,0:0:0:0:
144,235,25087,5,0,3:0:0:0:
265,197,25295,2,0,L|84:198,1,170,0|0,0:0|0:0,0:0:0:0:
190,157,25920,1,0,0:0:0:0:
357,155,26232,1,0,0:0:0:0:
190,157,26545,1,0,0:0:0:0:
468,120,26753,5,0,1:0:0:0:
294,116,27170,1,2,0:3:0:0:
152,264,28003,1,2,0:3:0:0:
256,264,28212,5,0,0:0:0:0:
360,272,28420,2,0,P|392:216|352:144,1,127.500004863739,0|2,1:0|0:3,0:0:0:0:
272,144,29045,1,0,0:0:0:0:
64,144,29462,1,0,0:0:0:0:
176,144,29670,1,2,0:3:0:0:
64,144,29878,1,0,0:0:0:0:
281,139,30087,6,0,P|321:171|289:243,1,127.500004863739,0|2,1:0|0:3,0:0:0:0:
21,297,31337,1,2,0:3:0:0:
111,297,31545,1,0,0:0:0:0:
301,296,31753,6,0,L|157:296,2,127.500004863739,0|2|0,1:0|0:3|0:0,0:0:0:0:
402,286,32795,1,0,0:0:0:0:
458,286,33003,1,2,0:3:0:0:
402,286,33212,1,0,0:0:0:0:
190,201,33420,86,0,P|162:246|179:333,1,127.500004863739,0|2,1:0|0:3,0:0:0:0:
371,240,34253,1,0,0:0:0:0:
371,240,34462,1,0,0:0:0:0:
371,240,34670,1,2,0:3:0:0:
371,240,34878,1,0,0:0:0:0:
240,224,35087,86,0,P|204:176|249:130,1,127.500004863739,0|2,1:0|0:3,0:0:0:0:
440,152,35920,1,0,0:0:0:0:
440,152,36128,1,0,0:0:0:0:
440,152,36337,1,2,0:3:0:0:
440,152,36545,1,0,0:0:0:0:
230,265,36753,6,0,L|374:265,1,127.500004863739,0|2,1:0|0:3,0:0:0:0:
179,299,37587,1,0,0:0:0:0:
251,299,37795,1,0,0:0:0:0:
179,299,38003,1,2,0:3:0:0:
251,299,38212,1,0,0:0:0:0:
456,198,38420,6,0,L|320:198,2,127.500004863739,0|2|0,1:0|0:3|0:0,0:0:0:0:
260,206,39462,1,0,1:0:0:0:
177,190,39670,1,2,0:3:0:0:
158,125,39878,1,0,0:0:0:0:
459,200,40087,6,0,L|459:16,1,170,0|8,1:0|0:0,0:0:0:0:
357,145,40712,2,0,L|173:145,1,170,0|0,1:0|0:0,0:0:0:0:
289,112,41337,1,8,0:0:0:0:
24,104,41753,6,0,L|24:304,1,170,0|8,1:0|0:0,0:0:0:0:
127,280,42378,1,0,1:0:0:0:
230,279,42587,2,0,L|137:126,1,170,0|8,0:0|0:0,0:0:0:0:
467,127,43420,86,0,L|467:319,1,170,0|8,1:0|0:0,0:0:0:0:
360,286,44045,2,0,L|360:101,1,170,0|0,1:0|0:0,0:0:0:0:
474,113,44670,1,8,0:0:0:0:
360,116,44878,1,0,0:0:0:0:
153,183,45087,6,0,L|334:184,1,170,0|8,1:0|0:0,0:0:0:0:
238,181,45712,1,0,1:0:0:0:
153,183,45920,2,0,L|358:182,1,170,0|8,0:0|0:0,0:0:0:0:
43,78,46753,86,0,L|235:78,1,170,0|8,1:0|0:0,0:0:0:0:
315,104,47378,2,0,L|132:106,1,170,0|0,1:0|0:0,0:0:0:0:
315,104,48003,1,8,0:0:0:0:
485,251,48420,6,0,L|285:250,1,170,0|8,1:0|0:0,0:0:0:0:
213,250,49045,1,0,1:0:0:0:
402,250,49253,2,0,P|426:196|355:129,1,170,0|8,0:0|0:0,0:0:0:0:
249,153,49878,1,0,0:0:0:0:
21,163,50087,86,0,L|212:163,1,170,0|8,1:0|0:0,0:0:0:0:
293,170,50712,2,0,P|335:188|305:293,1,170,0|0,1:0|0:0,0:0:0:0:
212,296,51337,1,8,0:0:0:0:
24,299,51753,6,0,L|23:186,1,85,0|0,1:0|0:0,0:0:0:0:
92,211,52066,1,2,0:3:0:0:
160,209,52170,1,8,0:0:0:0:
350,208,52378,2,0,P|370:170|284:110,1,170,0|0,1:0|0:0,0:0:0:0:
143,177,53003,2,0,L|35:177,1,85,8|0,0:0|0:0,0:0:0:0:
393,336,53420,86,0,L|393:154,1,170,0|8,1:0|0:0,0:0:0:0:
201,295,54045,2,0,L|406:295,1,170,0|0,1:0|0:0,0:0:0:0:
482,235,54670,2,0,L|383:235,1,85,8|0,0:0|0:0,0:0:0:0:
205,232,55087,6,0,L|219:321,1,85,0|0,1:0|0:0,0:0:0:0:
342,250,55503,2,0,L|340:339,1,85,8|0,0:0|1:0,0:0:0:0:
218,231,55920,2,0,L|414:176,1,170,0|8,0:0|0:0,0:0:0:0:
245,135,56545,1,0,0:0:0:0:
32,148,56753,86,0,L|32:348,1,170,0|8,1:0|0:0,0:0:0:0:
223,180,57378,2,0,L|223:364,1,170,0|0,1:0|0:0,0:0:0:0:
104,244,58003,2,0,L|85:346,1,85,8|0,0:0|0:0,0:0:0:0:
266,224,58420,6,0,L|207:121,1,85,0|0,1:0|0:0,0:0:0:0:
104,139,58837,2,0,L|100:25,1,85,8|0,0:0|1:0,0:0:0:0:
306,119,59253,2,0,P|375:124|443:193,1,170,0|8,0:0|0:0,0:0:0:0:
358,218,59878,1,0,0:0:0:0:
59,249,60087,22,0,L|196:250,2,118.999996368408,0|0|8,1:0|0:0|0:0,0:0:0:0:
157,248,61128,1,0,0:0:0:0:
59,249,61337,2,0,L|203:236,2,118.999996368408,0|0|0,0:0|0:0|0:0,0:0:0:0:
132,249,62378,1,0,1:0:0:0:
331,218,62587,2,0,L|468:218,1,118.999996368408,8|0,0:0|0:0,0:0:0:0:
159,325,63420,5,0,1:0:0:0:
64,270,63628,1,8,0:0:0:0:
64,270,63837,1,8,0:0:0:0:
159,325,64045,1,8,0:0:0:0:
371,327,64253,5,8,0:0:0:0:
466,272,64462,1,8,0:0:0:0:
496,167,64670,1,8,0:0:0:0:
445,73,64878,1,8,0:0:0:0:
173,316,65087,6,0,B|64:316,1,104.124996822357
34,309,65920,2,0,P|17:258|68:186,1,136,0|0,0:0|1:0,0:0:0:0:
168,183,66545,1,8,0:0:0:0:
444,174,66753,5,6,1:2:0:0:
289,245,67066,2,0,L|299:173,3,68,2|2|2|0,0:3|0:0|0:0|0:0,0:0:0:0:
26,169,67587,5,8,0:0:0:0:
187,168,67899,1,2,0:3:0:0:
121,173,68003,1,2,1:2:0:0:
77,125,68107,1,2,0:0:0:0:
88,60,68212,1,2,0:0:0:0:
278,56,68420,2,0,L|485:56,1,204,2|2,0:0|0:3,0:0:0:0:
474,95,68837,2,0,L|490:169,2,68,0|2|2,1:0|0:0|0:0,0:0:0:0:
203,126,69253,5,8,0:0:0:0:
333,184,69566,1,2,0:3:0:0:
399,189,69670,1,2,0:0:0:0:
443,141,69774,1,2,0:0:0:0:
432,76,69878,1,0,0:0:0:0:
242,72,70087,2,0,L|35:72,1,204,2|0,1:2|0:0,0:0:0:0:
49,111,70503,2,0,L|37:191,2,68,2|2|0,0:0|0:0|0:0,0:0:0:0:
336,143,70920,5,8,0:0:0:0:
195,186,71232,1,2,0:3:0:0:
181,123,71337,1,2,1:2:0:0:
240,83,71441,1,2,0:0:0:0:
308,106,71545,1,2,0:0:0:0:
496,114,71753,2,0,L|496:288,1,136,2|0,0:0|1:0,0:0:0:0:
419,251,72066,1,2,0:3:0:0:
342,255,72170,1,0,1:0:0:0:
410,181,72378,1,2,0:0:0:0:
103,194,72587,5,8,0:0:0:0:
37,169,72795,1,0,0:0:0:0:
9,106,72899,1,0,0:0:0:0:
29,44,73003,1,8,3:0:0:0:
86,12,73107,1,8,3:0:0:0:
151,26,73211,1,8,0:0:0:0:
426,72,73420,6,0,P|350:229|297:235,1,204,4|2,1:0|0:3,0:0:0:0:
281,240,73837,1,2,0:0:0:0:
222,240,73941,1,2,0:0:0:0:
164,240,74045,1,0,0:0:0:0:
449,90,74253,5,8,0:0:0:0:
449,90,74566,1,2,0:3:0:0:
473,151,74670,1,2,1:2:0:0:
442,209,74774,1,2,0:0:0:0:
378,223,74878,1,2,0:0:0:0:
188,226,75087,6,0,P|130:179|240:103,1,204,2|2,0:0|0:3,0:0:0:0:
250,90,75503,1,2,1:3:0:0:
316,85,75607,1,2,0:3:0:0:
337,25,75712,1,2,0:3:0:0:
60,91,75920,5,8,0:0:0:0:
60,91,76128,1,0,0:0:0:0:
44,161,76232,1,2,0:3:0:0:
66,230,76336,1,2,0:0:0:0:
120,279,76440,1,0,0:0:0:0:
192,293,76544,1,0,0:0:0:0:
393,259,76753,6,0,P|492:196|413:114,1,204,0|2,1:0|0:3,0:0:0:0:
413,87,77170,1,2,0:0:0:0:
355,59,77274,1,2,0:3:0:0:
295,56,77378,1,2,0:3:0:0:
20,173,77587,1,8,0:0:0:0:
30,229,77795,6,0,L|92:174,1,68,0|2,0:0|0:3,0:0:0:0:
178,162,78003,2,0,L|173:275,1,85,2|2,1:2|0:0,0:0:0:0:
379,209,78420,2,0,L|174:208,2,170,2|0|8,0:0|1:0|0:0,0:0:0:0:
92,208,79670,1,8,3:0:0:0:
112,129,79878,1,8,0:0:0:0:
411,300,80087,6,0,P|431:286|321:172,1,255.000009727478,4|2,1:0|0:3,0:0:0:0:
228,294,80712,2,0,P|155:267|259:166,1,255.000009727478,0|2,1:0|0:3,0:0:0:0:
340,138,81337,2,0,L|106:139,2,203.999993774414,0|0|2,1:0|0:0|0:3,0:0:0:0:
137,239,82378,2,0,L|100:174,2,50.9999984436036,0|0|8,1:0|0:0|0:0,0:0:0:0:
137,239,83420,5,6,1:2:0:0:
197,237,83524,1,2,0:0:0:0:
257,240,83628,1,2,0:0:0:0:
389,243,83837,2,0,L|414:181,2,63.7500024318696,2|2|2,0:0|0:0|0:0,0:0:0:0:
101,237,84253,2,0,L|-13:237,1,101.999996887207,8|0,0:0|0:0,0:0:0:0:
110,164,84670,2,0,L|5:88,1,101.999996887207,2|2,1:2|0:0,0:0:0:0:
225,256,85087,5,0,0:0:0:0:
278,229,85191,1,0,0:0:0:0:
225,210,85295,1,0,1:0:0:0:
95,217,85503,2,0,L|71:158,2,63.7500024318696,0|2|2,1:0|0:0|0:0,0:0:0:0:
399,158,85920,2,0,L|518:158,1,101.999996887207,8|0,0:0|0:0,0:0:0:0:
390,95,86337,2,0,L|483:55,1,101.999996887207,2|8,0:0|0:3,0:0:0:0:
201,289,86753,6,0,L|201:207,2,63.7500024318696,0|0|0,1:0|0:0|0:0,0:0:0:0:
350,228,87170,2,0,L|368:158,2,63.7500024318696,2|2|2,0:3|0:3|0:3,0:0:0:0:
65,323,87587,2,0,L|63:198,1,101.999996887207,8|0,0:0|0:0,0:0:0:0:
237,214,88003,2,0,L|238:335,1,101.999996887207,0|2,1:0|0:3,0:0:0:0:
104,303,88420,5,2,0:3:0:0:
173,291,88524,1,8,0:0:0:0:
263,228,88732,1,2,0:3:0:0:
185,248,88836,1,0,1:0:0:0:
114,215,88940,1,2,0:3:0:0:
80,145,89044,1,2,0:3:0:0:
375,171,89253,2,0,P|445:228|367:274,1,191.250007295609,8|0,0:0|0:0,0:0:0:0:
76,318,90087,5,0,1:0:0:0:
172,312,90295,2,0,L|172:263,1,31.8750012159348,0|2,0:0|0:0,0:0:0:0:
90,196,90607,2,0,L|90:141,1,31.8750012159348,2|0,0:0|1:0,0:0:0:0:
386,160,90920,2,0,L|386:264,1,63.7500024318696,8|0,0:0|0:0,0:0:0:0:
196,237,91337,6,0,L|196:145,1,63.7500024318696,0|0,1:0|0:0,0:0:0:0:
339,108,91753,2,0,L|120:105,2,203.999993774414,0|0|10,0:0|1:0|0:0,0:0:0:0:
64,281,93003,2,0,L|23:179,1,101.999996887207,8|8,0:3|0:0,0:0:0:0:
302,173,93420,5,0,1:0:0:0:
256,192,93628,12,0,95503,0:0:0:0:
