osu file format v14

[General]
AudioFilename: audio.mp3
AudioLeadIn: 0
PreviewTime: 45545
Countdown: 0
SampleSet: Soft
StackLeniency: 0.7
Mode: 0
LetterboxInBreaks: 0
WidescreenStoryboard: 0

[Editor]
Bookmarks: 4000,18212,32434,46656,53767,60878,67989,75101,87323
DistanceSpacing: 1.4
BeatDivisor: 4
GridSize: 16
TimelineZoom: 1

[Metadata]
Title:Stay With Me (TV Size)
TitleUnicode:Stay With Me (TV Size)
Artist:Seven Billion Dots
ArtistUnicode:Seven Billion Dots
Creator:Black Man
Version:Extra
Source:GRANBLUE FANTASY The Animation Season 2
Tags:グランブルーファンタジー anime japanese opening fixxis agatsu glaceon gottagof4st stack amity
BeatmapID:2204639
BeatmapSetID:1055103

[Difficulty]
HPDrainRate:6.3
CircleSize:4.3
OverallDifficulty:8.3
ApproachRate:9
SliderMultiplier:1.4
SliderTickRate:1

[Events]
//Background and Video events
0,0,"thumb-1920-877952.jpg",0,0
Video,100,"stand+by+me+oneeegai.mp4"
//Break Periods
//Storyboard Layer 0 (Background)
//Storyboard Layer 1 (Fail)
//Storyboard Layer 2 (Pass)
//Storyboard Layer 3 (Foreground)
//Storyboard Layer 4 (Overlay)
//Storyboard Sound Samples

[TimingPoints]
4010,444.444444444444,4,2,1,60,1,0
4010,-40,4,2,1,60,0,0
10232,-52.6315789473684,4,2,1,60,0,0
11121,-40,4,2,1,60,0,0
18232,-90.9090909090909,4,2,2,30,0,0
21787,-71.4285714285714,4,2,2,30,0,0
32454,-71.4285714285714,4,2,1,40,0,0
46676,-37.037037037037,4,2,1,60,0,0
75121,-66.6666666666667,4,2,1,50,0,0
87343,-111.111111111111,4,2,1,35,0,0

[Colours]
Combo1 : 0,132,0
Combo2 : 0,122,244
Combo3 : 192,192,192

[HitObjects]
9,324,3121,6,0,P|60:313|104:370,1,105,0|0,0:0|0:0,0:0:0:0:
109,371,3565,2,0,P|117:323|127:261,1,105,0|0,0:0|0:0,0:0:0:0:
215,181,4010,2,0,B|265:159|314:187|286:209|342:242|401:209,1,175,4|0,1:0|0:0,0:0:0:0:
440,156,4343,1,0,1:0:0:0:
437,143,4454,2,0,P|406:130|348:153,1,87.4999999999999,8|0,1:0|0:0,0:0:0:0:
250,260,4676,2,0,P|219:273|161:250,1,87.4999999999999,0|0,1:0|0:0,0:0:0:0:
74,134,4898,2,0,P|118:154|135:208,1,87.4999999999999,0|0,1:0|0:0,0:0:0:0:
84,324,5121,5,0,1:0:0:0:
13,349,5232,1,0,1:0:0:0:
86,341,5343,2,0,L|192:363,1,87.4999999999999,8|0,1:0|0:0,0:0:0:0:
214,190,5565,2,0,L|309:178,1,87.4999999999999,0|8,1:0|1:0,0:0:0:0:
448,350,5787,6,0,P|397:276|311:290,1,175,4|0,1:0|0:0,0:0:0:0:
257,327,6121,1,8,1:0:0:0:
52,205,6232,6,0,B|135:191|135:191|139:197|139:197|246:181,1,175,0|8,1:0|1:0,0:0:0:0:
291,205,6565,1,0,0:0:0:0:
431,99,6676,6,0,P|395:90|343:127,1,87.4999999999999,0|0,1:0|0:0,0:0:0:0:
394,247,6898,2,0,P|430:256|482:219,1,87.4999999999999,2|0,1:0|0:0,0:0:0:0:
297,194,7121,2,0,L|191:213,1,87.4999999999999,8|0,1:0|0:0,0:0:0:0:
89,101,7343,1,2,1:0:0:0:
151,43,7454,1,8,1:0:0:0:
154,158,7565,6,0,P|65:188|20:47,1,262.5,4|8,1:0|1:0,0:0:0:0:
241,119,8009,6,0,B|209:53|129:37|70:118,1,175,0|8,1:0|1:0,0:0:0:0:
218,333,8343,1,0,0:0:0:0:
223,321,8454,2,0,B|255:223,1,87.4999999999999,0|0,1:0|0:0,0:0:0:0:
86,252,8676,5,0,1:0:0:0:
108,323,8787,1,0,1:0:0:0:
92,244,8898,2,0,L|71:140,1,87.4999999999999,8|0,1:0|0:0,0:0:0:0:
191,124,9121,2,0,L|221:25,1,87.4999999999999,0|8,1:0|1:0,0:0:0:0:
426,151,9343,6,0,B|371:131|326:162|349:178|304:202|257:186,2,175,4|0|8,1:0|1:0|1:0,0:0:0:0:
507,63,9898,1,0,0:0:0:0:
501,52,10009,6,0,L|389:70,1,87.4999999999999,0|8,1:0|1:0,0:0:0:0:
481,256,10232,2,0,B|377:233|377:233|374:222|374:222|268:198,1,199.499994672775,0|0,1:0|0:0,0:0:0:0:
181,293,10676,2,0,B|111:304|29:317,1,132.999996448517,0|0,1:0|1:0,0:0:0:0:
29,305,11009,1,8,1:0:0:0:
37,288,11121,6,0,B|143:270|96:329|233:328,1,175,4|0,1:0|0:0,0:0:0:0:
303,234,11454,1,0,1:0:0:0:
294,220,11565,2,0,B|251:208|251:208|194:242,1,87.5,8|0,1:0|0:0,0:0:0:0:
324,371,11787,2,0,B|370:376|370:376|417:339,1,87.5,0|0,1:0|0:0,0:0:0:0:
512,180,12009,6,0,L|397:158,1,87.5,0|0,1:0|0:0,0:0:0:0:
270,13,12232,1,0,1:0:0:0:
246,81,12343,1,0,1:0:0:0:
305,126,12454,2,0,P|341:110|355:63,1,87.5,8|0,1:0|0:0,0:0:0:0:
184,180,12676,2,0,P|148:164|134:117,1,87.5,8|0,1:0|1:0,0:0:0:0:
268,263,12898,6,0,B|237:149|294:195|246:76,1,175,4|0,1:0|0:0,0:0:0:0:
178,264,13232,1,8,1:0:0:0:
180,277,13343,2,0,L|206:364,1,87.5,0|0,1:0|0:0,0:0:0:0:
352,279,13565,2,0,L|326:366,1,87.5,8|0,1:0|0:0,0:0:0:0:
493,196,13787,6,0,B|452:182|452:182|399:200,1,87.5,8|0,1:0|0:0,0:0:0:0:
262,270,14009,1,0,1:0:0:0:
218,205,14121,1,8,1:0:0:0:
254,137,14232,2,0,L|353:162,1,87.5,0|0,1:0|0:0,0:0:0:0:
100,258,14454,2,0,L|-6:278,1,87.5,0|8,1:0|1:0,0:0:0:0:
10,84,14676,6,0,P|96:122|158:61,1,175,4|0,1:0|0:0,0:0:0:0:
192,14,15009,1,8,1:0:0:0:
334,135,15121,2,0,B|219:138|285:188|158:196,1,175,0|8,1:0|1:0,0:0:0:0:
265,328,15454,5,0,1:0:0:0:
274,339,15565,2,0,B|381:355,1,87.5,0|0,1:0|0:0,0:0:0:0:
463,273,15787,1,0,1:0:0:0:
493,205,15898,1,0,1:0:0:0:
452,142,16009,6,0,P|373:157|266:176,1,175,8|0,1:0|1:0,0:0:0:0:
135,130,16343,1,8,1:0:0:0:
150,126,16454,2,0,P|201:188|148:277,1,175,0|0,1:0|0:0,0:0:0:0:
21,307,16787,1,8,1:0:0:0:
15,317,16898,6,0,B|127:311|69:364|224:371,1,175,0|8,1:0|1:0,0:0:0:0:
297,290,17232,1,0,1:0:0:0:
296,308,17343,2,0,P|332:330|377:273,1,87.5,0|0,1:0|0:0,0:0:0:0:
512,358,17565,2,0,P|461:369|404:383,1,87.5,0|0,1:0|0:0,0:0:0:0:
369,214,17787,5,8,1:0:0:0:
406,149,17898,1,8,1:0:0:0:
482,165,18009,1,0,1:0:0:0:
492,241,18121,1,0,1:0:0:0:
422,269,18232,6,0,L|401:81,2,154.000004699707,2|2|2,1:0|1:0|1:0,0:0:0:0:
355,343,19343,1,2,0:0:0:0:
284,310,19565,2,0,L|288:213,1,77.0000023498536,2|2,1:0|0:0,0:0:0:0:
160,195,20009,6,0,L|171:8,2,154.000004699707,2|2|2,1:0|1:0|1:0,0:0:0:0:
239,119,21121,1,2,0:0:0:0:
382,232,21343,2,0,L|389:149,1,77.0000023498536,2|2,1:0|0:0,0:0:0:0:
477,37,21787,6,0,B|341:37|408:96|285:102,1,195.999994018555,2|8,1:0|1:0,0:0:0:0:
225,228,22454,1,2,0:0:0:0:
214,85,22676,1,2,1:0:0:0:
311,189,22898,1,2,0:0:0:0:
163,163,23121,1,2,1:0:0:0:
303,102,23343,1,2,0:0:0:0:
186,5,23565,5,2,1:0:0:0:
259,25,23787,1,2,0:0:0:0:
266,32,23898,1,0,0:0:0:0:
30,124,24232,6,0,B|130:107|83:159|200:149,1,146.999995513916,2|0,0:0|0:0,0:0:0:0:
191,172,24676,2,0,P|246:175|278:142,1,97.9999970092774,2|2,0:0|1:0,0:0:0:0:
321,91,25121,1,2,0:0:0:0:
352,90,25232,1,0,0:0:0:0:
373,112,25343,6,0,B|355:196|355:196|364:204|364:204|337:317,2,195.999994018555,2|2|2,1:0|1:0|1:0,0:0:0:0:
270,189,26454,1,2,0:0:0:0:
209,137,26676,2,0,L|188:35,1,97.9999970092774,2|2,1:0|0:0,0:0:0:0:
82,18,27121,6,0,B|98:101|98:101|89:109|89:109|114:223,2,195.999994018555,2|2|2,1:0|1:0|1:0,0:0:0:0:
19,93,28232,1,2,0:0:0:0:
176,129,28454,2,0,L|193:17,1,97.9999970092774,2|2,1:0|0:0,0:0:0:0:
206,221,28898,6,0,P|146:239|99:134,1,195.999994018555,2|2,1:0|1:0,0:0:0:0:
257,161,29565,1,2,0:0:0:0:
341,119,29787,1,2,1:0:0:0:
414,184,30009,1,2,0:0:0:0:
512,137,30232,1,2,1:0:0:0:
430,71,30454,1,2,0:0:0:0:
440,263,30676,5,2,1:0:0:0:
512,302,30898,1,2,0:0:0:0:
512,319,31009,1,0,0:0:0:0:
272,175,31343,6,0,B|332:155|332:155|352:170|352:170|442:185,1,146.999995513916,2|0,0:0|0:0,0:0:0:0:
414,166,31787,1,2,0:0:0:0:
476,322,32009,2,0,P|509:279|499:238,1,97.9999970092774,2|2,1:0|0:0,0:0:0:0:
489,227,32343,1,0,0:0:0:0:
473,219,32454,6,0,P|416:256|305:197,2,195.999994018555,0|0|0,1:0|1:0|1:0,0:0:0:0:
232,268,33676,1,0,1:0:0:0:
35,298,34009,1,0,1:0:0:0:
101,358,34232,6,0,B|139:236|83:277|127:133,2,195.999994018555,0|0|0,1:0|1:0|1:0,0:0:0:0:
189,224,35454,1,0,1:0:0:0:
35,111,35787,1,0,1:0:0:0:
93,58,36009,6,0,B|145:34|181:67|181:67|206:116|283:101,2,195.999994018555,0|0|0,1:0|1:0|1:0,0:0:0:0:
252,32,37232,1,0,1:0:0:0:
411,13,37565,1,0,1:0:0:0:
457,78,37787,5,0,1:0:0:0:
322,144,38009,1,0,0:0:0:0:
325,160,38121,1,0,0:0:0:0:
492,229,38454,1,0,0:0:0:0:
412,205,38676,6,0,P|402:140|468:93,2,146.999995513916,0|0|0,1:0|1:0|1:0,0:0:0:0:
511,316,39565,6,0,P|433:332|302:368,2,195.999994018555,0|0|0,1:0|1:0|1:0,0:0:0:0:
271,220,40787,1,0,1:0:0:0:
505,129,41120,1,0,1:0:0:0:
438,79,41343,6,0,B|387:113|398:191|398:191|491:219,2,195.999994018555,0|0|0,1:0|1:0|1:0,0:0:0:0:
326,157,42565,1,0,1:0:0:0:
371,325,42898,1,0,1:0:0:0:
294,353,43121,6,0,B|306:266|306:266|298:259|298:259|315:139,2,195.999994018555,0|0|0,1:0|1:0|1:0,0:0:0:0:
258,106,44343,1,0,1:0:0:0:
1,211,44676,1,0,0:0:0:0:
71,256,44898,5,8,1:0:0:0:
141,217,45121,1,0,1:0:0:0:
151,212,45232,1,8,3:0:0:0:
398,230,45454,5,0,1:0:0:0:
326,194,45565,1,0,1:0:0:0:
247,208,45676,1,8,3:0:0:0:
207,274,45787,1,8,1:0:0:0:
499,237,46676,6,0,B|371:220|436:300|274:283,1,189.000000720978,4|0,0:1|0:0,0:0:0:0:
254,227,47009,1,0,1:0:0:0:
298,160,47121,2,0,B|344:150|344:150|401:176,1,94.5000003604889,8|0,1:0|0:0,0:0:0:0:
198,328,47343,2,0,L|171:227,1,94.5000003604889,0|0,1:0|0:0,0:0:0:0:
373,365,47565,6,0,L|400:264,1,94.5000003604889,0|0,1:0|0:0,0:0:0:0:
318,84,47787,1,0,1:0:0:0:
243,60,47898,1,0,1:0:0:0:
319,100,48009,2,0,P|351:93|422:77,1,94.5000003604889,8|0,1:0|0:0,0:0:0:0:
192,175,48232,2,0,L|97:147,1,94.5000003604889,8|0,1:0|0:0,0:0:0:0:
285,351,48454,6,0,B|306:220|244:271|283:129,1,189.000000720978,4|0,1:0|0:0,0:0:0:0:
408,271,48787,1,0,1:0:0:0:
421,260,48898,2,0,P|430:219|396:172,1,94.5000003604889,8|0,1:0|0:0,0:0:0:0:
169,337,49121,2,0,P|160:296|194:249,1,94.5000003604889,0|0,1:0|0:0,0:0:0:0:
380,375,49343,6,0,L|254:354,1,94.5000003604889,0|0,1:0|0:0,0:0:0:0:
79,226,49565,1,2,0:1:0:0:
11,260,49676,1,0,1:0:0:0:
78,206,49787,2,0,L|191:186,1,94.5000003604889,8|0,1:0|0:0,0:0:0:0:
261,22,50009,2,0,B|278:69|278:69|242:121,1,94.5000003604889,10|0,1:0|1:0,0:0:0:0:
9,32,50232,6,0,B|86:44|206:63,1,189.000000720978,4|0,1:0|0:0,0:0:0:0:
281,199,50565,1,0,1:0:0:0:
345,154,50676,2,0,P|308:126|238:137,1,94.5000003604889,8|0,1:0|0:0,0:0:0:0:
165,258,50898,2,0,L|195:352,1,94.5000003604889,0|0,1:0|0:0,0:0:0:0:
3,232,51121,2,0,P|40:204|110:215,1,94.5000003604889,0|0,1:0|0:0,0:0:0:0:
273,282,51343,5,2,1:0:0:0:
347,314,51454,1,0,1:0:0:0:
416,276,51565,2,0,L|432:171,1,94.5000003604889,8|0,1:0|0:0,0:0:0:0:
304,26,51787,2,0,L|320:131,1,94.5000003604889,2|0,1:0|0:0,0:0:0:0:
489,62,52009,6,0,P|403:12|294:60,1,189.000000720978,4|0,1:0|0:0,0:0:0:0:
123,158,52343,1,0,1:0:0:0:
129,170,52454,2,0,B|241:166|191:229|303:228,1,189.000000720978,8|0,1:0|1:0,0:0:0:0:
474,361,52787,1,0,0:0:0:0:
485,348,52898,2,0,P|462:294|406:280,1,94.5000003604889,8|0,1:0|0:0,0:0:0:0:
242,331,53121,5,0,1:0:0:0:
326,357,53232,1,0,1:0:0:0:
227,341,53343,2,0,P|211:312|235:244,1,94.5000003604889,8|0,1:0|0:0,0:0:0:0:
344,99,53565,5,8,1:0:0:0:
351,174,53676,1,8,1:0:0:0:
362,248,53787,2,0,L|376:25,1,189.000000720978,4|0,1:0|0:0,0:0:0:0:
187,80,54121,1,0,1:0:0:0:
202,152,54232,2,0,P|244:132|264:67,1,94.5000003604889,8|0,1:0|0:0,0:0:0:0:
56,278,54454,2,0,P|109:250|180:274,1,94.5000003604889,0|0,1:0|0:0,0:0:0:0:
97,129,54676,6,0,L|8:88,1,94.5000003604889,0|0,1:0|0:0,0:0:0:0:
232,244,54898,1,0,1:0:0:0:
300,275,55009,1,0,1:0:0:0:
358,222,55121,2,0,L|339:123,1,94.5000003604889,8|0,1:0|0:0,0:0:0:0:
138,349,55343,2,0,L|157:250,1,94.5000003604889,8|0,1:0|0:0,0:0:0:0:
254,114,55565,6,0,P|170:170|66:69,1,189.000000720978,4|0,1:0|0:0,0:0:0:0:
97,30,55898,1,8,1:0:0:0:
168,4,56009,2,0,P|182:36|158:104,1,94.5000003604889,0|0,1:0|0:0,0:0:0:0:
34,210,56232,2,0,L|10:110,1,94.5000003604889,8|0,1:0|0:0,0:0:0:0:
223,225,56454,2,0,P|238:152|249:102,1,94.5000003604889,0|0,1:0|0:0,0:0:0:0:
129,195,56676,5,2,1:0:0:0:
146,274,56787,1,0,1:0:0:0:
116,184,56898,2,0,L|91:77,1,94.5000003604889,8|0,1:0|0:0,0:0:0:0:
298,295,57121,2,0,L|323:188,1,94.5000003604889,10|0,1:0|0:0,0:0:0:0:
455,312,57343,6,0,B|394:290|358:333|379:352|332:390|263:370,1,189.000000720978,4|0,1:0|0:0,0:0:0:0:
74,267,57676,1,0,1:0:0:0:
115,204,57787,2,0,P|150:182|223:200,1,94.5000003604889,8|0,1:0|0:0,0:0:0:0:
217,301,58009,2,0,P|176:324|130:319,1,94.5000003604889,0|0,1:0|0:0,0:0:0:0:
26,174,58232,6,0,L|49:76,1,94.5000003604889,8|0,1:0|0:0,0:0:0:0:
240,33,58454,1,2,0:1:0:0:
277,103,58565,1,0,1:0:0:0:
227,25,58676,2,0,P|180:19|112:58,1,94.5000003604889,8|0,1:0|0:0,0:0:0:0:
259,198,58898,2,0,L|391:223,1,94.5000003604889,2|0,1:0|0:0,0:0:0:0:
503,48,59121,6,0,P|392:73|384:157,1,189.000000720978,4|0,1:0|0:0,0:0:0:0:
291,379,59454,1,8,1:0:0:0:
288,371,59565,2,0,P|274:279|256:160,1,189.000000720978,0|8,1:0|1:0,0:0:0:0:
501,241,59898,1,0,1:0:0:0:
512,254,60009,2,0,P|503:294|445:312,1,94.5000003604889,8|0,1:0|0:0,0:0:0:0:
367,140,60232,2,0,L|472:159,1,94.5000003604889,8|0,1:0|0:0,0:0:0:0:
334,271,60454,5,8,1:0:0:0:
253,241,60565,1,0,1:0:0:0:
180,293,60676,1,2,0:1:0:0:
99,241,60787,1,0,1:0:0:0:
20,372,60898,6,0,B|141:366|85:318|201:302,1,189.000000720978,4|0,1:0|0:0,0:0:0:0:
240,167,61232,1,0,1:0:0:0:
168,140,61343,2,0,L|63:164,1,94.5000003604889,8|0,1:0|0:0,0:0:0:0:
242,357,61565,2,0,L|347:381,1,94.5000003604889,0|0,1:0|0:0,0:0:0:0:
489,287,61787,6,0,P|445:250|434:196,1,94.5000003604889,0|0,1:0|0:0,0:0:0:0:
316,203,62009,1,0,1:0:0:0:
274,273,62121,1,0,1:0:0:0:
329,201,62232,2,0,L|310:104,1,94.5000003604889,8|0,1:0|0:0,0:0:0:0:
469,61,62454,2,0,L|450:158,1,94.5000003604889,8|0,1:0|0:0,0:0:0:0:
274,13,62676,6,0,B|389:5|351:77|481:52,1,189.000000720978,4|0,1:0|0:0,0:0:0:0:
247,176,63009,1,8,1:0:0:0:
229,173,63121,2,0,P|206:130|211:86,1,94.5000003604889,0|0,1:0|0:0,0:0:0:0:
385,259,63343,6,0,P|354:270|266:296,1,94.5000003604889,8|0,1:0|0:0,0:0:0:0:
107,177,63565,2,0,L|12:156,1,94.5000003604889,0|0,1:0|0:0,0:0:0:0:
138,353,63787,1,2,0:1:0:0:
210,330,63898,1,0,1:0:0:0:
127,363,64009,2,0,P|98:321|99:271,1,94.5000003604889,8|0,1:0|0:0,0:0:0:0:
220,158,64232,2,0,P|228:113|206:69,1,94.5000003604889,2|0,1:0|1:0,0:0:0:0:
24,234,64454,6,2,P|36:130|48:42,1,189.000000720978,4|0,1:0|0:0,0:0:0:0:
193,232,64787,1,0,1:0:0:0:
190,245,64898,2,0,B|143:260|143:260|101:238,1,94.5000003604889,8|0,1:0|0:0,0:0:0:0:
184,69,65121,2,0,B|233:58|233:58|273:76,1,94.5000003604889,0|0,1:0|0:0,0:0:0:0:
371,248,65343,6,0,L|282:219,1,94.5000003604889,0|0,1:0|0:0,0:0:0:0:
349,50,65565,1,0,1:0:0:0:
420,22,65676,1,0,1:0:0:0:
483,70,65787,2,0,P|486:117|445:156,1,94.5000003604889,8|0,1:0|0:0,0:0:0:0:
265,111,66009,2,0,L|250:5,1,94.5000003604889,0|0,1:0|0:0,0:0:0:0:
101,137,66232,6,0,B|210:133|162:198|290:202,1,189.000000720978,4|0,1:0|0:0,0:0:0:0:
23,288,66565,1,8,1:0:0:0:
22,266,66676,2,0,P|82:249|177:331,1,189.000000720978,0|8,1:0|1:0,0:0:0:0:
325,366,67009,1,0,1:0:0:0:
339,353,67121,2,0,L|356:244,1,94.5000003604889,8|0,1:0|0:0,0:0:0:0:
151,134,67343,5,0,1:0:0:0:
174,213,67454,1,0,1:0:0:0:
160,113,67565,2,0,P|210:104|261:126,1,94.5000003604889,8|0,1:0|0:0,0:0:0:0:
487,222,67787,5,0,1:0:0:0:
429,169,67898,1,0,1:0:0:0:
352,186,68009,2,0,B|321:311|397:249|359:400,1,189.000000720978,4|0,1:0|0:0,0:0:0:0:
233,371,68343,1,0,1:0:0:0:
178,314,68454,2,0,L|197:216,1,94.5000003604889,8|0,1:0|0:0,0:0:0:0:
66,224,68676,2,0,L|47:126,1,94.5000003604889,0|0,1:0|0:0,0:0:0:0:
265,120,68898,6,0,L|285:22,1,94.5000003604889,0|0,1:0|0:0,0:0:0:0:
457,100,69121,1,0,1:0:0:0:
496,170,69232,1,0,1:0:0:0:
460,237,69343,2,0,P|423:257|359:243,1,94.5000003604889,8|0,1:0|0:0,0:0:0:0:
187,160,69565,2,0,P|226:137|285:146,1,94.5000003604889,8|0,1:0|0:0,0:0:0:0:
331,326,69787,6,0,P|342:227|354:122,1,189.000000720978,4|0,1:0|0:0,0:0:0:0:
197,241,70121,1,8,1:0:0:0:
194,255,70232,2,0,L|216:352,1,94.5000003604889,0|0,1:0|0:0,0:0:0:0:
22,199,70454,2,0,P|71:172|125:183,1,94.5000003604889,8|0,1:0|0:0,0:0:0:0:
132,330,70676,6,0,P|83:357|29:346,1,94.5000003604889,0|0,1:0|0:0,0:0:0:0:
240,171,70898,1,2,1:0:0:0:
320,198,71009,1,8,1:0:0:0:
244,185,71121,2,0,L|256:88,1,94.5000003604889,0|0,1:0|0:0,0:0:0:0:
114,93,71343,2,0,L|99:-12,1,94.5000003604889,2|0,1:0|0:0,0:0:0:0:
90,256,71565,6,0,B|216:236|161:305|287:302,1,189.000000720978,4|0,1:0|0:0,0:0:0:0:
422,344,71898,1,0,1:0:0:0:
485,300,72009,2,0,P|502:253|463:199,1,94.5000003604889,8|0,1:0|0:0,0:0:0:0:
283,57,72232,2,0,L|405:86,1,94.5000003604889,0|0,1:0|0:0,0:0:0:0:
401,222,72454,2,0,L|268:243,1,94.5000003604889,0|0,1:0|0:0,0:0:0:0:
76,122,72676,1,0,1:0:0:0:
145,85,72787,1,0,1:0:0:0:
213,130,72898,6,0,L|189:235,1,94.5000003604889,8|0,1:0|0:0,0:0:0:0:
28,350,73121,2,0,L|3:240,1,94.5000003604889,8|0,1:0|0:0,0:0:0:0:
163,323,73343,6,0,B|283:306|238:377|384:366,1,189.000000720978,4|0,1:0|0:0,0:0:0:0:
489,185,73676,1,8,1:0:0:0:
484,173,73787,2,0,P|386:148|315:241,1,189.000000720978,0|8,1:0|1:0,0:0:0:0:
426,362,74121,1,0,1:0:0:0:
434,349,74232,6,0,L|458:241,1,94.5000003604889,8|0,1:0|0:0,0:0:0:0:
264,137,74454,2,0,L|240:29,1,94.5000003604889,0|0,1:0|0:0,0:0:0:0:
61,281,74676,5,8,1:0:0:0:
136,311,74788,1,0,1:0:0:0:
189,253,74899,1,8,1:0:0:0:
147,185,75010,1,8,1:0:0:0:
69,203,75121,5,4,1:0:0:0:
224,350,75343,1,2,0:1:0:0:
425,293,75565,1,8,1:0:0:0:
343,361,75787,6,0,P|330:309|316:243,1,105.000004005432,2|0,0:1|1:0,0:0:0:0:
475,136,76232,2,0,P|416:181|324:143,1,157.500006008148,2|2,0:1|0:0,0:0:0:0:
322,152,76676,2,0,L|337:37,1,105.000004005432,2|0,0:1|1:0,0:0:0:0:
197,226,77121,6,0,L|182:111,1,105.000004005432,2|8,0:1|1:0,0:0:0:0:
36,123,77565,2,0,L|51:8,1,105.000004005432,2|0,0:1|1:0,0:0:0:0:
160,38,78009,1,2,0:1:0:0:
0,201,78232,1,8,1:0:0:0:
186,224,78454,2,0,P|174:195|144:171,1,52.5000020027161,2|2,0:1|0:1,0:0:0:0:
171,302,78676,6,0,P|254:275|258:192,1,157.500006008148,0|0,1:0|0:0,0:0:0:0:
248,141,79121,1,8,1:0:0:0:
482,56,79343,2,0,P|413:108|284:45,1,210.000008010865,0|2,0:0|0:1,0:0:0:0:
32,28,80009,1,8,1:0:0:0:
152,235,80232,1,2,0:1:0:0:
179,120,80454,6,0,B|64:105|110:167|4:160,1,157.500006008148,0|0,0:0|0:0,0:0:0:0:
29,148,80898,2,0,P|110:155|219:170,1,157.500006008148,8|0,1:0|0:0,0:0:0:0:
265,202,81343,1,0,1:0:0:0:
487,155,81565,6,0,P|466:129|432:116,1,52.5000020027161,0|0,1:0|0:0,0:0:0:0:
369,120,81787,2,0,P|335:147|329:180,1,52.5000020027161,10|0,1:0|0:0,0:0:0:0:
345,228,82009,1,0,1:0:0:0:
406,273,82121,1,8,1:0:0:0:
476,237,82232,5,4,1:0:0:0:
297,315,82454,1,2,1:0:0:0:
168,179,82676,1,8,1:1:0:0:
55,318,82898,2,0,P|88:355|157:352,1,105.000004005432,2|0,1:1|1:0,0:0:0:0:
246,153,83343,2,0,B|255:248|207:219|223:318,1,157.500006008148,2|0,1:0|0:0,0:0:0:0:
296,334,83787,5,0,1:0:0:0:
334,346,83898,1,8,1:0:0:0:
373,330,84009,1,0,1:0:0:0:
430,190,84232,2,0,P|376:191|340:239,1,105.000004005432,2|8,1:0|1:0,0:0:0:0:
201,77,84676,5,2,1:0:0:0:
251,60,84787,1,8,1:0:0:0:
292,80,84898,1,0,1:0:0:0:
114,243,85121,1,0,1:0:0:0:
24,127,85343,6,0,L|91:142,1,52.5000020027161,8|0,1:0|0:0,0:0:0:0:
148,161,85565,2,0,L|215:176,1,52.5000020027161,0|0,1:0|0:0,0:0:0:0:
11,137,85787,2,0,P|103:88|85:34,1,157.500006008148,4|0,1:0|1:0,0:0:0:0:
38,6,86232,1,8,1:0:0:0:
111,254,86454,1,0,1:0:0:0:
340,216,86676,5,8,1:0:0:0:
286,166,86787,1,0,1:0:0:0:
214,152,86898,1,0,1:0:0:0:
147,184,87009,1,0,1:0:0:0:
122,260,87121,1,8,1:0:0:0:
44,25,87343,6,0,B|87:20|87:20|91:16|91:16|122:13,1,62.9999980773926,8|0,1:0|0:0,0:0:0:0:
