osu file format v14

[General]
AudioFilename: audio.mp3
AudioLeadIn: 0
PreviewTime: 22727
Countdown: 0
SampleSet: Soft
StackLeniency: 0.4
Mode: 0
LetterboxInBreaks: 0
WidescreenStoryboard: 1

[Editor]
DistanceSpacing: 1
BeatDivisor: 4
GridSize: 4
TimelineZoom: 1

[Metadata]
Title:how to create the weeknd's "blinding lights"
TitleUnicode:how to create the weeknd's "blinding lights"
Artist:Seth Everman
ArtistUnicode:Seth Everman
Creator:browiec
Version:insane
Source:
Tags:electronic instrumental meme a-ha take on me youtube
BeatmapID:2514776
BeatmapSetID:1207609

[Difficulty]
HPDrainRate:5
CircleSize:3.8
OverallDifficulty:8
ApproachRate:8.7
SliderMultiplier:1.7
SliderTickRate:1

[Events]
//Background and Video events
0,0,"MARIO AND BOWSER KISSING (ILLEGAL).png",0,0
Video,0,"how_to_create_the_weeknds_blinding_lights_1 (1).mp4"
//Break Periods
//Storyboard Layer 0 (Background)
//Storyboard Layer 1 (Fail)
//Storyboard Layer 2 (Pass)
//Storyboard Layer 3 (Foreground)
//Storyboard Layer 4 (Overlay)
//Storyboard Sound Samples

[TimingPoints]
710,350.877192982456,4,2,1,50,1,0
710,-153.846153846154,4,2,1,50,0,0
885,-153.846153846154,4,2,1,5,0,0
1411,-153.846153846154,4,2,1,50,0,0
1587,-153.846153846154,4,2,1,5,0,0
2113,-153.846153846154,4,2,1,50,0,0
2288,-153.846153846154,4,2,1,5,0,0
2815,-153.846153846154,4,2,1,50,0,0
2990,-153.846153846154,4,2,1,5,0,0
3166,350.877192982456,4,2,1,50,1,0
3166,-153.846153846154,4,2,1,50,0,0
11587,-133.333333333333,4,2,1,60,0,0
17201,-133.333333333333,4,2,1,65,0,0
21411,-200,4,2,1,50,0,0
22815,-100,4,2,1,70,0,0
32639,-200,4,2,1,50,0,0
34043,-100,4,2,1,70,0,0

[Colours]
Combo1 : 255,0,0
Combo2 : 0,255,0
Combo3 : 255,255,17
Combo4 : 0,0,255

[HitObjects]
328,72,710,6,0,L|336:148,1,55.2499974708558,0|0,0:2|0:2,0:2:0:0:
316,84,1411,2,0,L|324:160,1,55.2499974708558,0|0,0:2|0:2,0:2:0:0:
304,96,2113,2,0,L|312:172,1,55.2499974708558,0|0,0:2|0:2,0:2:0:0:
292,108,2815,2,0,L|300:184,1,55.2499974708558,0|0,0:2|0:2,0:2:0:0:
420,188,3166,6,0,L|412:252,3,55.2499974708558,2|0|2|0,0:2|0:2|0:2|0:2,0:2:0:0:
464,320,3867,2,0,P|424:332|348:304,1,110.499994941712,2|0,0:2|0:2,0:2:0:0:
359,313,4394,1,0,0:2:0:0:
290,217,4569,6,0,L|298:153,3,55.2499974708558,2|0|2|0,0:2|0:2|0:2|0:2,0:2:0:0:
344,80,5271,2,0,P|290:67|239:86,1,110.499994941712,2|0,0:2|0:2,0:2:0:0:
239,86,5797,1,0,0:2:0:0:
184,188,5973,6,0,L|190:242,1,55.2499974708558,2|0,0:2|0:2,0:2:0:0:
88,288,6324,2,0,L|81:233,1,55.2499974708558,2|0,0:2|0:2,0:2:0:0:
0,144,6674,2,0,B|44:152|44:152|68:144|68:144|112:152,1,110.499994941712,2|0,0:2|0:2,0:2:0:0:
184,188,7201,1,0,0:2:0:0:
272,104,7376,6,0,L|265:158,1,55.2499974708558,2|0,0:2|0:2,0:2:0:0:
368,204,7727,2,0,L|374:149,1,55.2499974708558,2|0,0:2|0:2,0:2:0:0:
456,60,8078,2,0,B|412:68|412:68|388:60|388:60|344:68,1,110.499994941712,2|0,0:2|0:2,0:2:0:0:
272,104,8604,1,0,0:2:0:0:
172,64,8780,6,0,P|188:104|188:128,1,55.2499974708558,2|0,3:2|0:2,0:2:0:0:
64,160,9131,2,0,P|90:126|111:114,1,55.2499974708558,2|0,0:2|0:2,0:2:0:0:
192,244,9481,2,0,P|136:228|68:260,1,110.499994941712,2|0,3:2|0:2,0:2:0:0:
136,360,10008,1,0,0:2:0:0:
264,300,10183,6,0,P|280:260|280:236,1,55.2499974708558,2|0,3:2|0:2,0:2:0:0:
204,128,10534,2,0,P|230:161|251:173,1,55.2499974708558,2|0,0:2|0:2,0:2:0:0:
348,80,10885,1,2,3:2:0:0:
232,40,11060,1,0,3:2:0:0:
328,168,11236,2,0,L|404:160,1,55.2499974708558,0|0,0:2|0:2,0:0:0:0:
436,296,11587,6,0,B|372:280|384:328|308:312,1,127.500004863739,2|0,3:2|0:2,0:2:0:0:
208,244,12113,1,0,0:2:0:0:
312,184,12288,2,0,B|384:168|368:216|440:200,1,127.500004863739,2|0,3:2|0:2,0:2:0:0:
496,96,12815,1,2,0:2:0:0:
452,212,12990,5,2,3:2:0:0:
396,84,13166,2,0,P|364:76|328:84,1,63.7500024318696,2|0,0:2|0:2,0:2:0:0:
250,181,13517,2,0,P|281:175|311:183,1,63.7500024318696,2|0,0:2|3:2,0:2:0:0:
304,320,13867,2,0,P|283:295|275:265,1,63.7500024318696,2|0,3:2|0:2,0:0:0:0:
192,128,14218,1,0,0:2:0:0:
132,264,14394,6,0,B|56:288|56:288|-4:264,1,127.500004863739,2|0,3:2|0:2,0:2:0:0:
68,140,14920,1,0,0:2:0:0:
204,212,15096,2,0,B|280:236|280:236|340:212,1,127.500004863739,2|0,3:2|0:2,0:2:0:0:
272,88,15622,1,2,0:2:0:0:
408,160,15797,5,2,3:2:0:0:
360,32,15973,2,0,L|352:104,1,63.7500024318696,2|0,0:2|0:2,0:2:0:0:
492,160,16324,2,0,L|484:96,1,63.7500024318696,2|0,0:2|3:2,0:2:0:0:
336,116,16674,1,2,3:2:0:0:
415,223,16850,2,0,L|407:159,1,63.7500024318696,0|0,0:2|0:2,0:2:0:0:
328,28,17201,5,2,3:2:0:0:
272,172,17376,2,0,P|236:180|200:172,1,63.7500024318696,2|0,0:2|0:2,0:2:0:0:
200,40,17727,2,0,P|224:67|236:102,1,63.7500024318696,2|0,0:2|3:2,0:2:0:0:
116,164,18078,2,0,P|92:136|124:44,1,127.500004863739,2|0,0:2|0:2,0:2:0:0:
240,120,18604,5,2,3:2:0:0:
152,244,18780,2,0,P|120:252|80:244,1,63.7500024318696,2|0,0:2|0:2,0:2:0:0:
212,328,19131,2,0,P|244:336|284:328,1,63.7500024318696,2|0,0:2|3:2,0:0:0:0:
284,192,19481,2,0,P|261:215|248:254,1,63.7500024318696,2|0,3:2|0:2,0:2:0:0:
360,328,19832,1,2,0:2:0:0:
364,156,20008,6,0,P|340:124|244:116,1,127.500004863739,0|0,3:2|0:2,0:2:0:0:
164,224,20534,1,0,0:2:0:0:
172,76,20709,2,0,L|180:160,1,63.7500024318696,0|0,3:2|0:2,0:2:0:0:
76,224,21060,2,0,L|84:140,1,63.7500024318696,0|0,0:2|0:2,0:2:0:0:
252,200,21411,6,0,B|288:196|304:164|304:164|320:196|356:204,2,127.5,2|2|2,0:2|0:2|0:2,0:2:0:0:
228,28,22815,6,0,L|236:124,1,85,6|0,3:2|0:2,0:2:0:0:
80,208,23166,2,0,L|88:112,1,85,8|0,0:2|0:2,0:2:0:0:
252,200,23517,2,0,L|260:296,1,85,2|0,3:2|0:2,0:2:0:0:
100,352,23867,1,8,0:2:0:0:
169,194,24043,1,2,0:2:0:0:
232,364,24218,5,2,3:2:0:0:
81,242,24394,1,2,0:2:0:0:
268,188,24569,1,8,0:2:0:0:
116,332,24745,2,0,P|72:340|32:324,1,85,2|0,0:2|3:2,0:2:0:0:
16,152,25095,2,0,B|109:127|93:191|181:163,1,170,2|0,3:2|0:2,0:0:0:0:
148,0,25622,6,0,L|140:92,1,85,2|0,3:2|0:2,0:2:0:0:
280,220,25973,2,0,L|272:128,1,85,8|0,0:2|0:2,0:2:0:0:
412,16,26324,2,0,L|404:108,1,85,2|0,3:2|0:2,0:2:0:0:
364,280,26674,1,8,0:2:0:0:
260,120,26850,1,2,0:2:0:0:
436,215,27025,5,2,3:2:0:0:
328,60,27201,1,2,0:2:0:0:
271,241,27376,1,8,0:2:0:0:
415,86,27552,2,0,P|463:78|507:94,1,85,2|0,0:2|3:2,0:2:0:0:
512,264,27902,2,0,B|418:239|434:303|346:275,1,170,2|0,3:2|0:2,0:0:0:0:
216,100,28429,5,2,3:2:0:0:
384,196,28604,1,2,0:2:0:0:
223,262,28780,1,8,0:2:0:0:
316,76,28955,2,0,L|308:168,1,85,2|0,0:2|3:2,0:2:0:0:
266,338,29306,1,2,0:2:0:0:
198,167,29481,2,0,L|206:259,1,85,8|0,0:2|0:2,0:2:0:0:
80,376,29832,5,2,3:2:0:0:
55,202,30008,1,2,0:2:0:0:
160,344,30183,1,8,0:2:0:0:
198,167,30359,2,0,P|242:155|282:167,1,85,2|0,0:2|3:2,0:2:0:0:
364,316,30709,2,0,P|320:328|280:316,1,85,2|8,3:2|0:2,0:0:0:0:
372,164,31060,1,2,0:2:0:0:
456,300,31236,6,0,B|448:235|448:235|467:197|467:197|459:132,1,170,0|8,3:2|0:2,0:2:0:0:
359,7,31762,1,0,0:2:0:0:
287,171,31938,2,0,L|379:163,1,85,0|0,3:2|0:2,0:2:0:0:
264,20,32288,2,0,L|172:12,1,85,8|0,0:2|0:2,0:2:0:0:
80,180,32639,6,0,B|116:176|132:144|132:144|148:176|177:182,2,127.5,2|2|2,0:2|0:2|0:2,0:2:0:0:
266,288,34043,5,6,3:2:0:0:
211,101,34218,1,2,0:2:0:0:
357,241,34394,1,10,0:2:0:0:
328,56,34569,2,0,L|320:144,1,85,2|0,0:2|3:2,0:2:0:0:
176,272,34920,2,0,L|168:184,1,85,2|8,0:2|0:2,0:0:0:0:
324,336,35271,6,0,P|276:352|232:344,1,85,2|0,0:2|3:2,0:2:0:0:
330,158,35622,2,0,P|372:154|411:169,1,85,2|8,0:2|0:2,0:2:0:0:
429,354,35973,1,2,0:2:0:0:
272,260,36148,1,2,3:2:0:0:
431,190,36324,1,2,3:2:0:0:
318,355,36499,1,10,0:2:0:0:
246,174,36674,1,2,0:2:0:0:
422,272,36850,5,2,3:2:0:0:
363,84,37025,1,2,0:2:0:0:
272,260,37201,1,10,0:2:0:0:
451,172,37376,2,0,L|459:84,1,85,2|0,0:2|3:2,0:2:0:0:
271,12,37727,2,0,L|279:100,1,85,2|8,0:2|0:2,0:0:0:0:
364,271,38078,6,0,P|408:279|460:263,1,85,2|0,0:2|3:2,0:2:0:0:
361,95,38429,2,0,P|317:87|265:103,1,85,2|8,0:2|0:2,0:2:0:0:
197,263,38780,1,2,0:2:0:0:
128,88,38955,1,2,3:2:0:0:
280,203,39131,1,2,3:2:0:0:
262,10,39306,1,10,0:2:0:0:
141,172,39481,1,2,3:2:0:0:
