osu file format v14

[General]
AudioFilename: audio.mp3
AudioLeadIn: 0
PreviewTime: 22723
Countdown: 0
SampleSet: Normal
StackLeniency: 0.7
Mode: 1
LetterboxInBreaks: 0
WidescreenStoryboard: 1

[Editor]
Bookmarks: 20705
DistanceSpacing: 1
BeatDivisor: 4
GridSize: 32
TimelineZoom: 1

[Metadata]
Title:how to create the weeknd's "blinding lights"
TitleUnicode:how to create the weeknd's "blinding lights"
Artist:Seth Everman
ArtistUnicode:Seth Everman
Creator:Wanpachi
Version:hivipachi's futsuu
Source:
Tags:novelty electronic instrumental meme a-ha take on me hivie cycopton
BeatmapID:2572385
BeatmapSetID:1237608

[Difficulty]
HPDrainRate:7
CircleSize:2
OverallDifficulty:4
ApproachRate:9
SliderMultiplier:1.4
SliderTickRate:1

[Events]
//Background and Video events
0,0,"MARIO AND BOWSER KISSING (ILLEGAL).jpg",0,60
//Break Periods
//Storyboard Layer 0 (Background)
//Storyboard Layer 1 (Fail)
//Storyboard Layer 2 (Pass)
//Storyboard Layer 3 (Foreground)
//Storyboard Layer 4 (Overlay)
//Storyboard Sound Samples

[TimingPoints]
355,350.877192982456,4,1,0,50,1,0
355,-100,4,1,0,50,0,0
3162,-100,4,1,0,60,0,0
11583,-100,4,1,0,70,0,0
22811,-100,4,1,0,80,0,1
32635,-100,4,1,0,80,0,0
34039,-100,4,1,0,80,0,1
39609,-100,4,1,0,80,0,0

[HitObjects]
256,192,705,5,0,0:0:0:0:
256,192,1407,1,0,0:0:0:0:
256,192,2109,1,0,0:0:0:0:
256,192,2811,1,0,0:0:0:0:
256,192,3162,1,8,0:0:0:0:
256,192,3512,1,8,0:0:0:0:
256,192,3863,1,8,0:0:0:0:
256,192,4390,1,0,0:0:0:0:
256,192,4565,1,8,0:0:0:0:
256,192,4916,1,8,0:0:0:0:
256,192,5267,1,8,0:0:0:0:
256,192,5793,1,0,0:0:0:0:
256,192,5969,1,8,0:0:0:0:
256,192,6319,1,8,0:0:0:0:
256,192,6670,1,8,0:0:0:0:
256,192,7197,1,0,0:0:0:0:
256,192,7372,1,8,0:0:0:0:
256,192,7723,1,8,0:0:0:0:
256,192,8074,1,8,0:0:0:0:
256,96,8776,1,4,0:0:0:0:
256,96,9477,1,4,0:0:0:0:
256,96,10179,1,4,0:0:0:0:
256,96,10881,1,4,0:0:0:0:
256,192,11583,1,8,0:0:0:0:
256,192,12284,1,8,0:0:0:0:
256,192,12811,1,0,0:0:0:0:
256,192,12986,1,8,0:0:0:0:
256,192,13512,1,0,0:0:0:0:
256,192,13863,1,0,0:0:0:0:
256,192,14390,1,8,0:0:0:0:
256,192,15091,1,8,0:0:0:0:
256,192,15618,1,0,0:0:0:0:
256,192,15793,1,8,0:0:0:0:
256,192,16319,1,0,0:0:0:0:
256,192,16670,1,0,0:0:0:0:
256,192,17197,1,8,0:0:0:0:
256,192,17723,1,8,0:0:0:0:
256,192,18074,1,0,0:0:0:0:
256,192,18600,1,8,0:0:0:0:
256,192,19126,1,8,0:0:0:0:
256,192,19477,1,0,0:0:0:0:
256,192,19828,1,8,0:0:0:0:
256,192,20004,1,0,0:0:0:0:
256,192,20705,1,0,0:0:0:0:
256,96,21407,1,4,0:0:0:0:
256,96,21933,1,4,0:0:0:0:
256,96,22460,1,4,0:0:0:0:
256,96,22811,1,12,0:0:0:0:
256,192,23512,1,8,0:0:0:0:
256,192,24039,1,0,0:0:0:0:
256,192,24214,1,8,0:0:0:0:
256,192,24390,1,8,0:0:0:0:
256,192,24740,1,0,0:0:0:0:
256,192,25091,1,0,0:0:0:0:
256,192,25267,1,8,0:0:0:0:
256,192,25618,1,8,0:0:0:0:
256,192,26319,1,8,0:0:0:0:
256,192,26846,1,0,0:0:0:0:
256,192,27021,1,0,0:0:0:0:
256,192,27197,1,8,0:0:0:0:
256,192,27547,1,0,0:0:0:0:
256,192,27898,1,0,0:0:0:0:
256,192,28074,1,8,0:0:0:0:
256,192,28425,1,8,0:0:0:0:
256,192,28600,1,8,0:0:0:0:
256,192,28951,1,0,0:0:0:0:
256,192,29302,1,0,0:0:0:0:
256,192,29828,1,8,0:0:0:0:
256,192,30004,1,8,0:0:0:0:
256,192,30354,1,0,0:0:0:0:
256,192,30705,1,0,0:0:0:0:
256,192,31056,1,8,0:0:0:0:
256,192,31232,1,0,0:0:0:0:
256,192,31933,1,0,0:0:0:0:
256,96,32635,1,4,0:0:0:0:
256,96,33162,1,4,0:0:0:0:
256,96,33688,1,4,0:0:0:0:
256,192,34039,1,8,0:0:0:0:
256,192,34390,1,8,0:0:0:0:
256,192,34565,1,0,0:0:0:0:
256,192,35267,1,8,0:0:0:0:
256,192,35618,1,8,0:0:0:0:
256,192,35969,1,0,0:0:0:0:
256,192,36144,1,8,0:0:0:0:
256,192,36319,1,8,0:0:0:0:
256,192,36495,1,0,0:0:0:0:
256,192,36846,1,8,0:0:0:0:
256,192,37197,1,0,0:0:0:0:
256,192,37372,1,8,0:0:0:0:
256,192,37723,1,0,0:0:0:0:
256,192,38074,1,8,0:0:0:0:
256,192,38776,1,8,0:0:0:0:
256,192,38951,1,0,0:0:0:0:
256,192,39126,1,0,0:0:0:0:
256,192,39302,1,8,0:0:0:0:
