osu file format v14

[General]
AudioFilename: audio.mp3
AudioLeadIn: 0
PreviewTime: 22815
Countdown: 0
SampleSet: Soft
StackLeniency: 0.7
Mode: 0
LetterboxInBreaks: 0
WidescreenStoryboard: 1

[Editor]
DistanceSpacing: 2.02
BeatDivisor: 5
GridSize: 4
TimelineZoom: 4.299998

[Metadata]
Title:how to create the weeknd's "blinding lights"
TitleUnicode:how to create the weeknd's "blinding lights"
Artist:Seth Everman
ArtistUnicode:Seth Everman
Creator:Froskya
Version:ligma figures
Source:
Tags:weekend SethEverman synthwave new wave electropop instrumental electronic other meme cover a-ha take on me cough intiaz nyantiaz revialink
BeatmapID:3634185
BeatmapSetID:1226588

[Difficulty]
HPDrainRate:6
CircleSize:4.2
OverallDifficulty:9
ApproachRate:9.4
SliderMultiplier:1.4
SliderTickRate:1

[Events]
//Background and Video events
0,0,"hag colorful.jpg",0,0
//Break Periods
//Storyboard Layer 0 (Background)
//Storyboard Layer 1 (Fail)
//Storyboard Layer 2 (Pass)
//Storyboard Layer 3 (Foreground)
//Storyboard Layer 4 (Overlay)
//Storyboard Sound Samples

[TimingPoints]
710,350.877192982456,4,2,1,50,1,0
710,-125,4,2,1,50,0,0
797,-125,4,2,1,5,0,0
1411,-125,4,2,1,50,0,0
1499,-125,4,2,1,5,0,0
2113,-125,4,2,1,50,0,0
2201,-125,4,2,1,5,0,0
2815,-125,4,2,1,50,0,0
2902,-125,4,2,1,5,0,0
3166,350.877192982456,4,2,1,50,1,0
3166,-125,4,2,1,50,0,0
3604,-125,4,2,1,5,0,0
3692,-125,4,2,1,50,0,0
4306,-125,4,2,1,5,0,0
4394,-125,4,2,1,50,0,0
5008,-125,4,2,1,5,0,0
5095,-125,4,2,1,50,0,0
5709,-125,4,2,1,5,0,0
5797,-125,4,2,1,50,0,0
6411,-125,4,2,1,5,0,0
6499,-125,4,2,1,50,0,0
7113,-125,4,2,1,5,0,0
7201,-125,4,2,1,50,0,0
7815,-125,4,2,1,5,0,0
7902,-125,4,2,1,50,0,0
8516,-125,4,2,1,5,0,0
8604,-125,4,2,1,50,0,0
8780,-100,4,2,1,57,0,0
9657,-100,4,2,1,5,0,0
9832,-100,4,2,1,57,0,0
10885,-50,4,2,1,57,0,0
10973,-50,4,2,1,5,0,0
11060,-50,4,2,1,57,0,0
11148,-50,4,2,1,5,0,0
11236,-100,4,2,1,57,0,0
11587,-90.9090909090909,4,2,1,65,0,0
12201,-90.9090909090909,4,2,1,5,0,0
12288,-90.9090909090909,4,2,1,65,0,0
12727,-90.9090909090909,4,2,1,5,0,0
12815,-90.9090909090909,4,2,1,65,0,0
12902,-90.9090909090909,4,2,1,5,0,0
12990,-90.9090909090909,4,2,1,65,0,0
13078,-90.9090909090909,4,2,1,5,0,0
13165,-90.9090909090909,4,2,1,65,0,0
13429,-90.9090909090909,4,2,1,5,0,0
13516,-90.9090909090909,4,2,1,65,0,0
13604,-90.9090909090909,4,2,1,5,0,0
13692,-45.4545454545455,4,2,1,65,0,0
13780,-45.4545454545455,4,2,1,5,0,0
13867,-30.3030303030303,4,2,1,65,0,0
14394,-90.9090909090909,4,2,1,65,0,0
15008,-90.9090909090909,4,2,1,5,0,0
15095,-90.9090909090909,4,2,1,65,0,0
15534,-90.9090909090909,4,2,1,5,0,0
15622,-90.9090909090909,4,2,1,65,0,0
15709,-90.9090909090909,4,2,1,5,0,0
15797,-90.9090909090909,4,2,1,65,0,0
15885,-90.9090909090909,4,2,1,5,0,0
15973,-90.9090909090909,4,2,1,65,0,0
16236,-90.9090909090909,4,2,1,5,0,0
16323,-90.9090909090909,4,2,1,65,0,0
16411,-90.9090909090909,4,2,1,5,0,0
16499,-45.4545454545455,4,2,1,65,0,0
16587,-45.4545454545455,4,2,1,5,0,0
16674,-30.3030303030303,4,2,1,65,0,0
17201,-86.9565217391304,4,2,1,65,0,0
17288,-86.9565217391304,4,2,1,5,0,0
17376,-86.9565217391304,4,2,1,65,0,0
18692,-86.9565217391304,4,2,1,5,0,0
18780,-86.9565217391304,4,2,1,65,0,0
21411,-66.6666666666667,4,2,1,80,0,0
21762,-66.6666666666667,4,2,1,5,0,0
21937,-111.111111111111,4,2,1,65,0,0
22288,-111.111111111111,4,2,1,5,0,0
22464,-133.333333333333,4,2,1,50,0,0
22639,-133.333333333333,4,2,1,5,0,0
22815,-83.3333333333333,4,2,1,70,0,0
23078,-83.3333333333333,4,2,1,5,0,0
23165,-83.3333333333333,4,2,1,70,0,0
23780,-83.3333333333333,4,2,1,5,0,0
23867,-83.3333333333333,4,2,1,70,0,0
24130,-83.3333333333333,4,2,1,5,0,0
24218,-83.3333333333333,4,2,1,70,0,0
24306,-83.3333333333333,4,2,1,5,0,0
24394,-83.3333333333333,4,2,1,70,0,0
25534,-83.3333333333333,4,2,1,5,0,0
25622,-83.3333333333333,4,2,1,70,0,0
25885,-83.3333333333333,4,2,1,5,0,0
25973,-83.3333333333333,4,2,1,70,0,0
26587,-83.3333333333333,4,2,1,5,0,0
26674,-83.3333333333333,4,2,1,70,0,0
26937,-83.3333333333333,4,2,1,5,0,0
27025,-83.3333333333333,4,2,1,70,0,0
27113,-83.3333333333333,4,2,1,5,0,0
27201,-83.3333333333333,4,2,1,70,0,0
28341,-83.3333333333333,4,2,1,5,0,0
28429,-83.3333333333333,4,2,1,70,0,0
28516,-83.3333333333333,4,2,1,5,0,0
28604,-83.3333333333333,4,2,1,70,0,0
29744,-83.3333333333333,4,2,1,5,0,0
29832,-83.3333333333333,4,2,1,70,0,0
29920,-83.3333333333333,4,2,1,5,0,0
30008,-83.3333333333333,4,2,1,70,0,0
32639,-66.6666666666667,4,2,1,80,0,0
32990,-66.6666666666667,4,2,1,5,0,0
33165,-111.111111111111,4,2,1,65,0,0
33516,-111.111111111111,4,2,1,5,0,0
33692,-133.333333333333,4,2,1,50,0,0
33867,-133.333333333333,4,2,1,5,0,0
34043,-41.6666666666667,4,2,1,80,0,1
34130,-41.6666666666667,4,2,1,5,0,1
34218,-41.6666666666667,4,2,1,80,0,1
34306,-41.6666666666667,4,2,1,5,0,1
34394,-41.6666666666667,4,2,1,80,0,1
34481,-41.6666666666667,4,2,1,5,0,1
34569,-41.6666666666667,4,2,1,80,0,1
35008,-41.6666666666667,4,2,1,5,0,1
35095,-41.6666666666667,4,2,1,80,0,1
35358,-41.6666666666667,4,2,1,5,0,1
35446,-41.6666666666667,4,2,1,80,0,1
35709,-41.6666666666667,4,2,1,5,0,1
35797,-41.6666666666667,4,2,1,80,0,1
36060,-41.6666666666667,4,2,1,5,0,1
36148,-29.4117647058824,4,2,1,85,0,1
36236,-29.4117647058824,4,2,1,5,0,1
36323,-27.027027027027,4,2,1,85,0,1
36411,-27.027027027027,4,2,1,5,0,1
36499,-25,4,2,1,85,0,1
36587,-25,4,2,1,5,0,1
36674,-22.2222222222222,4,2,1,85,0,1
36762,-22.2222222222222,4,2,1,5,0,1
36850,-29.4117647058824,4,2,1,80,0,1
36937,-29.4117647058824,4,2,1,5,0,1
37025,-29.4117647058824,4,2,1,80,0,1
37113,-29.4117647058824,4,2,1,5,0,1
37201,-29.4117647058824,4,2,1,80,0,1
37288,-29.4117647058824,4,2,1,5,0,1
37376,-29.4117647058824,4,2,1,80,0,1
37815,-29.4117647058824,4,2,1,5,0,1
37902,-29.4117647058824,4,2,1,80,0,1
38165,-29.4117647058824,4,2,1,5,0,1
38253,-29.4117647058824,4,2,1,80,0,1
38516,-29.4117647058824,4,2,1,5,0,1
38604,-29.4117647058824,4,2,1,80,0,1
38867,-29.4117647058824,4,2,1,5,0,1
38955,-25,4,2,1,85,0,1
39043,-25,4,2,1,5,0,1
39130,-20,4,2,1,90,0,1
39218,-20,4,2,1,5,0,1
39306,-16.6666666666667,4,2,1,95,0,1
39394,-16.6666666666667,4,2,1,5,0,1
39481,-14.2857142857143,4,2,1,100,0,0
39569,-14.2857142857143,4,2,1,5,0,0

[Colours]
Combo1 : 255,220,113
Combo2 : 151,151,255
Combo3 : 195,195,195
Combo4 : 248,126,145

[HitObjects]
31,92,710,6,0,L|35:125,1,28,2|0,0:3|0:0,0:0:0:0:
103,84,1411,2,0,L|107:117,1,28,2|0,0:3|0:0,0:0:0:0:
176,76,2113,2,0,L|180:109,1,28,2|0,0:3|0:0,0:0:0:0:
248,68,2815,2,0,L|252:101,1,28,2|0,0:3|0:0,0:0:0:0:
359,180,3166,6,0,L|365:123,1,56
260,183,3516,2,0,L|264:216,1,28,2|0,0:3|0:0,0:0:0:0:
267,237,3692,1,0,0:0:0:0:
382,323,3867,1,0,0:0:0:0:
382,323,4218,2,0,L|386:290,1,28,2|0,0:3|0:0,0:0:0:0:
389,269,4394,1,0,0:0:0:0:
275,329,4569,6,0,L|218:323,1,56
134,226,4919,2,0,L|167:222,1,28,2|0,0:3|0:0,0:0:0:0:
188,219,5095,1,0,0:0:0:0:
83,309,5270,1,0,0:0:0:0:
83,309,5622,2,0,L|79:276,1,28,2|0,0:3|0:0,0:0:0:0:
76,255,5798,1,0,0:0:0:0:
178,166,5973,6,0,P|190:191|187:218,1,56
68,181,6323,2,0,P|62:168|63:154,1,28,2|0,0:3|0:0,0:0:0:0:
64,128,6499,1,0,0:0:0:0:
165,33,6674,1,0,0:0:0:0:
165,33,7025,2,0,P|171:46|170:60,1,28,2|0,0:3|0:0,0:0:0:0:
169,86,7201,1,0,0:0:0:0:
39,59,7376,6,0,P|65:50|92:56,1,56
198,157,7727,2,0,P|185:163|171:162,1,28,2|0,0:3|0:0,0:0:0:0:
145,161,7903,1,0,0:0:0:0:
257,62,8078,1,0,0:0:0:0:
257,62,8429,2,0,P|263:75|262:89,1,28,2|0,0:3|0:0,0:0:0:0:
261,115,8605,1,0,0:0:0:0:
178,240,8780,6,0,P|213:244|245:257,1,70,0|0,3:0|0:0,0:0:0:0:
364,168,9130,2,0,P|331:181|297:184,1,70,2|0,0:3|0:0,0:0:0:0:
173,271,9481,2,0,P|207:274|239:287,1,70,0|0,3:0|0:0,0:0:0:0:
358,137,9831,2,0,P|325:150|291:153,1,70,2|0,0:3|0:0,0:0:0:0:
169,22,10183,6,0,L|184:90,1,70,0|0,3:0|0:0,0:0:0:0:
73,191,10534,2,0,L|88:122,1,70,2|0,0:3|0:0,0:0:0:0:
199,17,10885,6,0,L|214:85,1,70,0|0,3:0|0:0,0:0:0:0:
199,17,11060,2,0,L|214:85,1,70,0|0,3:0|0:0,0:0:0:0:
40,186,11236,38,0,L|55:117,1,70,2|0,0:3|0:0,0:0:0:0:
288,41,11587,6,0,B|365:20|459:47|419:160|512:169,1,269.500008224488,2|0,3:2|0:0,0:0:0:0:
492,195,12288,2,0,B|409:219|409:219|397:238|397:238|305:269,1,192.500005874634,2|0,3:2|0:0,0:0:0:0:
290,275,12815,6,0,L|308:207,1,38.5000011749268,2|0,0:0|0:0,0:0:0:0:
128,142,12990,2,0,L|151:211,1,38.5000011749268,2|0,3:2|0:0,0:0:0:0:
259,285,13165,2,0,L|287:173,1,115.50000352478,2|0,0:0|0:0,0:0:0:0:
91,127,13516,2,0,L|103:163,1,38.5000011749268,2|0,0:0|0:0,0:0:0:0:
130,312,13692,6,0,B|127:326|131:335|131:335|124:339|120:346|120:346|121:338|118:330|118:330|126:326|132:306,1,77.0000023498536,2|0,3:2|0:0,0:0:0:0:
198,137,13867,2,0,B|188:91|165:76|165:76|179:58|179:34|179:34|188:55|206:70|206:70|190:91|200:149,2,231.000002202988,2|2|0,3:2|0:3|0:0,0:0:0:0:
76,212,14394,6,0,B|163:164|227:302|243:149|330:164,1,269.500008224488,2|0,3:2|0:0,0:0:0:0:
348,185,15095,2,0,P|407:131|341:60,1,192.500005874634,2|0,3:2|0:0,0:0:0:0:
322,77,15622,6,0,P|307:88|288:93,1,38.5000011749268,2|0,0:0|0:0,0:0:0:0:
106,25,15797,2,0,P|120:13|139:8,1,38.5000011749268,2|0,3:2|0:0,0:0:0:0:
266,118,15973,2,0,P|209:125|162:78,1,115.50000352478,2|0,0:0|0:0,0:0:0:0:
333,5,16323,2,0,P|351:9|367:21,1,38.5000011749268,2|0,0:0|0:0,0:0:0:0:
427,160,16499,6,0,B|423:141|423:141|438:130|438:130|443:148|443:148|407:173,1,77.0000023498536,0|0,3:0|0:0,0:0:0:0:
276,266,16674,2,0,B|319:304|319:304|293:357|293:357|251:319|251:319|289:237,2,231.000002202988,2|2|0,3:2|0:3|0:0,0:0:0:0:
239,161,17201,6,0,P|257:153|277:153,1,40.2500007677078,2|0,3:2|0:0,0:0:0:0:
381,253,17376,2,0,P|359:175|346:96,1,161.000003070831,2|2,0:0|0:0,0:0:0:0:
153,129,17902,1,0,3:0:0:0:
153,129,18078,2,0,P|172:207|182:286,1,161.000003070831,2|0,0:0|0:0,0:0:0:0:
54,274,18604,6,0,P|69:262|88:258,1,40.2500007677078,2|0,3:2|0:0,0:0:0:0:
274,342,18780,2,0,P|201:364|156:304,1,161.000003070831,2|2,0:0|0:0,0:0:0:0:
276,195,19306,1,0,3:0:0:0:
276,195,19481,2,0,P|330:171|365:169,1,80.5000015354157,2|2,3:2|0:3,0:0:0:0:
433,294,19832,1,2,0:0:0:0:
457,112,20008,6,0,P|427:186|421:266,1,161.000003070831,0|2,3:2|0:3,0:0:0:0:
189,360,20709,2,0,P|182:280|153:205,1,161.000003070831,0|2,3:2|0:3,0:0:0:0:
463,37,21411,6,0,B|348:24|393:159|253:118,1,210.000008010865,2|0,0:0|0:0,0:0:0:0:
45,147,21937,6,0,B|121:157|83:196|156:205,1,125.999996154785,2|0,0:0|0:0,0:0:0:0:
274,324,22464,6,0,B|243:327|256:338|221:343,1,52.5000020027161,2|0,0:0|0:0,0:0:0:0:
330,211,22815,6,0,P|391:223|445:254,1,125.999996154785,2|0,3:2|0:0,0:0:0:0:
473,238,23165,2,0,P|446:199|461:156,1,83.9999974365235,8|0,0:0|0:0,0:0:0:0:
341,298,23516,2,0,P|280:310|226:341,1,125.999996154785,2|0,3:2|0:0,0:0:0:0:
198,325,23867,1,8,0:0:0:0:
263,168,24043,6,0,P|248:197|242:228,1,41.9999987182618,2|0,0:0|0:0,0:0:0:0:
133,372,24218,2,0,P|125:352|115:334,1,41.9999987182618,2|0,3:2|0:0,0:0:0:0:
0,225,24394,2,0,P|33:247|95:260,1,83.9999974365235,2|8,0:0|0:0,0:0:0:0:
216,100,24744,2,0,P|175:111|140:134,1,83.9999974365235,2|0,0:0|3:0,0:0:0:0:
198,325,25095,1,2,3:2:0:0:
317,146,25271,2,0,P|295:205|280:266,1,125.999996154785,8|0,0:0|0:0,0:0:0:0:
295,294,25622,6,0,P|342:293|379:229,1,125.999996154785,2|0,3:2|0:0,0:0:0:0:
379,198,25973,2,0,P|420:211|472:226,1,83.9999974365235,8|0,0:0|0:0,0:0:0:0:
294,125,26323,2,0,P|247:124|210:60,1,125.999996154785,2|0,3:2|0:0,0:0:0:0:
210,29,26674,1,8,0:0:0:0:
138,185,26850,6,0,P|158:184|178:170,1,41.9999987182618,2|0,0:0|0:0,0:0:0:0:
324,40,27025,2,0,P|303:41|285:52,1,41.9999987182618,2|0,3:2|0:0,0:0:0:0:
413,175,27201,2,0,P|408:133|396:93,1,83.9999974365235,2|8,0:0|0:0,0:0:0:0:
238,228,27551,2,0,P|225:268|221:309,1,83.9999974365235,2|0,0:0|3:0,0:0:0:0:
325,126,27902,1,2,3:2:0:0:
439,306,28078,2,0,P|378:301|346:250,1,125.999996154785,8|0,0:0|0:0,0:0:0:0:
341,217,28429,6,0,P|365:208|391:203,1,41.9999987182618,2|0,3:2|0:0,0:0:0:0:
279,359,28604,2,0,P|240:342|199:332,1,83.9999974365235,2|8,0:0|0:0,0:0:0:0:
253,152,28955,2,0,P|259:195|236:229,1,83.9999974365235,2|0,0:0|3:0,0:0:0:0:
123,362,29306,1,2,0:0:0:0:
26,217,29481,2,0,P|108:195|166:182,1,125.999996154785,8|0,0:0|0:0,0:0:0:0:
178,176,29832,6,0,P|157:163|148:146,1,41.9999987182618,2|0,3:2|0:0,0:0:0:0:
286,21,30008,2,0,P|307:55|301:96,1,83.9999974365235,2|8,0:0|0:0,0:0:0:0:
218,262,30358,2,0,P|257:245|298:235,1,83.9999974365235,2|0,0:0|3:0,0:0:0:0:
453,113,30709,1,2,3:2:0:0:
384,298,30885,1,8,0:0:0:0:
300,96,31060,1,2,0:0:0:0:
459,195,31236,6,0,B|361:186|401:136|312:126,1,167.999994873047,0|8,3:0|0:0,0:0:0:0:
53,195,31937,2,0,B|151:186|111:136|200:126,1,167.999994873047,0|8,3:0|0:0,0:0:0:0:
299,287,32639,6,0,P|325:242|343:331,1,210.000008010865,2|0,0:0|0:0,0:0:0:0:
205,147,33165,6,0,P|173:110|175:159,1,125.999996154785,2|0,0:0|0:0,0:0:0:0:
319,68,33692,6,0,P|336:53|339:75,1,52.5000020027161,2|0,0:0|0:0,0:0:0:0:
170,35,34043,6,0,P|253:-2|280:-15,1,83.9999974365235,2|0,3:2|0:0,0:0:0:0:
275,248,34218,2,0,P|304:162|315:134,1,83.9999974365235,2|0,0:0|0:0,0:0:0:0:
485,105,34394,2,0,P|427:34|408:11,1,83.9999974365235,10|0,0:0|0:0,0:0:0:0:
166,130,34569,6,0,P|249:90|335:50,1,167.999994873047,2|0,0:0|3:0,0:0:0:0:
330,51,34920,6,0,P|366:73|369:118,1,83.9999974365235,2|0,0:0|0:0,0:0:0:0:
250,317,35095,1,8,0:0:0:0:
246,328,35271,6,0,P|198:312|143:303,1,83.9999974365235,2|0,0:0|0:0,0:0:0:0:
2,161,35446,1,0,3:0:0:0:
7,170,35622,6,0,P|55:154|110:145,1,83.9999974365235,2|0,0:0|0:0,0:0:0:0:
251,3,35797,1,8,0:0:0:0:
258,10,35973,6,0,P|282:42|271:82,1,83.9999974365235,2|0,0:0|0:0,0:0:0:0:
63,244,36148,6,0,P|147:221|204:208,1,119.000002269745,2|0,3:2|0:0,0:0:0:0:
455,290,36323,2,0,P|392:281|360:228,1,129.499999505997,2|0,3:2|0:0,0:0:0:0:
492,6,36499,2,0,B|502:29|512:52|512:52|484:99|475:133,1,140,10|0,0:0|0:0,0:0:0:0:
299,347,36674,2,0,P|278:272|256:195,1,157.500006008148,2|0,0:0|0:0,0:0:0:0:
32,71,36850,6,0,B|55:32|99:41|99:41|137:49,1,119.000002269745,2|0,3:2|0:0,0:0:0:0:
206,293,37025,2,0,L|90:263,1,119.000002269745,2|0,0:0|0:0,0:0:0:0:
271,81,37201,2,0,B|308:93|308:93|351:107|351:152,1,119.000002269745,10|0,0:0|0:0,0:0:0:0:
248,379,37376,6,0,L|17:318,1,238.00000453949,2|0,0:0|3:0,0:0:0:0:
1,313,37727,6,0,P|-8:252|59:209,1,119.000002269745,2|0,0:0|0:0,0:0:0:0:
246,39,37902,1,8,0:0:0:0:
249,50,38078,6,0,P|268:104|280:166,1,119.000002269745,2|0,0:0|0:0,0:0:0:0:
427,353,38253,1,0,3:0:0:0:
430,364,38429,6,0,P|376:345|314:333,1,119.000002269745,2|0,0:0|0:0,0:0:0:0:
127,186,38604,1,8,0:0:0:0:
122,197,38780,6,0,P|63:211|-8:234,1,119.000002269745,2|0,0:0|0:0,0:0:0:0:
287,95,38955,6,0,P|358:108|474:130,1,140,8|0,1:3|0:0,0:0:0:0:
186,124,39130,2,0,B|121:64|121:64|204:33,1,175,4|0,1:3|0:0,0:0:0:0:
467,304,39306,6,0,B|315:333|315:333|343:321|349:292,1,210.000008010865,4|0,1:3|0:0,0:0:0:0:
40,45,39481,2,0,B|19:169|175:118|108:297,1,245.000002336502,8|0,1:3|0:0,0:0:0:0:
