osu file format v14

[General]
AudioFilename: audio.mp3
AudioLeadIn: 0
PreviewTime: 22815
Countdown: 0
SampleSet: Soft
StackLeniency: 0.7
Mode: 0
LetterboxInBreaks: 0
WidescreenStoryboard: 1

[Editor]
DistanceSpacing: 1.4
BeatDivisor: 4
GridSize: 4
TimelineZoom: 1.099999

[Metadata]
Title:how to create the weeknd's "blinding lights"
TitleUnicode:how to create the weeknd's "blinding lights"
Artist:Seth Everman
ArtistUnicode:Seth Everman
Creator:Froskya
Version:inti's hard
Source:
Tags:weekend SethEverman synthwave new wave electropop instrumental electronic other meme cover a-ha take on me cough intiaz nyantiaz revialink
BeatmapID:2550600
BeatmapSetID:1226588

[Difficulty]
HPDrainRate:5
CircleSize:3.6
OverallDifficulty:6
ApproachRate:7.3
SliderMultiplier:1.3
SliderTickRate:1

[Events]
//Background and Video events
0,0,"hag colorful.jpg",0,0
//Break Periods
//Storyboard Layer 0 (Background)
//Storyboard Layer 1 (Fail)
//Storyboard Layer 2 (Pass)
//Storyboard Layer 3 (Foreground)
//Storyboard Layer 4 (Overlay)
//Storyboard Sound Samples

[TimingPoints]
710,350.877192982456,4,2,1,50,1,0
3166,350.877192982456,4,2,1,50,1,0
3166,-111.111111111111,4,2,1,50,0,0
8780,-111.111111111111,4,2,1,57,0,0
11587,-105.263157894737,4,2,1,65,0,0
21411,-117.647058823529,4,2,1,80,0,0
21762,-117.647058823529,4,2,1,5,0,0
21937,-117.647058823529,4,2,1,65,0,0
22113,-117.647058823529,4,2,1,5,0,0
22464,-117.647058823529,4,2,1,50,0,0
22815,-100,4,2,1,70,0,0
32639,-117.647058823529,4,2,1,80,0,0
32990,-117.647058823529,4,2,1,5,0,0
33165,-117.647058823529,4,2,1,65,0,0
33341,-117.647058823529,4,2,1,5,0,0
33692,-117.647058823529,4,2,1,50,0,0
34043,-100,4,2,1,80,0,1
36148,-100,4,2,1,85,0,1
36850,-100,4,2,1,80,0,1
38955,-100,4,2,1,85,0,1
39130,-100,4,2,1,90,0,1
39306,-100,4,2,1,95,0,1
39481,-100,4,2,1,100,0,0

[Colours]
Combo1 : 255,220,113
Combo2 : 151,151,255
Combo3 : 195,195,195
Combo4 : 248,126,145

[HitObjects]
91,86,3166,6,0,L|157:85,1,58.4999982147217
215,36,3516,2,0,L|281:37,1,58.4999982147217,2|0,0:3|0:0,0:0:0:0:
330,96,3867,2,0,P|351:142|333:229,1,116.999996429443,0|2,0:0|0:3,0:0:0:0:
294,272,4394,1,0,0:0:0:0:
222,232,4569,6,0,P|212:271|217:302,1,58.4999982147217
265,352,4920,2,0,P|304:357|335:348,1,58.4999982147217,2|0,0:3|0:0,0:0:0:0:
383,298,5271,2,0,B|432:315|432:315|517:300,1,116.999996429443,0|2,0:0|0:3,0:0:0:0:
505,223,5797,1,0,0:0:0:0:
510,140,5973,6,0,L|445:144,1,58.4999982147217
380,184,6323,1,2,0:3:0:0:
380,184,6499,1,0,0:0:0:0:
308,145,6674,2,0,B|240:126|257:171|183:156,1,116.999996429443,0|2,0:0|0:3,0:0:0:0:
121,119,7201,1,0,0:0:0:0:
46,151,7376,6,0,B|57:184|57:184|52:216,1,58.4999982147217
5,275,7727,1,2,0:3:0:0:
5,275,7902,1,0,0:0:0:0:
68,327,8078,2,0,B|112:313|112:313|203:334,1,116.999996429443,0|2,0:0|0:3,0:0:0:0:
253,290,8604,1,0,0:0:0:0:
317,340,8780,5,0,3:0:0:0:
428,32,9481,1,0,3:0:0:0:
110,114,10183,1,0,3:0:0:0:
396,273,10885,1,0,3:0:0:0:
433,200,11060,1,0,3:0:0:0:
237,29,11587,6,0,P|249:101|251:160,1,123.499996702194,2|2,3:2|0:3,0:0:0:0:
91,217,12288,2,0,P|79:289|77:348,1,123.499996702194,2|2,3:2|0:3,0:0:0:0:
158,370,12815,1,2,0:0:0:0:
234,330,12990,1,2,3:2:0:0:
234,330,13166,2,0,B|280:357|280:357|367:351,2,123.499996702194,2|2|2,0:0|0:0|3:2,0:0:0:0:
139,88,14394,6,0,B|93:61|93:61|6:67,1,123.499996702194,2|2,3:2|0:3,0:0:0:0:
95,222,15095,2,0,B|141:249|141:249|228:243,1,123.499996702194,2|2,3:2|0:3,0:0:0:0:
282,194,15622,1,2,0:0:0:0:
346,250,15797,1,2,3:2:0:0:
346,250,15973,2,0,P|366:207|332:126,2,123.499996702194,2|2|2,0:0|0:0|3:2,0:0:0:0:
102,339,17201,5,2,3:2:0:0:
45,273,17376,2,0,P|42:234|52:194,1,61.7499983510972,2|2,0:0|0:3,0:0:0:0:
110,153,17727,2,0,P|67:131|-5:143,2,123.499996702194,2|2|0,0:0|0:0|0:0,0:0:0:0:
177,207,18604,1,2,3:2:0:0:
252,164,18780,2,0,L|335:169,1,61.7499983510972,2|2,0:0|0:3,0:0:0:0:
354,91,19130,2,0,L|228:84,2,123.499996702194,2|2|2,0:0|3:2|0:0,0:0:0:0:
427,138,20008,6,0,P|459:181|440:272,1,123.499996702194,0|2,3:2|0:3,0:0:0:0:
324,361,20709,2,0,B|269:379|269:379|187:337,1,123.499996702194,0|2,3:2|0:3,0:0:0:0:
101,239,21411,6,0,P|25:237|0:315,2,165.75000316143,2|2|2,0:0|0:0|0:0,0:0:0:0:
15,77,22815,6,0,L|153:80,1,130,2|8,3:2|0:0,0:0:0:0:
233,56,23341,1,0,0:0:0:0:
299,118,23516,2,0,B|324:174|324:174|306:253,1,130,2|8,3:2|0:0,0:0:0:0:
245,307,24043,1,2,0:0:0:0:
322,354,24218,5,2,3:2:0:0:
405,317,24394,2,0,P|450:310|480:311,1,65,2|8,0:0|0:0,0:0:0:0:
504,226,24744,2,0,L|495:161,1,65,2|0,0:0|3:0,0:0:0:0:
438,89,25095,2,0,B|393:84|393:84|355:101|355:101|287:92,1,130,2|0,3:2|0:0,0:0:0:0:
196,22,25622,6,0,P|233:93|221:154,1,130,2|8,3:2|0:0,0:0:0:0:
195,226,26148,1,0,0:0:0:0:
116,179,26323,2,0,P|69:173|10:242,1,130,2|8,3:2|0:0,0:0:0:0:
21,317,26850,1,2,0:0:0:0:
87,378,27025,5,2,3:2:0:0:
176,360,27201,2,0,P|215:338|238:296,1,65,2|8,0:0|0:0,0:0:0:0:
232,232,27551,2,0,P|253:208|283:194,1,65,2|0,0:0|3:0,0:0:0:0:
337,121,27902,2,0,B|377:151|374:194|374:194|403:159|435:155,1,130,2|0,3:2|0:0,0:0:0:0:
509,73,28429,5,2,3:2:0:0:
502,163,28604,2,0,P|488:212|485:238,1,65,2|8,0:0|0:0,0:0:0:0:
423,292,28955,2,0,P|358:277|279:283,2,130,2|2|0,0:0|0:0|0:0,0:0:0:0:
306,364,29832,5,2,3:2:0:0:
266,281,30008,2,0,L|260:198,1,65,2|8,0:0|0:0,0:0:0:0:
195,153,30358,2,0,P|150:162|80:112,2,130,2|2|2,0:0|3:2|0:0,0:0:0:0:
285,49,31236,6,0,L|443:44,1,130,0|8,3:0|0:0,0:0:0:0:
469,118,31762,1,0,0:0:0:0:
420,194,31937,2,0,L|262:189,1,130,0|8,3:0|0:0,0:0:0:0:
243,268,32464,1,0,0:0:0:0:
298,342,32639,6,0,L|466:339,2,165.75000316143,2|2|2,0:0|0:0|0:0,0:0:0:0:
115,340,34043,6,0,P|105:295|111:247,1,65,2|2,3:2|0:0,0:0:0:0:
155,199,34394,1,10,0:0:0:0:
228,145,34569,2,0,P|238:100|232:52,1,65,2|0,0:0|3:0,0:0:0:0:
310,25,34920,2,0,P|366:37|403:37,1,65,2|8,0:0|0:0,0:0:0:0:
508,20,35271,6,0,L|491:98,1,65,2|0,0:0|3:0,0:0:0:0:
379,157,35622,2,0,L|396:235,1,65,2|8,0:0|0:0,0:0:0:0:
414,309,35973,1,2,0:0:0:0:
310,381,36148,2,0,P|273:385|226:379,1,65,2|2,3:2|3:2,0:0:0:0:
188,270,36499,1,10,0:0:0:0:
188,270,36674,1,2,0:0:0:0:
96,364,36850,6,0,L|24:343,1,65,2|2,3:2|0:0,0:0:0:0:
9,257,37201,1,10,0:0:0:0:
2,166,37376,2,0,P|12:132|32:94,1,65,2|0,0:0|3:0,0:0:0:0:
113,125,37727,2,0,P|103:159|83:197,1,65,2|8,0:0|0:0,0:0:0:0:
191,277,38078,6,0,L|276:271,1,65,2|0,0:0|3:0,0:0:0:0:
345,169,38429,2,0,L|260:163,1,65,2|8,0:0|0:0,0:0:0:0:
226,90,38780,1,2,0:0:0:0:
319,10,38955,6,0,L|404:4,1,65,8|4,1:3|1:3,0:0:0:0:
495,74,39306,1,4,1:3:0:0:
458,157,39481,1,8,1:3:0:0:
