osu file format v14

[General]
AudioFilename: audio.mp3
AudioLeadIn: 0
PreviewTime: 22815
Countdown: 0
SampleSet: Soft
StackLeniency: 0.7
Mode: 0
LetterboxInBreaks: 0
WidescreenStoryboard: 0

[Editor]
DistanceSpacing: 1.7
BeatDivisor: 4
GridSize: 4
TimelineZoom: 1.399999

[Metadata]
Title:how to create the weeknd's "blinding lights"
TitleUnicode:how to create the weeknd's "blinding lights"
Artist:Seth Everman
ArtistUnicode:Seth Everman
Creator:Froskya
Version:extra
Source:
Tags:weekend SethEverman synthwave new wave electropop instrumental electronic other meme cover a-ha take on me cough intiaz nyantiaz revialink
BeatmapID:2550598
BeatmapSetID:1226588

[Difficulty]
HPDrainRate:5.8
CircleSize:4.2
OverallDifficulty:8.5
ApproachRate:9
SliderMultiplier:1.4
SliderTickRate:1

[Events]
//Background and Video events
0,0,"hag colorful.jpg",0,0
//Break Periods
//Storyboard Layer 0 (Background)
//Storyboard Layer 1 (Fail)
//Storyboard Layer 2 (Pass)
//Storyboard Layer 3 (Foreground)
//Storyboard Layer 4 (Overlay)
//Storyboard Sound Samples

[TimingPoints]
710,350.877192982456,4,2,1,50,1,0
710,-125,4,2,1,50,0,0
3166,350.877192982456,4,2,1,50,1,0
3166,-125,4,2,1,50,0,0
8780,-100,4,2,1,57,0,0
11587,-90.9090909090909,4,2,1,65,0,0
17201,-86.9565217391304,4,2,1,65,0,0
21411,-66.6666666666667,4,2,1,80,0,0
21762,-66.6666666666667,4,2,1,5,0,0
21937,-111.111111111111,4,2,1,65,0,0
22288,-111.111111111111,4,2,1,5,0,0
22464,-133.333333333333,4,2,1,50,0,0
22639,-133.333333333333,4,2,1,5,0,0
22815,-83.3333333333333,4,2,1,70,0,0
32639,-66.6666666666667,4,2,1,80,0,0
32990,-66.6666666666667,4,2,1,5,0,0
33165,-111.111111111111,4,2,1,65,0,0
33516,-111.111111111111,4,2,1,5,0,0
33692,-133.333333333333,4,2,1,50,0,0
33867,-133.333333333333,4,2,1,5,0,0
34043,-71.4285714285714,4,2,1,80,0,1
36148,-71.4285714285714,4,2,1,85,0,1
36850,-71.4285714285714,4,2,1,80,0,1
38955,-71.4285714285714,4,2,1,85,0,1
39130,-71.4285714285714,4,2,1,90,0,1
39306,-71.4285714285714,4,2,1,95,0,1
39481,-71.4285714285714,4,2,1,100,0,0

[Colours]
Combo1 : 255,220,113
Combo2 : 151,151,255
Combo3 : 195,195,195
Combo4 : 248,126,145

[HitObjects]
121,17,709,5,2,0:3:0:0:
155,299,1411,1,2,0:3:0:0:
121,17,2113,1,2,0:3:0:0:
155,299,2815,1,2,0:3:0:0:
270,79,3166,6,0,P|241:77|206:76,2,56,0|0|2,0:0|0:0|0:3,0:0:0:0:
332,135,3692,1,0,0:0:0:0:
379,38,3867,1,0,0:0:0:0:
379,38,4218,1,2,0:3:0:0:
448,87,4394,1,0,0:0:0:0:
421,217,4569,6,0,P|417:189|412:162,2,56,0|0|2,0:0|0:0|0:3,0:0:0:0:
485,272,5095,1,0,0:0:0:0:
403,343,5271,1,0,0:0:0:0:
403,343,5622,1,2,0:3:0:0:
343,284,5797,1,0,0:0:0:0:
230,332,5973,6,0,P|257:337|285:345,2,56,0|0|2,0:0|0:0|0:3,0:0:0:0:
148,350,6499,1,0,0:0:0:0:
106,250,6674,1,0,0:0:0:0:
106,250,7025,1,2,0:3:0:0:
39,302,7201,1,0,0:0:0:0:
21,166,7376,6,0,P|49:168|76:170,2,56,0|0|2,0:0|0:0|0:3,0:0:0:0:
56,89,7902,1,0,0:0:0:0:
160,155,8078,1,0,0:0:0:0:
160,155,8429,2,0,P|163:127|166:99,1,56,2|0,0:3|0:0,0:0:0:0:
256,175,8780,6,0,P|260:209|263:244,1,70,0|0,3:0|0:0,0:0:0:0:
272,348,9130,1,2,0:3:0:0:
356,290,9306,1,0,0:0:0:0:
437,355,9481,1,0,3:0:0:0:
437,355,9832,1,2,0:3:0:0:
474,279,10008,1,0,0:0:0:0:
339,201,10183,6,0,P|374:198|411:193,1,70,0|0,3:0|0:0,0:0:0:0:
477,114,10534,1,2,0:3:0:0:
375,89,10709,1,0,0:0:0:0:
300,202,10885,1,0,3:0:0:0:
300,202,11060,1,0,3:0:0:0:
254,107,11236,1,2,0:3:0:0:
296,34,11411,1,0,0:0:0:0:
232,137,11587,6,0,P|198:155|154:165,1,77.0000023498536,2|0,3:2|0:0,0:0:0:0:
72,102,11937,1,2,0:3:0:0:
152,27,12113,1,0,0:0:0:0:
245,162,12288,6,0,P|263:196|273:240,1,77.0000023498536,2|0,3:2|0:0,0:0:0:0:
224,329,12639,1,2,0:3:0:0:
322,373,12815,1,2,0:0:0:0:
348,270,12990,5,2,3:2:0:0:
348,270,13166,2,0,L|343:346,1,77.0000023498536,2|2,0:0|0:3,0:0:0:0:
454,283,13516,2,0,L|449:207,1,77.0000023498536,2|2,0:0|3:2,0:0:0:0:
434,17,13867,1,2,3:2:0:0:
345,161,14043,1,2,0:3:0:0:
427,107,14218,1,0,0:0:0:0:
322,35,14394,6,0,P|281:36|233:37,1,77.0000023498536,2|0,3:2|0:0,0:0:0:0:
156,111,14744,1,2,0:3:0:0:
142,4,14920,1,0,0:0:0:0:
335,70,15095,6,0,P|336:110|337:158,1,77.0000023498536,2|0,3:2|0:0,0:0:0:0:
304,250,15445,1,2,0:3:0:0:
410,229,15621,1,2,0:0:0:0:
423,329,15797,5,2,3:2:0:0:
423,329,15973,2,0,B|430:279|430:279|417:249,1,77.0000023498536,2|2,0:0|0:3,0:0:0:0:
260,359,16323,2,0,B|253:309|253:309|266:279,1,77.0000023498536,2|0,0:0|3:0,0:0:0:0:
336,146,16674,1,2,3:2:0:0:
345,306,16850,1,2,0:3:0:0:
225,200,17025,1,0,0:0:0:0:
439,156,17201,5,2,3:2:0:0:
439,156,17376,2,0,B|389:145|408:173|346:157,1,80.5000015354157,2|2,0:0|0:3,0:0:0:0:
146,197,17727,2,0,B|192:189|180:210|224:201,1,80.5000015354157,2|0,0:0|3:0,0:0:0:0:
246,25,18078,2,0,B|269:65|245:61|268:99,1,80.5000015354157,2|2,0:0|0:3,0:0:0:0:
296,244,18429,1,0,0:0:0:0:
397,89,18604,5,2,3:2:0:0:
397,89,18780,2,0,P|377:119|357:165,1,80.5000015354157,2|2,0:0|0:3,0:0:0:0:
502,251,19130,2,0,P|468:229|432:213,1,80.5000015354157,2|0,0:0|3:0,0:0:0:0:
278,278,19481,2,0,P|312:256|348:240,1,80.5000015354157,2|2,3:2|0:3,0:0:0:0:
449,342,19832,6,0,L|351:349,1,80.5000015354157,2|0,0:0|3:2,0:0:0:0:
278,278,20183,1,0,0:0:0:0:
137,367,20358,2,0,L|218:373,1,80.5000015354157,2|0,0:3|0:0,0:0:0:0:
266,202,20709,2,0,B|260:147|253:94|253:94|235:115|202:127,1,161.000003070831,0|2,3:2|0:3,0:0:0:0:
100,94,21236,1,0,0:0:0:0:
110,260,21411,6,0,B|234:245|189:318|327:288,1,210.000008010865,2|0,0:0|0:0,0:0:0:0:
487,189,21937,6,0,B|412:177|445:226|350:207,1,125.999996154785,2|0,0:0|0:0,0:0:0:0:
367,73,22464,6,0,P|377:93|383:125,1,52.5000020027161,2|0,0:0|0:0,0:0:0:0:
112,175,22815,6,0,P|195:182|279:195,1,167.999994873047,2|8,3:2|0:0,0:0:0:0:
382,122,23341,1,0,0:0:0:0:
247,20,23516,2,0,L|258:104,1,83.9999974365235,2|0,3:2|0:0,0:0:0:0:
363,207,23867,1,8,0:0:0:0:
407,29,24043,1,2,0:0:0:0:
351,243,24218,6,0,P|323:270|271:284,1,83.9999974365235,2|2,3:2|0:0,0:0:0:0:
196,167,24569,1,8,0:0:0:0:
14,246,24744,2,0,P|55:237|97:231,1,83.9999974365235,2|0,0:0|3:0,0:0:0:0:
280,202,25095,1,2,3:2:0:0:
124,125,25271,1,8,0:0:0:0:
193,324,25446,1,0,0:0:0:0:
257,103,25622,6,0,P|338:109|377:192,1,167.999994873047,2|8,3:2|0:0,0:0:0:0:
459,82,26148,1,0,0:0:0:0:
484,258,26323,2,0,P|440:260|381:265,1,83.9999974365235,2|0,3:2|0:0,0:0:0:0:
266,177,26674,1,8,0:0:0:0:
288,359,26850,1,2,0:0:0:0:
262,139,27025,6,0,P|218:137|159:132,1,83.9999974365235,2|2,3:2|0:0,0:0:0:0:
62,37,27376,1,8,0:0:0:0:
66,234,27551,2,0,P|74:188|85:142,1,83.9999974365235,2|0,0:0|3:0,0:0:0:0:
184,6,27902,1,2,3:2:0:0:
38,54,28078,1,8,0:0:0:0:
190,162,28253,1,0,0:0:0:0:
38,245,28429,5,2,3:2:0:0:
132,349,28604,2,0,B|173:363|173:363|213:351,1,83.9999974365235,2|8,0:0|0:0,0:0:0:0:
292,192,28955,2,0,B|253:180|253:180|175:205,1,83.9999974365235,2|0,0:0|3:0,0:0:0:0:
299,351,29306,2,0,B|339:363|339:363|416:338,1,83.9999974365235,2|8,0:0|0:0,0:0:0:0:
474,245,29657,1,0,0:0:0:0:
364,90,29832,5,2,3:2:0:0:
354,232,30008,2,0,P|397:235|433:217,1,83.9999974365235,2|8,0:0|0:2,0:0:0:0:
389,20,30358,2,0,P|346:17|310:35,1,83.9999974365235,2|0,0:0|3:0,0:0:0:0:
266,187,30709,1,2,3:2:0:0:
196,5,30885,1,8,0:0:0:0:
66,134,31060,6,0,P|70:92|77:50,1,83.9999974365235,2|0,0:0|3:0,0:0:0:0:
238,82,31411,1,0,0:0:0:0:
168,245,31587,2,0,P|163:203|156:161,1,83.9999974365235,8|0,0:0|0:0,0:0:0:0:
399,86,31937,2,0,B|359:98|320:81|320:81|316:86|316:86|277:66|219:87,1,167.999994873047,0|8,3:0|0:0,0:0:0:0:
128,189,32464,1,0,0:0:0:0:
239,328,32639,6,0,P|272:268|289:361,1,210.000008010865,2|0,0:0|0:0,0:0:0:0:
88,265,33166,6,0,P|43:236|29:299,1,125.999996154785,2|0,0:0|0:0,0:0:0:0:
208,174,33692,6,0,P|231:163|243:191,1,52.5000020027161,2|0,0:0|0:0,0:0:0:0:
68,110,34043,5,2,3:2:0:0:
345,203,34218,1,2,0:0:0:0:
109,298,34394,1,10,0:0:0:0:
250,48,34569,2,0,P|241:103|228:220,1,97.9999970092774,2|0,0:0|3:0,0:0:0:0:
365,337,34920,2,0,P|358:288|350:240,1,97.9999970092774,2|8,0:0|0:0,0:0:0:0:
478,91,35271,6,0,B|422:93|446:117|381:119,1,97.9999970092774,2|0,0:0|3:0,0:0:0:0:
145,200,35622,2,0,B|201:202|177:226|242:228,1,97.9999970092774,2|8,0:0|0:0,0:0:0:0:
468,241,35973,1,2,0:0:0:0:
328,52,36148,5,2,3:2:0:0:
366,333,36323,1,2,3:2:0:0:
201,125,36499,1,10,0:0:0:0:
462,72,36674,1,2,0:0:0:0:
235,308,36850,5,2,3:2:0:0:
324,24,37025,1,2,0:0:0:0:
449,213,37201,1,10,0:0:0:0:
168,113,37376,2,0,P|139:155|151:211,1,97.9999970092774,2|0,0:0|3:0,0:0:0:0:
468,241,37727,2,0,P|429:212|381:217,1,97.9999970092774,2|8,0:0|0:0,0:0:0:0:
223,381,38078,6,0,B|239:335|239:335|228:280,1,97.9999970092774,2|0,0:0|3:0,0:0:0:0:
64,62,38429,2,0,B|48:108|48:108|59:163,1,97.9999970092774,2|8,0:0|0:0,0:0:0:0:
190,384,38780,1,2,0:0:0:0:
331,141,38955,5,8,1:3:0:0:
112,317,39130,1,4,1:3:0:0:
468,241,39306,1,4,1:3:0:0:
134,16,39481,1,8,1:3:0:0:
