osu file format v14

[General]
AudioFilename: audio.mp3
AudioLeadIn: 0
PreviewTime: 36003
Countdown: 0
SampleSet: Soft
StackLeniency: 0.7
Mode: 0
LetterboxInBreaks: 0
WidescreenStoryboard: 1

[Editor]
DistanceSpacing: 1
BeatDivisor: 4
GridSize: 32
TimelineZoom: 1.5

[Metadata]
Title:how to create billie eilish's "bad guy"
TitleUnicode:how to create billie eilish's "bad guy"
Artist:Seth Everman
ArtistUnicode:Seth Everman
Creator:Rolniczy
Version:normal
Source:
Tags:ren derandom_otaku SethEverman instrumental electronic other meme cover we are number one
BeatmapID:1996754
BeatmapSetID:955816

[Difficulty]
HPDrainRate:4
CircleSize:3.4
OverallDifficulty:4
ApproachRate:5
SliderMultiplier:1.2
SliderTickRate:1

[Events]
//Background and Video events
0,0,"what am i doing.jpg",0,0
Video,72,"couch master.mp4"
//Break Periods
2,36670,38470
//Storyboard Layer 0 (Background)
//Storyboard Layer 1 (Fail)
//Storyboard Layer 2 (Pass)
//Storyboard Layer 3 (Foreground)
//Storyboard Sound Samples

[TimingPoints]
1004,444.444444444444,4,2,1,40,1,0
1448,-111.111111111111,4,2,1,40,0,0
11670,-111.111111111111,4,2,1,45,0,0
15226,-100,4,2,1,50,0,0
22337,-100,4,2,1,55,0,0
29448,-100,4,2,1,65,0,0
39670,-100,4,2,2,55,0,0
40115,-100,4,2,1,75,0,1
45448,-100,4,2,1,85,0,1
46337,-100,4,2,1,85,0,0

[Colours]
Combo1 : 71,199,205
Combo2 : 131,177,180

[HitObjects]
54,316,1448,6,0,L|39:203,1,107.999996704102,2|0,0:0|0:0,0:0:0:0:
100,119,2337,2,0,L|207:104,1,107.999996704102,2|0,0:0|0:0,0:0:0:0:
257,200,3226,2,0,L|364:214,1,107.999996704102,2|0,0:0|0:0,0:0:0:0:
470,197,4115,2,0,L|487:84,1,107.999996704102,2|0,0:0|0:0,0:0:0:0:
495,37,4781,5,2,0:3:0:0:
495,37,5003,2,0,L|427:18,1,53.9999983520508,2|2,0:2|0:3,0:0:0:0:
360,92,5670,1,2,0:3:0:0:
360,92,5892,2,0,L|379:160,1,53.9999983520508,2|2,0:0|0:3,0:0:0:0:
443,227,6559,2,0,L|512:215,2,53.9999983520508,2|2|2,0:3|0:0|0:3,0:0:0:0:
358,294,7448,2,0,L|348:347,2,53.9999983520508,2|2|2,0:3|0:0|0:3,0:0:0:0:
297,204,8337,5,2,0:3:0:0:
297,204,8559,1,2,0:0:0:0:
297,204,8781,2,0,P|230:179|180:186,1,107.999996704102,2|2,0:3|0:3,0:0:0:0:
142,194,9448,2,0,L|76:183,1,53.9999983520508,2|2,0:0|0:3,0:0:0:0:
36,90,10115,1,2,0:3:0:0:
36,90,10337,2,0,L|108:77,1,53.9999983520508,2|2,0:0|0:3,0:0:0:0:
181,24,11003,1,2,0:3:0:0:
181,24,11225,2,0,L|253:37,1,53.9999983520508,2|2,0:0|0:3,0:0:0:0:
288,39,11670,6,0,P|268:104|293:150,1,107.999996704102,4|2,0:3|0:0,0:0:0:0:
314,182,12337,1,0,0:0:0:0:
314,182,12559,2,0,L|198:217,1,107.999996704102,0|2,0:0|0:0,0:0:0:0:
112,258,13448,2,0,P|132:193|107:147,1,107.999996704102,4|2,0:3|0:0,0:0:0:0:
86,115,14115,1,0,0:0:0:0:
86,115,14337,2,0,L|202:80,1,107.999996704102,0|2,0:0|0:0,0:0:0:0:
307,61,15226,6,0,B|275:96|275:96|290:184,1,120,4|2,0:3|0:0,0:0:0:0:
302,225,15892,1,4,0:3:0:0:
302,225,16115,2,0,L|373:202,1,60,4|4,0:3|0:3,0:0:0:0:
418,196,16559,1,2,0:0:0:0:
418,196,16781,2,0,P|427:122|387:72,1,120,4|4,0:3|0:3,0:0:0:0:
284,85,17670,1,4,0:3:0:0:
284,85,17892,2,0,L|280:147,2,60,4|4|2,0:3|0:3|0:3,0:0:0:0:
180,23,18781,6,0,P|120:14|56:65,1,120,4|2,0:3|0:0,0:0:0:0:
35,91,19448,1,4,0:3:0:0:
35,91,19670,2,0,L|55:179,1,60,4|4,0:3|0:3,0:0:0:0:
64,207,20115,1,2,0:0:0:0:
64,207,20337,2,0,B|124:190|122:232|187:228,1,120,4|4,0:3|0:3,0:0:0:0:
295,200,21226,1,4,0:3:0:0:
295,200,21448,2,0,L|279:126,2,60,4|4|2,0:3|0:3|0:0,0:0:0:0:
301,319,22337,5,4,0:3:0:0:
301,319,22559,2,0,L|419:289,1,120,2|4,0:1|0:3,0:0:0:0:
470,262,23226,2,0,L|484:166,1,60,4|4,0:3|0:3,0:0:0:0:
445,157,23670,2,0,L|431:61,1,60,2|4,0:0|0:3,0:0:0:0:
449,38,24115,1,0,0:0:0:0:
449,38,24337,1,4,0:3:0:0:
329,25,24781,1,4,0:3:0:0:
329,25,25003,2,0,L|246:49,1,60,4|4,0:3|0:3,0:0:0:0:
215,63,25448,1,2,0:0:0:0:
245,178,25892,5,4,0:3:0:0:
245,178,26115,2,0,P|200:208|132:203,1,120,2|4,0:1|0:3,0:0:0:0:
78,189,26781,2,0,L|58:290,1,60,4|4,0:3|0:3,0:0:0:0:
55,307,27226,2,0,L|156:327,1,60,2|4,0:0|0:3,0:0:0:0:
172,331,27670,1,0,0:0:0:0:
172,331,27892,1,4,0:3:0:0:
274,268,28337,1,4,0:3:0:0:
274,268,28559,2,0,L|262:334,2,60,4|4|2,0:3|0:3|0:3,0:0:0:0:
378,208,29448,6,0,P|327:227|255:217,1,120,6|0,0:2|1:0,0:0:0:0:
218,191,30115,1,2,0:0:0:0:
218,191,30337,2,0,L|233:113,1,60,6|2,0:3|0:0,0:0:0:0:
236,72,30781,2,0,L|177:60,1,60,2|2,1:3|0:0,0:0:0:0:
118,48,31226,1,4,0:3:0:0:
118,48,31448,1,2,0:3:0:0:
77,160,31892,1,2,0:0:0:0:
77,160,32115,2,0,L|159:143,1,60,6|2,0:3|0:0,0:0:0:0:
183,183,32559,2,0,L|265:200,1,60,2|2,1:3|0:0,0:0:0:0:
300,184,33003,5,4,0:3:0:0:
300,184,33226,1,2,0:3:0:0:
236,285,33670,2,0,L|141:273,2,60,2|4|0,0:3|0:3|0:0,0:0:0:0:
277,328,34337,1,0,1:0:0:0:
277,328,34559,2,0,P|365:314|401:290,1,120,4|4,0:3|0:3,0:0:0:0:
436,259,35226,2,0,L|513:270,1,60,0|4,1:0|0:3,0:0:0:0:
256,192,39670,5,4,0:3:0:0:
137,173,40115,6,0,P|122:217|150:291,1,120,4|0,0:2|1:0,0:0:0:0:
194,317,40781,1,2,0:3:0:0:
194,317,41003,2,0,B|227:308|227:308|272:310,1,60,6|2,3:3|3:3,0:0:0:0:
306,337,41448,2,0,B|331:337|331:337|364:329,1,60,0|2,1:0|0:3,0:0:0:0:
420,306,41892,1,6,0:3:0:0:
457,191,42337,1,2,1:3:0:0:
395,88,42781,2,0,L|310:105,1,60,4|2,0:3|0:0,0:0:0:0:
293,142,43226,2,0,L|208:125,1,60,2|2,1:2|0:2,0:0:0:0:
184,96,43670,6,2,P|144:152|152:226,1,120,4|0,0:3|1:0,0:1:0:0:
149,321,44559,2,2,L|298:282,1,120,4|0,0:3|1:0,0:1:0:0:
380,322,45448,1,6,0:3:0:0:
380,322,45670,1,6,0:3:0:0:
380,322,45892,2,0,L|396:248,2,60,2|2|4,1:2|1:2|0:2,0:0:0:0:
