osu file format v14

[General]
AudioFilename: audio.mp3
AudioLeadIn: 0
PreviewTime: 24973
Countdown: 1
SampleSet: Soft
StackLeniency: 0.2
Mode: 0
LetterboxInBreaks: 0
WidescreenStoryboard: 0

[Editor]
DistanceSpacing: 0.8
BeatDivisor: 4
GridSize: 16
TimelineZoom: 1.6

[Metadata]
Title:nostos
TitleUnicode:nostos
Artist:Setaria Virtuoso
ArtistUnicode:Setaria Virtuoso
Creator:Curisu
Version:Historia
Source:ノスタルジア
Tags:NOSTALGIA wac Jun Wakita 脇田潤 beatmania IIDX 24 SINOBUZ jubeat Qubell REFLEC BEAT 悠久のリフレシア Yuukyuu no Reflesia
BeatmapID:1450212
BeatmapSetID:685255

[Difficulty]
HPDrainRate:6
CircleSize:4
OverallDifficulty:7
ApproachRate:9
SliderMultiplier:1.8
SliderTickRate:1

[Events]
//Background and Video events
0,0,"bg.jpg",0,0
//Break Periods
//Storyboard Layer 0 (Background)
//Storyboard Layer 1 (Fail)
//Storyboard Layer 2 (Pass)
//Storyboard Layer 3 (Foreground)
//Storyboard Sound Samples

[TimingPoints]
2473,468.75,3,2,0,5,1,0
2473,-200,3,2,0,5,0,0
24269,-133.333333333333,3,2,0,5,0,0
36223,454.545454545455,3,2,0,5,1,0
36223,-125,3,2,0,5,0,0
46904,-100,3,2,0,5,0,0
60768,416.666666666667,3,2,0,5,1,0
63268,-66.6666666666667,3,2,0,5,0,0
68268,-83.3333333333333,3,2,0,5,0,0
78268,416.666666666667,4,2,0,5,1,0
78268,-66.6666666666667,4,2,0,5,0,0
114934,416.666666666667,3,2,0,5,1,0
119934,434.782608695652,3,2,0,5,1,0
121242,468.75,3,2,0,5,1,0
122644,517.241379310345,3,2,0,5,1,0
123692,600,3,2,0,5,1,0
124880,697.674418604651,3,2,0,5,1,0
126981,535.714285714286,3,2,0,5,1,0
128046,566.037735849057,3,2,0,5,1,0
129738,588.235294117647,3,2,0,5,1,0
131524,666.666666666667,3,2,0,5,1,0

[Colours]
Combo1 : 0,123,62
Combo2 : 47,47,47
Combo3 : 231,231,231
Combo4 : 166,251,159

[HitObjects]
41,334,2473,5,0,0:0:0:0:
41,334,2531,2,0,L|70:336,1,22.5
131,301,2883,2,0,L|167:300,1,33.75
243,298,3293,5,0,0:0:0:0:
494,334,3879,38,0,P|459:341|423:331,1,67.5
429,212,4348,2,0,P|452:238|461:274,1,67.5
388,275,4816,1,0,0:0:0:0:
54,218,5285,6,0,L|112:218,1,56.25
221,187,5754,2,0,L|171:187,1,45
62,149,6164,2,0,L|120:149,1,56.25
388,136,6691,37,0,0:0:0:0:
393,64,6926,1,0,0:0:0:0:
444,81,7101,5,0,0:0:0:0:
449,9,7336,1,0,0:0:0:0:
232,13,7629,38,0,L|281:13,1,45
264,82,8098,5,0,0:0:0:0:
201,117,8332,1,0,0:0:0:0:
129,118,8566,1,0,0:0:0:0:
75,166,8801,1,0,0:0:0:0:
70,237,9035,1,0,0:0:0:0:
122,285,9269,1,0,0:0:0:0:
296,250,9504,38,0,P|244:243|224:244,1,67.5
193,250,9973,1,0,0:0:0:0:
222,229,10090,1,0,0:0:0:0:
256,218,10207,1,0,0:0:0:0:
291,220,10324,1,0,0:0:0:0:
323,234,10441,6,0,P|340:262|348:283,1,45
83,305,10910,37,0,0:0:0:0:
120,243,11144,1,0,0:0:0:0:
182,206,11379,1,0,0:0:0:0:
236,159,11613,1,0,0:0:0:0:
254,89,11848,1,0,0:0:0:0:
214,28,12082,1,0,0:0:0:0:
41,46,12316,6,0,P|92:56|116:54,1,67.5
142,45,12785,37,0,0:0:0:0:
120,73,12902,1,0,0:0:0:0:
86,85,13019,1,0,0:0:0:0:
50,78,13137,1,0,0:0:0:0:
27,49,13254,6,0,P|67:43|85:39,1,45
239,27,13723,37,0,0:0:0:0:
289,78,13957,1,0,0:0:0:0:
360,74,14191,1,0,0:0:0:0:
426,101,14426,1,0,0:0:0:0:
451,168,14660,1,0,0:0:0:0:
430,236,14894,1,0,0:0:0:0:
418,164,15129,5,0,0:0:0:0:
100,220,15598,1,0,0:0:0:0:
404,90,16066,2,0,P|352:80|310:74,1,90
123,325,17004,37,0,0:0:0:0:
163,165,17473,1,0,0:0:0:0:
482,274,17941,6,0,P|372:277|351:262,1,135
353,250,19113,37,0,0:0:0:0:
351,232,19348,5,0,0:0:0:0:
422,233,19582,1,0,0:0:0:0:
456,294,19816,1,0,0:0:0:0:
409,369,20051,37,0,0:0:0:0:
323,348,20285,1,0,0:0:0:0:
316,259,20519,1,0,0:0:0:0:
382,230,20754,5,0,0:0:0:0:
464,21,20988,5,0,0:0:0:0:
391,24,21223,37,0,0:0:0:0:
367,107,21457,1,0,0:0:0:0:
438,155,21691,1,0,0:0:0:0:
293,340,21926,21,0,0:0:0:0:
221,339,22160,5,0,0:0:0:0:
185,276,22394,1,0,0:0:0:0:
221,214,22629,1,0,0:0:0:0:
292,214,22863,1,0,0:0:0:0:
363,262,23098,5,0,0:0:0:0:
448,247,23332,1,0,0:0:0:0:
490,171,23566,37,0,0:0:0:0:
418,160,23801,1,0,0:0:0:0:
391,92,24035,1,0,0:0:0:0:
433,33,24269,2,0,L|463:34,3,22.5000008583069
487,127,24738,5,0,0:0:0:0:
487,127,24973,1,0,0:0:0:0:
347,177,25441,2,0,P|304:118|242:78,1,135.000005149842
253,83,26379,37,0,0:0:0:0:
396,121,26848,1,0,0:0:0:0:
506,22,27316,1,0,0:0:0:0:
353,181,27785,6,0,P|437:185|466:129,2,135.000005149842
232,93,29191,1,0,0:0:0:0:
161,106,29426,1,0,0:0:0:0:
208,162,29660,2,0,B|179:183|134:175|134:175|104:169|73:169,1,135.000005149842
41,341,30363,37,0,0:0:0:0:
114,354,30598,1,0,0:0:0:0:
210,241,31066,2,0,P|277:268|342:268,1,135.000005149842
338,268,31769,5,0,0:0:0:0:
399,225,32004,1,0,0:0:0:0:
253,196,32473,1,0,0:0:0:0:
143,36,32941,1,0,0:0:0:0:
47,262,33410,37,0,0:0:0:0:
104,308,33644,1,0,0:0:0:0:
177,297,33879,1,0,0:0:0:0:
208,229,34113,5,0,0:0:0:0:
309,259,34348,1,0,0:0:0:0:
411,227,34582,1,0,0:0:0:0:
471,121,34816,1,0,0:0:0:0:
347,188,35051,37,0,0:0:0:0:
479,260,35285,2,0,P|480:296|479:331,1,67.5000025749208
255,355,35754,22,0,L|180:353,1,67.5000025749208
41,183,36223,22,0,B|49:164|55:151|55:151|51:134|44:112,1,72
98,0,36677,2,0,B|90:19|84:32|84:32|88:49|95:71,1,72
93,67,37132,1,0,0:0:0:0:
214,125,37359,1,0,0:0:0:0:
450,85,37586,6,0,L|343:85,1,108
328,106,38041,1,0,0:0:0:0:
342,126,38154,1,0,0:0:0:0:
328,147,38268,1,0,0:0:0:0:
354,172,38382,1,0,0:0:0:0:
389,179,38495,2,0,P|420:172|447:137,1,72
462,22,38950,37,0,0:0:0:0:
340,30,39177,1,0,0:0:0:0:
218,38,39404,1,0,0:0:0:0:
205,48,39632,5,0,0:0:0:0:
340,65,39859,1,0,0:0:0:0:
475,82,40086,1,0,0:0:0:0:
458,217,40313,37,0,0:0:0:0:
343,239,40541,1,0,0:0:0:0:
228,221,40768,2,0,P|228:171|227:97,1,120
207,75,41223,5,0,0:0:0:0:
174,68,41298,1,0,0:0:0:0:
142,85,41374,1,0,0:0:0:0:
124,120,41450,37,0,0:0:0:0:
144,158,41526,1,0,0:0:0:0:
190,168,41601,1,0,0:0:0:0:
227,138,41677,5,0,0:0:0:0:
425,114,41904,1,0,0:0:0:0:
425,114,42132,1,0,0:0:0:0:
495,175,42359,37,0,0:0:0:0:
458,260,42586,1,0,0:0:0:0:
365,251,42813,1,0,0:0:0:0:
258,331,43041,5,0,0:0:0:0:
121,338,43268,1,0,0:0:0:0:
6,262,43495,2,0,P|10:214|16:144,1,108
16,142,43950,1,0,0:0:0:0:
172,55,44177,1,0,0:0:0:0:
358,101,44404,37,0,0:0:0:0:
504,51,44632,1,0,0:0:0:0:
482,48,44745,1,0,0:0:0:0:
460,51,44859,1,0,0:0:0:0:
340,114,45086,1,0,0:0:0:0:
320,121,45199,1,0,0:0:0:0:
299,115,45313,1,0,0:0:0:0:
285,98,45427,1,0,0:0:0:0:
69,59,45654,5,0,0:0:0:0:
90,59,45768,1,0,0:0:0:0:
111,59,45882,1,0,0:0:0:0:
132,59,45995,1,0,0:0:0:0:
153,59,46109,1,0,0:0:0:0:
174,59,46223,1,0,0:0:0:0:
225,182,46450,37,0,0:0:0:0:
225,182,46563,1,0,0:0:0:0:
277,231,46677,21,0,0:0:0:0:
349,229,46791,1,0,0:0:0:0:
403,182,46904,6,0,P|404:161|403:136,2,30
403,182,47132,6,0,L|497:183,1,90
492,182,47813,1,0,0:0:0:0:
294,181,48041,1,0,0:0:0:0:
312,211,48154,1,0,0:0:0:0:
306,246,48268,1,0,0:0:0:0:
272,260,48382,1,0,0:0:0:0:
238,248,48495,5,0,0:0:0:0:
215,215,48609,1,0,0:0:0:0:
212,170,48723,1,0,0:0:0:0:
234,126,48836,1,0,0:0:0:0:
282,101,48950,1,0,0:0:0:0:
282,101,49177,37,0,0:0:0:0:
362,129,49291,1,0,0:0:0:0:
434,119,49404,1,0,0:0:0:0:
487,82,49518,1,0,0:0:0:0:
505,34,49632,1,0,0:0:0:0:
443,342,49859,6,0,L|435:239,1,90
462,244,50200,1,0,0:0:0:0:
487,252,50313,1,0,0:0:0:0:
281,331,50541,1,0,0:0:0:0:
253,353,50654,1,0,0:0:0:0:
218,351,50768,1,0,0:0:0:0:
199,320,50882,1,0,0:0:0:0:
206,284,50995,37,0,0:0:0:0:
236,257,51109,1,0,0:0:0:0:
280,248,51223,1,0,0:0:0:0:
327,263,51336,1,0,0:0:0:0:
350,306,51450,1,0,0:0:0:0:
407,336,51563,1,0,0:0:0:0:
472,321,51677,1,0,0:0:0:0:
501,147,51904,6,0,L|498:94,1,45
435,81,52132,2,0,L|432:28,2,45
280,87,52586,37,0,0:0:0:0:
280,87,52813,2,0,L|277:131,1,45
206,148,53041,6,0,L|204:178,1,22.5
194,150,53154,2,0,L|192:180,1,22.5
182,152,53268,2,0,L|180:182,1,22.5
170,154,53382,2,0,L|168:184,1,22.5
159,228,53495,37,0,0:0:0:0:
113,256,53609,1,0,0:0:0:0:
60,244,53723,1,0,0:0:0:0:
28,200,53836,1,0,0:0:0:0:
43,148,53950,5,0,0:0:0:0:
211,32,54177,1,0,0:0:0:0:
183,33,54253,1,0,0:0:0:0:
155,35,54329,1,0,0:0:0:0:
128,36,54404,1,0,0:0:0:0:
260,93,54632,37,0,0:0:0:0:
260,93,54745,1,0,0:0:0:0:
329,111,54859,1,0,0:0:0:0:
397,89,54973,1,0,0:0:0:0:
430,25,55086,5,0,0:0:0:0:
442,33,55200,1,0,0:0:0:0:
456,31,55313,37,0,0:0:0:0:
480,108,55541,5,0,0:0:0:0:
452,184,55768,1,0,0:0:0:0:
195,328,56223,37,0,0:0:0:0:
139,269,56450,1,0,0:0:0:0:
217,249,56677,1,0,0:0:0:0:
273,308,56904,2,0,L|307:306,3,22.5
374,302,57473,5,0,0:0:0:0:
374,302,57586,2,0,P|409:341|451:347,1,90
474,337,57927,1,0,0:0:0:0:
493,312,58041,37,0,0:0:0:0:
506,182,58268,5,0,0:0:0:0:
488,186,58382,1,0,0:0:0:0:
470,190,58495,1,0,0:0:0:0:
452,194,58609,1,0,0:0:0:0:
392,213,58723,37,0,0:0:0:0:
380,193,58950,5,0,0:0:0:0:
363,177,59064,1,0,0:0:0:0:
341,169,59177,1,0,0:0:0:0:
318,169,59291,1,0,0:0:0:0:
262,209,59405,37,0,0:0:0:0:
235,211,59632,5,0,0:0:0:0:
208,213,59746,1,0,0:0:0:0:
181,215,59859,1,0,0:0:0:0:
154,217,59973,1,0,0:0:0:0:
81,224,60086,37,0,0:0:0:0:
54,241,60313,5,0,0:0:0:0:
41,269,60426,1,0,0:0:0:0:
38,300,60540,1,0,0:0:0:0:
48,329,60654,1,0,0:0:0:0:
100,359,60768,5,0,0:0:0:0:
218,317,60976,2,0,L|223:365,2,45
337,276,61393,2,0,L|342:324,1,45
363,282,61601,2,0,L|368:330,1,45
395,339,61809,1,0,0:0:0:0:
421,347,61913,1,0,0:0:0:0:
486,304,62018,21,0,0:0:0:0:
458,106,62226,1,0,0:0:0:0:
385,100,62330,5,0,0:0:0:0:
385,100,62434,1,0,0:0:0:0:
156,75,62643,1,0,0:0:0:0:
64,352,62851,21,0,0:0:0:0:
160,368,62955,1,0,0:0:0:0:
256,352,63059,1,0,0:0:0:0:
352,368,63163,1,0,0:0:0:0:
451,355,63268,5,0,0:0:0:0:
451,355,63372,2,0,P|455:308|454:277,1,67.5000025749208
402,245,63580,1,0,0:0:0:0:
432,185,63684,1,0,0:0:0:0:
380,142,63788,1,0,0:0:0:0:
388,74,63893,5,0,0:0:0:0:
388,74,63997,2,0,L|300:72,1,67.5000025749208
266,32,64205,2,0,L|178:30,1,67.5000025749208
100,27,64413,5,0,0:0:0:0:
43,111,64518,21,0,0:0:0:0:
43,111,64622,2,0,L|47:186,1,67.5000025749208
106,210,64830,1,0,0:0:0:0:
159,169,64934,1,0,0:0:0:0:
216,204,65038,1,0,0:0:0:0:
271,165,65143,5,0,0:0:0:0:
271,165,65247,2,0,L|351:170,1,67.5000025749208
400,194,65455,2,0,L|480:199,1,67.5000025749208
504,290,65663,5,0,0:0:0:0:
444,372,65768,21,0,0:0:0:0:
444,372,65872,2,0,P|412:328|396:311,1,67.5000025749208
343,350,66080,1,0,0:0:0:0:
306,293,66184,1,0,0:0:0:0:
241,313,66288,1,0,0:0:0:0:
193,264,66393,5,0,0:0:0:0:
193,264,66497,2,0,L|118:266,1,67.5000025749208
83,318,66705,2,0,L|8:320,1,67.5000025749208
0,222,66913,5,0,0:0:0:0:
9,123,67018,21,0,0:0:0:0:
9,123,67122,2,0,L|80:123,1,67.5000025749208
128,173,67330,1,0,0:0:0:0:
128,173,67434,2,0,L|199:173,1,67.5000025749208
243,123,67643,1,0,0:0:0:0:
448,32,67851,21,0,0:0:0:0:
352,16,67955,1,0,0:0:0:0:
256,32,68059,1,0,0:0:0:0:
160,16,68163,1,0,0:0:0:0:
61,29,68268,5,0,0:0:0:0:
73,234,68476,1,0,0:0:0:0:
104,243,68580,1,0,0:0:0:0:
135,251,68684,2,0,P|157:172|113:98,1,161.999995056153
59,148,69101,5,0,0:0:0:0:
227,135,69309,1,0,0:0:0:0:
55,73,69518,1,0,0:0:0:0:
117,308,69726,6,0,P|124:285|120:250,1,53.9999983520508
101,232,69934,5,0,0:0:0:0:
70,241,70038,1,0,0:0:0:0:
92,264,70143,1,0,0:0:0:0:
256,192,70351,1,0,0:0:0:0:
92,120,70559,1,0,0:0:0:0:
61,355,70768,5,0,0:0:0:0:
182,134,70976,1,0,0:0:0:0:
212,122,71080,1,0,0:0:0:0:
244,120,71184,2,0,P|280:169|256:268,1,161.999995056153
195,224,71601,5,0,0:0:0:0:
403,222,71809,1,0,0:0:0:0:
197,300,72018,5,0,0:0:0:0:
69,170,72226,1,0,0:0:0:0:
230,120,72434,1,0,0:0:0:0:
254,98,72538,1,0,0:0:0:0:
222,89,72643,1,0,0:0:0:0:
64,303,72851,21,0,0:0:0:0:
160,319,72955,1,0,0:0:0:0:
256,303,73059,1,0,0:0:0:0:
352,319,73163,1,0,0:0:0:0:
451,306,73268,5,0,0:0:0:0:
400,117,73476,1,0,0:0:0:0:
367,112,73580,1,0,0:0:0:0:
334,108,73684,2,0,P|298:178|320:254,1,161.999995056153
394,231,74101,5,0,0:0:0:0:
187,244,74309,1,0,0:0:0:0:
377,306,74518,1,0,0:0:0:0:
467,96,74726,6,0,P|475:125|476:154,1,53.9999983520508
463,177,74934,5,0,0:0:0:0:
437,159,75038,1,0,0:0:0:0:
449,128,75143,1,0,0:0:0:0:
403,305,75351,5,0,0:0:0:0:
381,329,75455,1,0,0:0:0:0:
345,341,75559,1,0,0:0:0:0:
302,333,75663,1,0,0:0:0:0:
256,272,75768,5,0,0:0:0:0:
265,50,75976,1,0,0:0:0:0:
296,41,76080,1,0,0:0:0:0:
328,42,76184,6,0,P|363:92|328:193,1,161.999995056153
266,170,76601,5,0,0:0:0:0:
464,208,76809,1,0,0:0:0:0:
289,243,77018,1,0,0:0:0:0:
486,374,77226,6,0,B|512:341|512:341|485:277,1,107.999996704102
457,274,77538,5,0,0:0:0:0:
256,320,77747,1,0,0:0:0:0:
189,288,77851,5,0,0:0:0:0:
172,301,77955,1,0,0:0:0:0:
150,304,78059,1,0,0:0:0:0:
129,297,78163,1,0,0:0:0:0:
117,283,78268,21,0,0:0:0:0:
80,224,78337,1,0,0:0:0:0:
256,48,78684,5,0,0:0:0:0:
256,118,78754,1,0,0:0:0:0:
395,283,79101,5,0,0:0:0:0:
432,224,79170,1,0,0:0:0:0:
466,288,79518,5,0,0:0:0:0:
256,320,79726,1,0,0:0:0:0:
46,288,79934,5,0,0:0:0:0:
112,256,80004,1,0,0:0:0:0:
466,96,80351,5,0,0:0:0:0:
400,128,80420,1,0,0:0:0:0:
46,96,80768,5,0,0:0:0:0:
256,176,81080,1,0,0:0:0:0:
80,324,81393,1,0,0:0:0:0:
17,282,81601,5,0,0:0:0:0:
86,250,81670,1,0,0:0:0:0:
256,368,82018,5,0,0:0:0:0:
256,293,82087,1,0,0:0:0:0:
426,250,82330,6,0,L|468:268,2,33.7500012874604
469,171,82643,1,0,0:0:0:0:
417,91,82851,1,0,0:0:0:0:
374,176,83059,1,0,0:0:0:0:
288,352,83268,5,0,0:0:0:0:
224,352,83337,1,0,0:0:0:0:
216,352,83684,5,0,0:0:0:0:
296,352,83753,1,0,0:0:0:0:
304,352,84101,6,0,B|312:320|320:272|256:248|192:272|200:320|208:352,1,202.500007724762
208,352,84518,6,0,L|176:352,1,22.5000008583069
176,344,84587,2,0,L|144:344,1,22.5000008583069
144,336,84656,2,0,L|112:336,1,22.5000008583069
112,328,84726,2,0,L|80:328,1,22.5000008583069
80,320,84795,2,0,L|48:320,1,22.5000008583069
48,312,84865,2,0,L|16:312,1,22.5000008583069
16,320,84934,5,0,0:0:0:0:
96,240,85143,1,0,0:0:0:0:
121,200,85247,1,0,0:0:0:0:
113,153,85351,1,0,0:0:0:0:
113,153,85559,5,0,0:0:0:0:
144,204,85663,1,0,0:0:0:0:
142,265,85768,1,0,0:0:0:0:
122,322,85976,5,0,0:0:0:0:
183,281,86080,1,0,0:0:0:0:
256,274,86184,1,0,0:0:0:0:
398,316,86393,5,0,0:0:0:0:
379,51,86601,5,0,0:0:0:0:
447,119,86809,1,0,0:0:0:0:
468,161,86913,1,0,0:0:0:0:
455,206,87018,1,0,0:0:0:0:
455,206,87226,5,0,0:0:0:0:
496,161,87330,1,0,0:0:0:0:
503,100,87434,1,0,0:0:0:0:
487,41,87643,5,0,0:0:0:0:
412,41,87747,1,0,0:0:0:0:
337,41,87851,1,0,0:0:0:0:
151,110,88059,6,0,L|226:110,1,67.5000025749208
293,109,88268,5,0,0:0:0:0:
253,194,88476,1,0,0:0:0:0:
252,241,88580,1,0,0:0:0:0:
272,283,88684,1,0,0:0:0:0:
272,283,88893,5,0,0:0:0:0:
228,240,88997,1,0,0:0:0:0:
199,186,89101,1,0,0:0:0:0:
190,125,89309,5,0,0:0:0:0:
140,180,89413,1,0,0:0:0:0:
65,185,89518,1,0,0:0:0:0:
12,46,89726,5,0,0:0:0:0:
216,199,89934,5,0,0:0:0:0:
443,82,90143,5,0,0:0:0:0:
397,69,90247,1,0,0:0:0:0:
351,56,90351,1,0,0:0:0:0:
351,56,90559,5,0,0:0:0:0:
394,98,90663,1,0,0:0:0:0:
446,129,90768,1,0,0:0:0:0:
228,111,90976,6,0,L|152:104,1,67.5000025749208
140,124,91184,5,0,0:0:0:0:
108,135,91288,1,0,0:0:0:0:
67,128,91393,1,0,0:0:0:0:
41,88,91497,1,0,0:0:0:0:
32,16,91601,5,0,0:0:0:0:
32,16,91705,1,0,0:0:0:0:
