osu file format v14

[General]
AudioFilename: audio.mp3
AudioLeadIn: 0
PreviewTime: 63295
Countdown: 0
SampleSet: Soft
StackLeniency: 0.7
Mode: 0
LetterboxInBreaks: 0
WidescreenStoryboard: 1

[Editor]
DistanceSpacing: 1
BeatDivisor: 8
GridSize: 4
TimelineZoom: 3.099999

[Metadata]
Title:nostos
TitleUnicode:nostos
Artist:Setaria Virtuoso
ArtistUnicode:Setaria Virtuoso
Creator:Crimmi
Version:Hyper
Source:ノスタルジア
Tags:wac Jun Wakita Croit Noah CrimmiSkye beatmaniaIIDX beatmania IIDX 24 SINOBUZ jubeat Qubell NOSTALGIA REFLEC BEAT 悠久のリフレシア Yuukyu no Reflesia ノスタルジア稼働記念 楽曲交換キャンペーン launch memorial song crossover campaign Rifureshia Reflesia WAY OF Chapter 4 ノスタルジア稼働記念 楽曲交換キャンペーン Kadō Kado Kadou Kinen Gakkyoku Kōkan Kokan Koukan Kyanpēn Kyanpen launch memorial song crossover campaign SPECIAL SOUND TRACK BEMANI PIANO COLLECTION Konami Amusement Digital Entertainment Yamaha Music Communications Company Limited Co. Ltd. pop'n music うさぎと猫と少年の夢 Usagi to Neko Shōnen Shonen Shounen no Yume うさ猫 UsaNeko
BeatmapID:2416720
BeatmapSetID:623188

[Difficulty]
HPDrainRate:6
CircleSize:4
OverallDifficulty:6
ApproachRate:7
SliderMultiplier:1.6
SliderTickRate:2

[Events]
//Background and Video events
Video,1000,"movie.avi"
0,0,"nostos+BG.jpg",0,0
//Break Periods
2,95153,100720
//Storyboard Layer 0 (Background)
//Storyboard Layer 1 (Fail)
//Storyboard Layer 2 (Pass)
//Storyboard Layer 3 (Foreground)
//Storyboard Layer 4 (Overlay)
//Storyboard Sound Samples

[TimingPoints]
2492,468.75,3,2,0,20,1,0
36242,454.545454545455,3,2,0,20,1,0
60787,416.666666666667,3,2,0,20,1,0
78287,416.666666666667,4,2,0,20,1,0
114953,416.666666666667,3,2,0,20,1,0
119953,434.782608695652,3,2,0,20,1,0
121257,468.75,3,2,0,20,1,0
122663,517.241379310345,3,2,0,20,1,0
123697,600,3,2,0,20,1,0
124897,697.674418604651,3,2,0,20,1,0
126990,535.714285714286,3,2,0,20,1,0
128061,566.037735849057,3,2,0,20,1,0
129759,588.235294117647,3,2,0,20,1,0
131523,666.666666666667,3,2,0,20,1,0
132189,705.882352941176,3,2,0,20,1,0

[Colours]
Combo1 : 19,208,223
Combo2 : 0,193,0
Combo3 : 202,202,0
Combo4 : 129,129,129

[HitObjects]
196,236,2492,6,0,L|212:296,1,60
316,144,2843,2,0,L|292:72,2,70,0|0|2,0:0|0:0|0:0,0:0:0:0:
212,296,3898,1,0,0:0:0:0:
316,144,4367,1,0,0:0:0:0:
420,296,4835,1,2,0:0:0:0:
280,240,5304,6,0,P|192:208|136:256,1,160
212,288,6007,1,0,0:0:0:0:
284,324,6242,2,0,L|368:328,1,80,2|0,0:0|0:0,0:0:0:0:
212,288,6710,2,0,L|104:280,1,80
48,276,7179,1,0,0:0:0:0:
92,348,7413,1,0,0:0:0:0:
96,208,7648,2,0,L|88:124,1,80,2|0,0:0|0:0,0:0:0:0:
160,32,8117,6,0,L|168:132,1,80
172,192,8585,1,0,0:0:0:0:
268,120,8820,1,0,0:0:0:0:
300,236,9054,1,2,0:0:0:0:
200,304,9288,1,0,0:0:0:0:
172,192,9523,6,0,P|156:140|156:112,1,80
356,114,9992,2,0,P|353:154|340:192,1,80
256,264,10460,2,0,L|256:348,1,80,2|0,0:0|0:0,0:0:0:0:
340,192,10929,6,0,P|296:160|168:192,1,160
124,208,11632,1,0,0:0:0:0:
132,128,11867,2,0,P|176:96|220:88,1,80,2|0,0:0|0:0,0:0:0:0:
256,228,12335,2,0,P|212:260|168:268,1,80
276,148,12804,2,0,P|336:216|320:284,1,160,0|2,0:0|0:0,0:0:0:0:
280,344,13507,1,0,0:0:0:0:
240,276,13742,6,0,L|152:288,1,80
60,212,14210,2,0,L|144:204,1,80
220,196,14679,1,2,0:0:0:0:
300,192,14913,1,0,0:0:0:0:
380,188,15148,2,0,P|360:136|328:116,1,80
220,196,15617,2,0,P|240:248|272:268,1,80
336,264,16085,1,2,0:0:0:0:
341,122,16320,1,0,0:0:0:0:
468,208,16554,6,0,P|472:248|464:320,2,80
424,140,17257,1,0,0:0:0:0:
341,122,17492,2,0,L|264:144,1,80,2|0,0:0|0:0,0:0:0:0:
140,100,17960,2,0,L|244:72,1,80
132,180,18429,2,0,L|32:208,2,80,0|0|2,0:0|0:0|0:0,0:0:0:0:
192,232,19132,1,0,0:0:0:0:
256,280,19367,6,0,L|256:360,2,80,4|0|0,0:0|0:0|0:0,0:0:0:0:
320,232,20070,1,0,0:0:0:0:
380,180,20304,2,0,L|480:208,1,80,2|0,0:0|0:0,0:0:0:0:
320,232,20773,2,0,L|228:200,1,80
380,180,21242,2,0,P|400:232|332:312,1,160,0|2,0:0|0:0,0:0:0:0:
260,260,21945,1,0,0:0:0:0:
184,312,22179,6,0,L|92:304,1,80
32,208,22648,2,0,L|128:216,1,80
192,224,23117,1,2,0:0:0:0:
304,176,23351,1,0,0:0:0:0:
216,144,23585,1,0,0:0:0:0:
276,256,23820,1,0,0:0:0:0:
304,176,24054,6,0,P|308:120|296:88,1,80
280,72,24406,1,0,0:0:0:0:
248,72,24464,1,0,0:0:0:0:
228,88,24523,2,0,L|128:84,1,80,2|0,0:0|0:0,0:0:0:0:
100,20,24992,6,0,P|68:88|116:160,1,160,2|2,0:0|0:0,0:0:0:0:
148,84,25695,1,0,0:0:0:0:
224,112,25929,2,0,L|336:128,1,80
376,88,26398,2,0,P|384:144|304:204,1,160,2|2,0:0|0:0,0:0:0:0:
303,123,27101,1,0,0:0:0:0:
452,80,27335,2,0,P|460:136|452:176,1,80,2|0,0:0|0:0,0:0:0:0:
424,232,27804,6,0,P|380:264|340:280,1,80
276,276,28273,1,2,0:0:0:0:
312,204,28507,1,0,0:0:0:0:
356,272,28742,2,0,P|344:320|308:348,1,80,2|0,0:0|0:0,0:0:0:0:
312,204,29210,2,0,P|356:192|408:208,1,80,2|2,0:0|0:0,0:0:0:0:
276,276,29679,2,0,P|240:236|272:132,1,160,2|0,0:0|0:0,0:0:0:0:
312,204,30382,1,2,0:0:0:0:
240,340,30617,6,0,P|184:288|176:256,1,80
312,204,31085,1,2,0:0:0:0:
312,204,31320,2,0,P|364:256|372:292,1,80,0|2,0:0|0:0,0:0:0:0:
184,284,31788,1,0,0:0:0:0:
184,284,32023,2,0,P|168:232|172:184,1,80
294,127,32492,1,2,0:0:0:0:
294,127,32726,2,0,P|310:171|310:219,2,80,0|2|0,0:0|0:0|0:0,0:0:0:0:
260,268,33429,6,0,P|324:288|392:228,1,160,0|2,0:0|0:0,0:0:0:0:
192,224,34132,2,0,P|184:272|192:304,1,80,0|2,0:0|0:0,0:0:0:0:
264,184,34601,1,0,0:0:0:0:
264,184,34835,2,0,P|272:136|264:104,1,80
192,224,35304,1,2,0:0:0:0:
348,144,35538,1,0,0:0:0:0:
340,316,35773,1,2,0:0:0:0:
192,224,36242,6,0,B|152:236|152:236|96:216,1,80,4|0,0:0|0:0,0:0:0:0:
244,160,36696,2,0,P|272:212|224:304,1,160,2|0,0:0|0:0,0:0:0:0:
164,144,37378,1,0,0:0:0:0:
164,144,37605,2,0,P|188:100|248:80,1,80,2|0,0:0|0:0,0:0:0:0:
292,100,38060,1,2,0:0:0:0:
328,84,38173,1,0,0:0:0:0:
368,88,38287,1,2,0:0:0:0:
400,116,38401,1,0,0:0:0:0:
428,144,38514,2,0,L|420:244,1,80,2|2,0:0|0:0,0:0:0:0:
312,352,38969,6,0,L|324:240,1,80
332,192,39423,1,2,0:0:0:0:
260,224,39651,2,0,P|256:168|272:140,1,80,0|2,0:0|0:0,0:0:0:0:
402,147,40105,2,0,P|412:192|400:240,1,80,0|2,0:0|0:0,0:0:0:0:
336,276,40560,1,0,0:0:0:0:
260,224,40787,2,0,P|197:258|114:202,1,160,2|0,0:0|0:0,0:0:0:0:
192,180,41469,1,0,0:0:0:0:
237,326,41696,6,0,P|190:333|152:324,1,80,2|0,0:0|0:0,0:0:0:0:
192,180,42151,2,0,P|239:173|277:182,1,80,2|2,0:0|0:0,0:0:0:0:
336,224,42605,1,2,0:0:0:0:
388,164,42832,1,0,0:0:0:0:
324,116,43060,6,0,P|364:88|420:96,1,80,2|0,0:0|0:0,0:0:0:0:
336,224,43514,2,0,P|296:252|240:244,1,80,2|2,0:0|0:0,0:0:0:0:
184,252,43969,1,2,0:0:0:0:
160,176,44196,1,0,0:0:0:0:
216,120,44423,5,4,0:0:0:0:
336,224,44651,1,2,0:0:0:0:
368,64,44878,1,0,0:0:0:0:
244,212,45105,1,2,0:0:0:0:
400,164,45332,1,0,0:0:0:0:
272,36,45560,1,2,0:0:0:0:
244,212,45787,6,0,L|284:288,1,80,2|0,0:0|0:0,0:0:0:0:
400,164,46242,2,0,L|356:84,1,80,2|0,0:0|0:0,0:0:0:0:
324,24,46696,1,2,0:0:0:0:
288,40,46810,1,0,0:0:0:0:
248,44,46923,1,2,0:0:0:0:
208,40,47037,1,0,0:0:0:0:
172,24,47151,6,0,L|176:136,1,80,4|0,0:0|0:0,0:0:0:0:
108,148,47605,2,0,P|160:184|248:128,1,160,2|0,0:0|0:0,0:0:0:0:
40,96,48287,1,0,0:0:0:0:
40,96,48514,2,0,P|24:140|36:188,1,80,2|0,0:0|0:0,0:0:0:0:
84,332,48969,2,0,P|100:288|88:240,1,80,2|0,0:0|0:0,0:0:0:0:
20,284,49423,1,0,0:0:0:0:
168,224,49651,1,0,0:0:0:0:
172,304,49878,6,0,P|216:288|236:184,1,160,2|0,0:0|0:0,0:0:0:0:
168,224,50560,2,0,L|312:296,1,160
384,324,51242,2,0,P|388:276|364:236,1,80,2|0,0:0|0:0,0:0:0:0:
300,128,51696,2,0,P|296:176|320:216,1,80,2|0,0:0|0:0,0:0:0:0:
380,164,52151,2,0,P|384:100|300:44,1,160
240,76,52832,5,0,0:0:0:0:
164,52,53060,2,0,B|148:124|212:152|212:152|176:152|176:180,1,160,2|0,0:0|0:0,0:0:0:0:
100,164,53742,2,0,P|116:220|152:244,1,80,0|2,0:0|0:0,0:0:0:0:
264,168,54196,2,0,P|248:112|212:88,1,80,0|2,0:0|0:0,0:0:0:0:
130,233,54651,2,0,P|146:289|182:313,1,80,0|2,0:0|0:0,0:0:0:0:
208,236,55105,1,0,0:0:0:0:
288,236,55332,6,0,L|384:236,1,80,4|0,0:0|0:0,0:0:0:0:
408,168,55787,2,0,P|448:240|384:316,1,160,2|0,0:0|0:0,0:0:0:0:
368,236,56469,1,0,0:0:0:0:
336,308,56696,1,2,0:0:0:0:
292,376,56923,2,0,L|240:344,3,40,2|0|2|0,0:0|0:0|0:0|0:0,0:0:0:0:
244,316,57378,2,0,L|196:284,3,40,0|2|0|2,0:0|0:0|0:0|0:0,0:0:0:0:
180,272,57832,1,0,0:0:0:0:
112,228,58060,6,0,P|156:196|252:236,1,160,4|2,0:0|0:0,0:0:0:0:
280,304,58742,1,0,0:0:0:0:
360,304,58969,1,2,0:0:0:0:
372,224,59196,1,0,0:0:0:0:
312,172,59423,6,0,P|360:144|448:200,1,160,0|2,0:0|0:0,0:0:0:0:
444,268,60105,1,0,0:0:0:0:
368,300,60332,1,2,0:0:0:0:
304,252,60560,1,0,0:0:0:0:
236,196,60787,6,0,P|220:256|272:332,1,160,0|2,0:0|0:0,0:0:0:0:
304,252,61412,2,0,P|324:192|268:116,1,160,0|2,0:0|0:0,0:0:0:0:
200,88,62037,2,0,P|236:48|344:80,1,160,0|2,0:0|0:0,0:0:0:0:
384,124,62662,1,0,0:0:0:0:
408,48,62870,1,2,0:0:0:0:
444,68,62974,1,2,0:0:0:0:
460,104,63078,1,2,0:0:0:0:
460,144,63182,1,0,0:0:0:0:
444,180,63287,6,0,P|396:240|432:328,1,160,4|0,0:0|0:0,0:0:0:0:
472,256,63912,2,0,L|284:232,1,160,2|0,0:0|0:0,0:0:0:0:
232,224,64537,1,2,0:0:0:0:
152,212,64745,1,0,0:0:0:0:
112,144,64953,1,0,0:0:0:0:
112,144,65162,2,0,P|76:196|112:280,1,160,2|0,0:0|0:0,0:0:0:0:
152,212,65787,6,0,P|192:136|148:72,1,160,2|0,0:0|0:0,0:0:0:0:
112,144,66412,2,0,L|280:144,1,160,2|0,0:0|0:0,0:0:0:0:
340,188,67037,1,2,0:0:0:0:
376,68,67245,1,0,0:0:0:0:
296,68,67453,1,0,0:0:0:0:
404,144,67662,1,2,0:0:0:0:
280,148,67870,1,2,0:0:0:0:
280,148,67974,1,2,0:0:0:0:
280,148,68078,1,2,0:0:0:0:
280,148,68182,1,2,0:0:0:0:
280,148,68287,6,0,L|184:172,1,80,4|0,0:0|0:0,0:0:0:0:
60,128,68703,2,0,L|152:104,1,80,2|0,0:0|0:0,0:0:0:0:
216,88,69120,1,0,0:0:0:0:
202,165,69328,1,2,0:0:0:0:
184,244,69537,2,0,P|256:228|280:144,1,160,2|0,0:0|0:0,0:0:0:0:
202,165,70162,2,0,L|322:293,1,160,2|0,0:0|0:0,0:0:0:0:
376,232,70787,6,0,L|304:156,1,80,2|0,0:0|0:0,0:0:0:0:
156,232,71203,2,0,L|228:308,1,80,2|0,0:0|0:0,0:0:0:0:
272,344,71620,1,0,0:0:0:0:
284,264,71828,1,2,0:0:0:0:
348,312,72037,2,0,P|364:268|344:216,1,80
432,212,72453,2,0,P|392:168|344:164,1,80,2|0,0:0|0:0,0:0:0:0:
296,188,72870,1,2,0:0:0:0:
256,200,72974,1,2,0:0:0:0:
220,212,73078,1,2,0:0:0:0:
180,224,73182,1,2,0:0:0:0:
140,236,73287,6,0,P|120:192|132:136,1,80
296,188,73703,2,0,P|316:232|304:288,1,80,2|0,0:0|0:0,0:0:0:0:
236,244,74120,2,0,P|216:200|220:152,1,80,2|2,0:0|0:0,0:0:0:0:
268,108,74537,2,0,L|112:148,1,160,2|0,0:0|0:0,0:0:0:0:
44,108,75162,2,0,P|32:172|116:232,1,160,2|0,0:0|0:0,0:0:0:0:
176,236,75787,6,0,P|148:292|116:304,1,80,2|0,0:0|0:0,0:0:0:0:
136,160,76203,2,0,P|184:148|236:172,1,80,2|0,0:0|0:0,0:0:0:0:
96,231,76620,2,0,P|60:192|60:144,1,80,2|2,0:0|0:0,0:0:0:0:
136,160,77037,2,0,L|200:216,1,80,2|0,0:0|0:0,0:0:0:0:
412,196,77453,2,0,L|352:144,1,80,2|0,0:0|0:0,0:0:0:0:
312,136,77766,1,0,0:0:0:0:
268,148,77870,1,2,0:0:0:0:
252,184,77974,1,2,0:0:0:0:
252,224,78078,1,2,0:0:0:0:
272,260,78182,1,2,0:0:0:0:
308,276,78287,6,0,L|148:280,1,160,4|2,0:0|0:0,0:0:0:0:
12,192,78912,1,0,0:0:0:0:
12,192,79120,2,0,L|184:184,1,160,0|2,0:0|0:0,0:0:0:0:
352,92,79745,1,0,0:0:0:0:
352,92,79953,2,0,L|160:96,1,160,0|2,0:0|0:0,0:0:0:0:
136,36,80578,1,0,0:0:0:0:
136,36,80787,2,0,P|112:88|184:176,1,160,0|2,0:0|0:0,0:0:0:0:
192,96,81412,1,0,0:0:0:0:
48,36,81620,6,0,P|36:120|76:200,1,160,0|2,0:0|0:0,0:0:0:0:
168,332,82245,1,0,0:0:0:0:
168,332,82453,2,0,P|180:248|140:168,1,160,0|2,0:0|0:0,0:0:0:0:
116,108,83078,1,0,0:0:0:0:
196,120,83287,2,0,L|284:128,1,80
468,184,83703,2,0,L|380:176,1,80,2|0,0:0|0:0,0:0:0:0:
196,232,84120,2,0,L|312:244,1,80,2|0,0:0|0:0,0:0:0:0:
356,252,84537,2,0,P|352:212|344:196,2,40,2|2|2,0:0|0:0|0:0,0:0:0:0:
308,316,84953,6,0,L|144:300,1,160
76,336,85578,2,0,P|68:288|148:220,1,160,2|0,0:0|0:0,0:0:0:0:
184,220,86099,1,0,0:0:0:0:
224,220,86203,1,2,0:0:0:0:
304,220,86412,1,0,0:0:0:0:
260,288,86620,6,0,L|268:120,1,160
156,16,87245,2,0,L|144:200,1,160
144,216,87766,1,0,0:0:0:0:
140,256,87870,1,2,0:0:0:0:
132,336,88078,1,0,0:0:0:0:
204,304,88287,6,0,P|276:268|344:324,1,160
268,352,88912,2,0,L|272:180,1,160
272,152,89432,1,0,0:0:0:0:
272,112,89537,1,2,0:0:0:0:
272,32,89745,1,0,0:0:0:0:
204,72,89953,6,0,L|152:148,1,80
272,232,90370,2,0,L|272:152,1,80
340,72,90787,2,0,L|392:148,1,80
460,108,91203,1,2,0:0:0:0:
466,147,91307,1,2,0:0:0:0:
453,184,91412,1,2,0:0:0:0:
423,210,91516,1,0,0:0:0:0:
384,218,91620,6,0,L|236:212,1,120,4|0,0:0|0:0,0:0:0:0:
184,168,92245,1,2,0:0:0:0:
72,132,92453,2,0,L|144:132,1,40,4|0,0:0|0:0,0:0:0:0:
180,92,92766,2,0,P|192:136|164:196,1,80,2|2,0:0|0:0,0:0:0:0:
136,232,93287,6,0,L|164:264,1,40,4|0,0:0|0:0,0:0:0:0:
316,272,93599,2,0,L|248:208,1,80,2|2,0:0|0:0,0:0:0:0:
196,164,94016,1,0,0:0:0:0:
196,164,94120,2,0,P|236:140|296:152,1,80
304,152,94432,1,2,0:0:0:0:
344,172,94537,1,0,0:0:0:0:
356,212,94641,1,2,0:0:0:0:
344,248,94745,1,0,0:0:0:0:
256,328,94953,1,4,0:0:0:0:
32,192,101620,6,0,P|88:176|196:192,1,160,0|2,0:0|0:0,0:0:0:0:
220,208,102141,1,0,0:0:0:0:
256,228,102245,1,0,0:0:0:0:
292,244,102349,1,0,0:0:0:0:
332,244,102453,1,0,0:0:0:0:
368,228,102557,1,0,0:0:0:0:
388,192,102662,1,2,0:0:0:0:
464,52,102870,1,0,0:0:0:0:
304,52,103078,1,2,0:0:0:0:
388,192,103287,6,0,P|304:220|216:176,1,160,0|2,0:0|0:0,0:0:0:0:
436,128,103912,1,0,0:0:0:0:
436,128,104120,2,0,P|464:176|464:224,1,80
436,272,104537,2,0,P|376:300|328:304,1,80,2|0,0:0|0:0,0:0:0:0:
284,304,104953,2,0,P|192:280|144:336,1,160,0|2,0:0|0:0,0:0:0:0:
220,356,105578,2,0,L|188:184,1,160
124,156,106203,1,2,0:0:0:0:
160,84,106412,1,0,0:0:0:0:
232,132,106620,6,0,P|300:88|400:188,1,240
396,228,107349,1,2,0:0:0:0:
388,268,107453,2,0,P|348:308|240:288,1,160,0|2,0:0|0:0,0:0:0:0:
220,276,107974,1,2,0:0:0:0:
184,256,108078,1,2,0:0:0:0:
120,308,108287,6,0,P|100:256|168:172,1,160,4|2,0:0|0:0,0:0:0:0:
92,124,108912,2,0,P|152:96|188:96,1,80
224,148,109328,1,0,0:0:0:0:
304,144,109537,1,2,0:0:0:0:
384,140,109745,1,0,0:0:0:0:
384,140,109849,1,0,0:0:0:0:
384,140,109953,2,0,P|372:188|252:216,1,160,0|2,0:0|0:0,0:0:0:0:
200,212,110578,1,0,0:0:0:0:
160,208,110682,1,0,0:0:0:0:
120,204,110787,6,0,P|100:144|180:72,1,160,0|2,0:0|0:0,0:0:0:0:
180,152,111412,1,0,0:0:0:0:
216,224,111620,2,0,P|260:184|228:88,1,160,0|2,0:0|0:0,0:0:0:0:
136,228,112245,2,0,P|164:288|256:296,1,160,0|2,0:0|0:0,0:0:0:0:
180,152,112870,2,0,P|136:140|84:156,1,80
52,84,113287,6,0,P|20:148|76:228,1,160,0|2,0:0|0:0,0:0:0:0:
128,260,113912,1,0,0:0:0:0:
168,256,114016,1,0,0:0:0:0:
208,252,114120,2,0,L|296:240,1,80
404,132,114537,1,2,0:0:0:0:
364,136,114641,1,0,0:0:0:0:
324,140,114745,1,0,0:0:0:0:
276,76,114953,6,0,P|244:152|284:212,1,160,4|0,0:0|0:0,0:0:0:0:
344,264,115578,2,0,P|272:212|204:264,1,160,2|0,0:0|0:0,0:0:0:0:
168,304,116203,1,0,0:0:0:0:
140,276,116307,1,0,0:0:0:0:
132,236,116411,1,2,0:0:0:0:
152,200,116515,1,0,0:0:0:0:
184,176,116619,2,0,L|164:88,1,80,0|2,0:0|0:0,0:0:0:0:
260,4,117036,2,0,L|276:96,1,80,2|0,0:0|0:0,0:0:0:0:
280,164,117453,6,0,L|288:220,3,40
292,244,117869,1,2,0:0:0:0:
440,300,118078,1,0,0:0:0:0:
408,136,118286,1,2,0:0:0:0:
292,244,118494,1,0,0:0:0:0:
216,272,118703,6,0,P|216:216|240:176,1,80,2|0,0:0|0:0,0:0:0:0:
372,212,119119,2,0,P|372:268|348:308,1,80,2|0,0:0|0:0,0:0:0:0:
288,316,119536,1,2,0:0:0:0:
216,272,119744,1,0,0:0:0:0:
152,316,119953,6,0,P|140:268|212:196,1,160,4|0,0:0|0:0,0:0:0:0:
112,152,120605,2,0,P|196:112|284:136,1,160,2|0,0:0|0:0,0:0:0:0:
324,156,121257,1,2,0:0:0:0:
360,176,121374,1,0,0:0:0:0:
392,196,121491,1,0,0:0:0:0:
424,216,121608,1,0,0:0:0:0:
456,236,121725,2,0,L|388:292,1,80
316,336,122194,1,2,0:0:0:0:
232,300,122428,1,0,0:0:0:0:
156,272,122663,6,0,L|80:276,2,40,0|2|0,0:0|0:0|0:0,0:0:0:0:
220,212,123180,1,0,0:0:0:0:
328,268,123438,1,2,0:0:0:0:
220,136,123697,1,0,0:0:0:0:
328,188,123997,1,2,0:0:0:0:
220,212,124297,6,0,P|160:184|156:96,1,160,2|0,0:0|0:0,0:0:0:0:
220,136,125245,1,2,0:0:0:0:
328,188,125594,1,0,0:0:0:0:
436,244,125943,1,2,0:0:0:0:
436,244,126292,6,0,P|364:292|264:280,1,160,0|2,0:0|0:0,0:0:0:0:
216,272,127257,1,0,0:0:0:0:
56,292,127525,1,2,0:0:0:0:
124,120,127793,1,0,0:0:0:0:
60,192,128061,6,0,P|120:212|212:164,1,160,0|2,0:0|0:0,0:0:0:0:
240,104,128910,1,0,0:0:0:0:
376,192,129193,1,2,0:0:0:0:
236,264,129476,1,0,0:0:0:0:
312,236,129759,6,0,P|316:288|224:348,1,160,0|2,0:0|0:0,0:0:0:0:
152,332,130641,1,0,0:0:0:0:
44,212,130935,1,2,0:0:0:0:
204,180,131229,1,0,0:0:0:0:
280,148,131523,6,0,P|284:204|264:240,1,80
132,220,132189,2,0,P|121:183|128:144,1,80,2|0,0:0|0:0,0:0:0:0:
208,92,132894,1,0,0:0:0:0:
208,92,133247,1,2,0:0:0:0:
256,192,133600,12,0,135541,0:0:0:0:
