osu file format v14

[General]
AudioFilename: audio.mp3
AudioLeadIn: 0
PreviewTime: 63295
Countdown: 0
SampleSet: Soft
StackLeniency: 0.7
Mode: 0
LetterboxInBreaks: 0
WidescreenStoryboard: 1

[Editor]
DistanceSpacing: 0.9
BeatDivisor: 4
GridSize: 4
TimelineZoom: 3.099999

[Metadata]
Title:nostos
TitleUnicode:nostos
Artist:Setaria Virtuoso
ArtistUnicode:Setaria Virtuoso
Creator:Crimmi
Version:Another
Source:ノスタルジア
Tags:wac Jun Wakita Croit Noah CrimmiSkye beatmaniaIIDX beatmania IIDX 24 SINOBUZ jubeat Qubell NOSTALGIA REFLEC BEAT 悠久のリフレシア Yuukyu no Reflesia ノスタルジア稼働記念 楽曲交換キャンペーン launch memorial song crossover campaign Rifureshia Reflesia WAY OF Chapter 4 ノスタルジア稼働記念 楽曲交換キャンペーン Kadō Kado Kadou Kinen Gakkyoku Kōkan Kokan Koukan Kyanpēn Kyanpen launch memorial song crossover campaign SPECIAL SOUND TRACK BEMANI PIANO COLLECTION Konami Amusement Digital Entertainment Yamaha Music Communications Company Limited Co. Ltd. pop'n music うさぎと猫と少年の夢 Usagi to Neko Shōnen Shonen Shounen no Yume うさ猫 UsaNeko
BeatmapID:2416719
BeatmapSetID:623188

[Difficulty]
HPDrainRate:6
CircleSize:4
OverallDifficulty:8
ApproachRate:8
SliderMultiplier:1.8
SliderTickRate:2

[Events]
//Background and Video events
Video,1000,"movie.avi"
0,0,"nostos+BG.jpg",0,0
//Break Periods
//Storyboard Layer 0 (Background)
//Storyboard Layer 1 (Fail)
//Storyboard Layer 2 (Pass)
//Storyboard Layer 3 (Foreground)
//Storyboard Layer 4 (Overlay)
//Storyboard Sound Samples

[TimingPoints]
2492,468.75,3,2,0,20,1,0
36242,454.545454545455,3,2,0,20,1,0
60787,416.666666666667,3,2,0,20,1,0
60787,-66.6666666666667,3,2,0,20,0,0
63287,-66.6666666666667,3,2,0,20,0,0
68287,-100,3,2,0,20,0,0
78287,416.666666666667,4,2,0,20,1,0
91620,-66.6666666666667,4,2,0,20,0,0
94953,-100,4,2,0,20,0,0
114953,416.666666666667,3,2,0,20,1,0
119953,434.782608695652,3,2,0,20,1,0
121257,468.75,3,2,0,20,1,0
122663,517.241379310345,3,2,0,20,1,0
123697,600,3,2,0,20,1,0
124897,697.674418604651,3,2,0,20,1,0
126990,535.714285714286,3,2,0,20,1,0
128061,566.037735849057,3,2,0,20,1,0
129759,588.235294117647,3,2,0,20,1,0
131523,666.666666666667,3,2,0,20,1,0
132189,705.882352941176,3,2,0,20,1,0

[Colours]
Combo1 : 19,208,223
Combo2 : 0,193,0
Combo3 : 202,202,0
Combo4 : 129,129,129

[HitObjects]
304,264,2492,5,2,0:0:0:0:
256,112,2648,1,0,0:0:0:0:
208,264,2843,1,0,0:0:0:0:
172,176,3038,1,0,0:0:0:0:
336,176,3273,1,2,0:0:0:0:
256,336,3898,5,0,0:0:0:0:
172,176,4367,1,0,0:0:0:0:
336,176,4835,1,2,0:0:0:0:
184,272,5304,6,0,L|80:288,1,90
232,200,5773,2,0,P|264:248|264:296,1,90
224,360,6202,1,2,0:0:0:0:
312,360,6476,1,0,0:0:0:0:
400,360,6710,2,0,L|496:360,1,90
356,279,7179,2,0,L|252:280,1,90
396,196,7648,2,0,L|496:196,1,90,2|0,0:0|0:0,0:0:0:0:
356,279,8117,6,0,P|308:220|304:196,1,90
344,80,8585,1,0,0:0:0:0:
396,196,8820,1,0,0:0:0:0:
264,100,9054,2,0,P|240:148|232:196,1,90,2|0,0:0|0:0,0:0:0:0:
396,196,9523,2,0,P|420:148|428:100,1,90
340,124,9992,5,0,0:0:0:0:
300,144,10109,1,0,0:0:0:0:
256,144,10226,1,0,0:0:0:0:
217,121,10343,1,0,0:0:0:0:
184,92,10460,2,0,L|168:196,1,90,2|0,0:0|0:0,0:0:0:0:
120,256,10929,2,0,P|172:272|236:236,1,90
170,180,11398,2,0,P|124:168|76:180,1,90
36,252,11867,5,2,0:0:0:0:
144,332,12101,1,0,0:0:0:0:
248,260,12335,2,0,L|352:272,1,90
216,172,12804,2,0,P|168:216|168:276,1,90
296,192,13273,2,0,P|296:144|264:100,1,90,2|0,0:0|0:0,0:0:0:0:
216,32,13742,5,0,0:0:0:0:
132,104,13976,1,0,0:0:0:0:
288,108,14210,1,0,0:0:0:0:
168,192,14445,1,0,0:0:0:0:
268,200,14679,1,2,0:0:0:0:
132,104,14913,1,0,0:0:0:0:
168,192,15148,6,0,P|136:236|128:284,1,90
379,270,15617,2,0,P|367:226|340:192,1,90
256,276,16085,1,2,0:0:0:0:
168,192,16320,1,0,0:0:0:0:
256,108,16554,6,0,L|340:72,2,90
168,192,17257,2,0,L|84:228,2,90,0|2|0,0:0|0:0|0:0,0:0:0:0:
280,216,17960,2,0,P|348:184|452:232,1,180
244,292,18663,2,0,P|200:232|236:140,1,180
160,328,19367,6,0,P|132:280|120:240,1,90,4|0,0:0|0:0,0:0:0:0:
390,247,19835,2,0,P|375:289|352:328,1,90
260,328,20304,1,2,0:0:0:0:
192,212,20538,1,0,0:0:0:0:
324,212,20773,6,0,P|344:264|348:304,1,90
168,297,21242,2,0,P|174:253|192:212,1,90
256,104,21710,1,2,0:0:0:0:
324,212,21945,1,0,0:0:0:0:
192,212,22179,6,0,L|88:224,1,90
12,236,22648,1,0,0:0:0:0:
144,304,22882,1,0,0:0:0:0:
124,136,23117,2,0,L|224:120,1,90,2|0,0:0|0:0,0:0:0:0:
284,68,23585,6,0,P|300:128|288:168,1,90
212,120,24054,1,0,0:0:0:0:
364,48,24288,1,0,0:0:0:0:
368,68,24367,1,0,0:0:0:0:
372,88,24445,1,0,0:0:0:0:
376,108,24523,2,0,P|372:184|364:208,1,90,2|0,0:0|0:0,0:0:0:0:
288,324,24992,6,0,P|292:248|300:224,1,90
368,288,25460,2,0,L|156:276,1,180,2|0,0:0|0:0,0:0:0:0:
100,276,26163,1,0,0:0:0:0:
148,200,26398,2,0,P|88:188|40:212,1,90
56,344,26867,2,0,P|116:356|156:332,1,90,2|0,0:0|0:0,0:0:0:0:
208,284,27335,1,0,0:0:0:0:
300,284,27570,1,0,0:0:0:0:
364,348,27804,6,0,L|460:348,2,90,0|0|2,0:0|0:0|0:0,0:0:0:0:
140,345,28507,2,0,L|44:345,2,90
300,284,29210,1,0,0:0:0:0:
208,284,29445,1,0,0:0:0:0:
372,328,29679,2,0,P|384:280|368:232,1,90,2|0,0:0|0:0,0:0:0:0:
138,241,30382,1,0,0:0:0:0:
138,241,30617,6,0,P|127:285|140:328,1,90
188,164,31085,2,0,L|168:56,1,90
333,75,31554,2,0,L|304:176,1,90,2|0,0:0|0:0,0:0:0:0:
252,296,32023,5,0,0:0:0:0:
400,200,32257,1,0,0:0:0:0:
228,192,32492,5,0,0:0:0:0:
360,308,32726,1,0,0:0:0:0:
320,120,32960,2,0,L|344:24,1,90,2|0,0:0|0:0,0:0:0:0:
228,192,33429,6,0,L|200:300,1,90
280,128,33898,2,0,P|228:108|168:136,1,90
104,96,34367,6,0,L|132:196,1,90,2|0,0:0|0:0,0:0:0:0:
100,284,34835,1,0,0:0:0:0:
232,176,35070,1,0,0:0:0:0:
248,352,35304,1,0,0:0:0:0:
128,184,35538,1,0,0:0:0:0:
148,360,35773,1,2,0:0:0:0:
292,268,36007,1,0,0:0:0:0:
192,264,36242,6,0,L|100:276,1,90,4|0,0:0|0:0,0:0:0:0:
248,180,36696,2,0,L|356:168,1,90,2|0,0:0|0:0,0:0:0:0:
424,244,37151,1,0,0:0:0:0:
496,160,37378,1,0,0:0:0:0:
416,80,37605,1,0,0:0:0:0:
337,170,37832,1,0,0:0:0:0:
344,296,38060,6,0,L|340:232,1,45
244,144,38287,2,0,L|248:208,1,45
152,296,38514,2,0,L|144:200,1,90,2|0,0:0|0:0,0:0:0:0:
208,356,38969,2,0,P|144:380|108:363,1,90
248,288,39423,1,2,0:0:0:0:
248,288,39651,2,0,P|280:328|284:376,1,90,0|2,0:0|0:0,0:0:0:0:
168,292,40105,6,0,P|180:244|220:212,1,90
296,196,40560,1,0,0:0:0:0:
376,232,40787,2,0,L|480:236,1,90
304,281,41242,1,2,0:0:0:0:
288,239,41355,1,0,0:0:0:0:
295,195,41469,1,0,0:0:0:0:
380,312,41696,6,0,L|172:320,1,180
100,332,42378,1,0,0:0:0:0:
80,220,42605,1,2,0:0:0:0:
192,208,42832,1,0,0:0:0:0:
200,320,43060,2,0,P|296:296|384:320,1,180
452,360,43742,1,0,0:0:0:0:
448,264,43969,2,0,L|456:172,1,90,2|0,0:0|0:0,0:0:0:0:
460,84,44423,5,4,0:0:0:0:
348,160,44651,1,0,0:0:0:0:
480,124,44878,1,2,0:0:0:0:
324,120,45105,1,0,0:0:0:0:
492,160,45332,1,2,0:0:0:0:
300,76,45560,1,0,0:0:0:0:
492,160,45787,6,0,P|480:216|452:264,1,90
273,161,46242,2,0,P|285:105|313:57,1,90,2|0,0:0|0:0,0:0:0:0:
340,208,46696,1,2,0:0:0:0:
306,236,46810,1,0,0:0:0:0:
262,243,46923,1,0,0:0:0:0:
221,225,47037,1,0,0:0:0:0:
196,189,47151,6,0,L|184:288,1,90,4|0,0:0|0:0,0:0:0:0:
128,162,47605,2,0,P|197:113|268:192,1,180,2|2,0:0|0:0,0:0:0:0:
312,240,48287,1,0,0:0:0:0:
360,164,48514,2,0,L|456:172,1,90
300,104,48969,2,0,L|192:100,1,90
120,100,49423,1,2,0:0:0:0:
168,176,49651,1,0,0:0:0:0:
168,28,49878,6,0,P|236:20|280:48,1,90
300,104,50332,1,0,0:0:0:0:
380,60,50560,2,0,P|388:130|303:197,1,180,2|2,0:0|0:0,0:0:0:0:
310,80,51242,2,0,P|313:119|270:118,1,90,2|2,0:0|0:0,0:0:0:0:
460,68,51696,2,0,P|443:187|375:252,1,180,2|2,0:0|0:0,0:0:0:0:
328,272,52378,1,0,0:0:0:0:
244,304,52605,6,0,P|244:248|264:208,1,90,2|0,0:0|0:0,0:0:0:0:
316,356,53060,2,0,L|140:316,1,180,2|0,0:0|0:0,0:0:0:0:
52,292,53742,1,2,0:0:0:0:
52,292,53969,1,0,0:0:0:0:
208,224,54196,1,0,0:0:0:0:
208,224,54423,1,2,0:0:0:0:
52,168,54651,1,0,0:0:0:0:
52,168,54878,1,2,0:0:0:0:
208,96,55105,1,0,0:0:0:0:
208,224,55332,6,0,B|252:212|252:212|304:228,1,90
164,160,55787,2,0,B|252:140|252:140|356:164,1,180,2|0,0:0|0:0,0:0:0:0:
420,200,56469,1,0,0:0:0:0:
412,112,56696,1,2,0:0:0:0:
308,248,56923,2,0,L|328:312,1,45
420,200,57151,2,0,L|408:152,1,45,2|0,0:0|0:0,0:0:0:0:
256,228,57378,2,0,L|272:292,1,45
456,148,57605,2,0,L|448:100,2,45,2|0|2,0:0|0:0|0:0,0:0:0:0:
476,222,57946,1,0,0:0:0:0:
461,298,58060,6,0,L|339:289,1,90,4|0,0:0|0:0,0:0:0:0:
280,285,58514,1,0,0:0:0:0:
312,208,58742,2,0,P|260:203|205:247,1,90,2|0,0:0|0:0,0:0:0:0:
200,296,59196,1,2,0:0:0:0:
160,368,59423,2,0,L|108:260,1,90
88,208,59878,1,0,0:0:0:0:
32,152,60105,2,0,P|84:124|140:148,1,90,2|0,0:0|0:0,0:0:0:0:
188,240,60560,1,2,0:0:0:0:
248,348,60787,6,0,P|300:224|204:120,1,270.000010299683,4|0,0:0|0:0,0:0:0:0:
184,184,61412,2,0,P|288:160|184:68,1,270.000010299683,2|2,0:0|0:0,0:0:0:0:
117,200,62037,2,0,P|220:244|223:126,1,270.000010299683
184,184,62662,1,2,0:0:0:0:
258,296,62870,1,2,0:0:0:0:
264,276,62974,1,0,0:0:0:0:
268,256,63078,1,0,0:0:0:0:
272,240,63182,1,0,0:0:0:0:
276,224,63287,6,0,P|324:172|388:188,1,135.000005149842,4|0,0:0|0:0,0:0:0:0:
424,244,63703,1,0,0:0:0:0:
472,304,63912,2,0,L|484:140,1,135.000005149842,2|0,0:0|0:0,0:0:0:0:
496,96,64328,1,0,0:0:0:0:
472,24,64537,2,0,P|444:76|332:64,1,135.000005149842,2|0,0:0|0:0,0:0:0:0:
400,20,64953,1,0,0:0:0:0:
412,156,65162,2,0,P|332:152|296:88,1,135.000005149842,2|0,0:0|0:0,0:0:0:0:
373,91,65578,1,0,0:0:0:0:
424,228,65787,6,0,P|351:233|288:208,1,135.000005149842,2|0,0:0|0:0,0:0:0:0:
224,216,66203,1,0,0:0:0:0:
224,288,66412,2,0,L|120:152,1,135.000005149842,2|0,0:0|0:0,0:0:0:0:
108,120,66828,1,0,0:0:0:0:
70,180,67037,2,0,P|138:184|91:49,1,270.000010299683,2|0,0:0|0:0,0:0:0:0:
70,180,67662,2,0,P|137:205|211:189,1,135.000005149842,2|2,0:0|0:0,0:0:0:0:
221,182,67974,1,2,0:0:0:0:
250,177,68078,1,2,0:0:0:0:
280,184,68182,1,2,0:0:0:0:
300,196,68287,6,0,L|408:180,1,90,4|0,0:0|0:0,0:0:0:0:
221,182,68703,2,0,P|228:240|272:276,1,90,2|0,0:0|0:0,0:0:0:0:
332,296,69120,1,0,0:0:0:0:
256,344,69328,1,0,0:0:0:0:
332,296,69537,2,0,L|440:288,1,90,2|0,0:0|0:0,0:0:0:0:
264,352,69953,1,2,0:0:0:0:
264,352,70057,1,0,0:0:0:0:
264,352,70162,2,0,P|248:288|268:244,1,90
284,192,70578,1,0,0:0:0:0:
356,228,70787,6,0,P|360:168|340:136,1,90,2|0,0:0|0:0,0:0:0:0:
300,276,71203,2,0,L|420:300,1,90,2|0,0:0|0:0,0:0:0:0:
456,340,71620,1,0,0:0:0:0:
460,260,71828,1,2,0:0:0:0:
396,208,72037,2,0,L|412:112,1,90,0|2,0:0|0:0,0:0:0:0:
384,44,72453,1,0,0:0:0:0:
344,52,72557,1,0,0:0:0:0:
304,60,72662,1,2,0:0:0:0:
224,72,72870,2,2,L|240:128,1,45
180,216,73078,2,2,L|152:144,1,45
244,256,73287,6,0,P|208:288|156:288,1,90
248,184,73703,2,0,P|292:200|316:264,1,90,2|0,0:0|0:0,0:0:0:0:
180,216,74120,2,0,P|172:168|200:124,1,90,2|2,0:0|0:0,0:0:0:0:
240,68,74537,2,0,P|196:52|136:72,1,90,2|0,0:0|0:0,0:0:0:0:
268,144,74953,1,2,0:0:0:0:
268,144,75057,1,0,0:0:0:0:
268,144,75162,2,0,P|320:88|320:60,1,90,2|2,0:0|0:0,0:0:0:0:
308,40,75474,1,0,0:0:0:0:
280,12,75578,1,0,0:0:0:0:
240,4,75682,1,0,0:0:0:0:
200,12,75787,5,0,0:0:0:0:
200,140,75995,1,0,0:0:0:0:
100,72,76203,2,0,L|310:81,1,180,2|0,0:0|0:0,0:0:0:0:
360,84,76828,1,2,0:0:0:0:
316,152,77037,2,0,P|364:164|408:148,1,90,0|2,0:0|0:0,0:0:0:0:
279,79,77453,1,0,0:0:0:0:
279,79,77557,1,0,0:0:0:0:
279,79,77662,2,0,P|240:120|232:136,1,45,2|0,0:0|0:0,0:0:0:0:
112,132,77870,2,0,P|152:140|160:140,1,45,2|2,0:0|0:0,0:0:0:0:
208,244,78078,2,0,P|224:200|224:184,1,45,2|0,0:0|0:0,0:0:0:0:
144,284,78287,6,0,L|324:284,1,180,4|2,0:0|0:0,0:0:0:0:
396,316,78912,1,0,0:0:0:0:
472,348,79120,2,0,P|428:288|480:200,1,180,0|2,0:0|0:0,0:0:0:0:
504,276,79745,1,0,0:0:0:0:
368,336,79953,2,0,P|356:280|364:232,1,90,2|0,0:0|0:0,0:0:0:0:
352,36,80370,2,0,P|364:84|356:140,1,90,2|0,0:0|0:0,0:0:0:0:
212,184,80787,2,0,P|264:176|320:192,1,90,2|0,0:0|0:0,0:0:0:0:
508,196,81203,2,0,P|456:204|400:188,1,90,2|0,0:0|0:0,0:0:0:0:
300,184,81620,6,0,P|248:176|192:192,1,90,2|0,0:0|0:0,0:0:0:0:
360,256,82037,1,2,0:0:0:0:
360,256,82245,2,0,P|384:188|372:140,1,90,0|2,0:0|0:0,0:0:0:0:
336,112,82662,2,0,P|384:96|428:112,1,90,0|2,0:0|0:0,0:0:0:0:
300,184,83078,1,0,0:0:0:0:
227,206,83287,2,0,P|225:162|248:124,1,90,2|0,0:0|0:0,0:0:0:0:
299,183,83703,2,0,P|301:227|279:266,1,90,2|0,0:0|0:0,0:0:0:0:
152,224,84120,6,0,P|148:172|160:128,1,90,2|0,0:0|0:0,0:0:0:0:
363,163,84537,1,2,0:0:0:0:
372,207,84641,1,2,0:0:0:0:
368,251,84745,1,2,0:0:0:0:
352,296,84849,1,2,0:0:0:0:
320,320,84953,5,4,0:0:0:0:
240,324,85162,1,2,0:0:0:0:
240,324,85266,2,0,L|152:336,1,45,0|2,0:0|0:0,0:0:0:0:
56,240,85578,1,0,0:0:0:0:
56,240,85682,2,0,L|132:240,1,45
252,184,85995,1,2,0:0:0:0:
252,184,86099,2,0,L|184:160,1,45,0|2,0:0|0:0,0:0:0:0:
136,136,86412,1,0,0:0:0:0:
64,96,86620,5,0,0:0:0:0:
64,96,86828,2,0,P|100:60|120:48,2,45,2|0|2,0:0|0:0|0:0,0:0:0:0:
209,169,87245,2,0,P|173:205|153:217,2,45
208,96,87662,2,0,P|172:60|152:48,2,45,2|0|2,0:0|0:0|0:0,0:0:0:0:
63,169,88078,1,0,0:0:0:0:
192,244,88287,5,0,0:0:0:0:
192,244,88495,2,0,L|248:236,1,45
276,232,88703,1,2,0:0:0:0:
472,276,88912,2,0,L|416:283,1,45,2|0,0:0|0:0,0:0:0:0:
388,285,89120,1,0,0:0:0:0:
176,172,89328,2,0,L|264:164,1,45
260,164,89537,1,2,0:0:0:0:
408,152,89745,1,0,0:0:0:0:
316,40,89953,5,0,0:0:0:0:
260,164,90162,1,0,0:0:0:0:
260,164,90266,1,0,0:0:0:0:
260,164,90370,1,2,0:0:0:0:
408,152,90578,1,0,0:0:0:0:
408,152,90682,1,0,0:0:0:0:
408,152,90787,5,2,0:0:0:0:
344,288,90995,1,0,0:0:0:0:
396,356,91203,1,2,0:0:0:0:
354,371,91307,1,0,0:0:0:0:
310,364,91412,1,2,0:0:0:0:
276,335,91516,1,2,0:0:0:0:
264,296,91620,6,4,P|226:290|178:298,1,67.5000025749208
310,364,91932,2,4,P|344:304|312:232,1,135.000005149842
256,144,92349,1,2,0:0:0:0:
256,144,92453,2,4,P|218:149|170:141,1,67.5000025749208
284,64,92766,2,4,P|332:116|324:184,1,135.000005149842
268,284,93182,1,2,0:0:0:0:
268,284,93287,6,4,L|152:288,1,67.5000025749208
32,192,93599,2,4,L|192:184,1,135.000005149842
288,180,94016,1,4,0:0:0:0:
344,124,94120,2,0,P|364:192|316:256,1,135.000005149842,4|2,0:0|0:0,0:0:0:0:
260,256,94432,1,0,0:0:0:0:
260,256,94537,2,0,L|192:284,1,67.5000025749208
72,240,94745,2,0,L|148:208,1,67.5000025749208,2|0,0:0|0:0,0:0:0:0:
172,200,94953,6,0,P|188:128|76:84,1,180,4|2,0:0|0:0,0:0:0:0:
116,148,95578,2,0,P|96:204|200:276,1,180
244,244,96203,1,2,0:0:0:0:
244,324,96412,1,0,0:0:0:0:
284,324,96516,1,0,0:0:0:0:
324,324,96620,2,0,P|384:300|500:336,1,180,0|2,0:0|0:0,0:0:0:0:
256,368,97245,1,0,0:0:0:0:
256,368,97349,1,0,0:0:0:0:
256,368,97453,2,0,P|244:316|264:264,1,90
320,152,97870,2,0,P|332:200|312:256,1,90,2|0,0:0|0:0,0:0:0:0:
248,120,98287,6,0,P|300:76|400:148,1,180,0|2,0:0|0:0,0:0:0:0:
320,152,98912,2,0,P|268:196|172:116,1,180
144,76,99537,1,2,0:0:0:0:
84,132,99745,1,0,0:0:0:0:
120,204,99953,2,0,P|148:252|64:352,1,180,0|2,0:0|0:0,0:0:0:0:
68,268,100578,1,0,0:0:0:0:
176,160,100787,2,0,P|212:220|216:272,1,90
96,156,101203,2,0,P|120:104|184:76,1,90,2|0,0:0|0:0,0:0:0:0:
224,64,101620,5,0,0:0:0:0:
372,132,102037,1,2,0:0:0:0:
329,128,102141,1,0,0:0:0:0:
311,166,102245,1,0,0:0:0:0:
341,196,102349,1,0,0:0:0:0:
379,178,102453,1,0,0:0:0:0:
208,152,102662,1,2,0:0:0:0:
276,292,102870,1,0,0:0:0:0:
304,96,103078,1,2,0:0:0:0:
208,240,103287,6,0,P|272:212|360:280,1,180,0|2,0:0|0:0,0:0:0:0:
392,340,103912,1,0,0:0:0:0:
416,308,104016,1,0,0:0:0:0:
424,268,104120,2,0,B|436:200|436:200|392:124|392:124|372:144|396:168,1,180,0|2,0:0|0:0,0:0:0:0:
352,220,104745,1,0,0:0:0:0:
304,156,104953,2,0,B|176:156|176:156|224:180,1,180
352,220,105578,2,0,B|398:243|398:243|270:243,1,180
152,244,106203,1,0,0:0:0:0:
216,304,106412,1,0,0:0:0:0:
286,335,106620,6,0,P|224:380|140:320,1,180
216,304,107245,1,0,0:0:0:0:
240,272,107349,1,0,0:0:0:0:
280,268,107453,2,0,L|380:272,1,90
440,232,107870,1,0,0:0:0:0:
408,208,107974,1,0,0:0:0:0:
372,188,108078,1,0,0:0:0:0:
340,164,108182,1,0,0:0:0:0:
304,144,108287,6,0,P|248:132|112:148,1,180,4|2,0:0|0:0,0:0:0:0:
64,196,108912,1,0,0:0:0:0:
64,196,109016,1,0,0:0:0:0:
64,196,109120,2,0,P|48:144|60:96,1,90
126,143,109537,1,2,0:0:0:0:
164,160,109641,1,0,0:0:0:0:
200,180,109745,1,0,0:0:0:0:
236,200,109849,1,0,0:0:0:0:
272,216,109953,6,0,B|400:216|400:216|336:180,1,180,0|2,0:0|0:0,0:0:0:0:
284,148,110578,1,0,0:0:0:0:
284,148,110682,1,0,0:0:0:0:
284,148,110787,2,0,L|168:148,1,90
36,212,111203,2,0,L|136:212,1,90,2|0,0:0|0:0,0:0:0:0:
204,268,111620,6,0,P|288:292|384:268,1,180,0|2,0:0|0:0,0:0:0:0:
126,212,112245,2,0,P|110:276|182:364,1,180
172,152,112870,2,0,P|128:136|76:156,1,90,2|0,0:0|0:0,0:0:0:0:
28,200,113287,1,0,0:0:0:0:
28,200,113391,1,0,0:0:0:0:
28,200,113495,2,0,P|12:136|20:108,1,90,0|2,0:0|0:0,0:0:0:0:
76,60,113912,5,0,0:0:0:0:
116,64,114016,1,0,0:0:0:0:
156,64,114120,2,0,L|168:116,1,45
264,200,114328,2,0,L|252:148,1,45
76,60,114537,2,0,L|92:136,1,45,2|0,0:0|0:0,0:0:0:0:
348,208,114745,2,0,L|332:132,1,45
427,208,114953,5,4,0:0:0:0:
399,268,115057,1,0,0:0:0:0:
337,288,115161,1,0,0:0:0:0:
280,256,115265,1,0,0:0:0:0:
240,208,115369,1,0,0:0:0:0:
115,201,115578,1,2,0:0:0:0:
72,348,115786,1,0,0:0:0:0:
224,320,115994,1,2,0:0:0:0:
136,284,116203,5,4,0:0:0:0:
71,271,116307,1,0,0:0:0:0:
35,216,116411,1,0,0:0:0:0:
50,152,116515,1,0,0:0:0:0:
107,119,116619,1,0,0:0:0:0:
204,192,116828,1,0,0:0:0:0:
300,268,117036,2,0,P|316:232|312:156,1,90,2|2,0:0|0:0,0:0:0:0:
192,284,117453,5,4,0:0:0:0:
233,336,117557,1,0,0:0:0:0:
296,356,117661,1,0,0:0:0:0:
360,337,117765,1,0,0:0:0:0:
402,286,117869,1,0,0:0:0:0:
296,228,118078,1,0,0:0:0:0:
404,152,118286,1,2,0:0:0:0:
276,100,118494,1,0,0:0:0:0:
296,228,118703,6,0,B|244:208|200:232,1,90
336,288,119119,2,0,P|360:260|352:184,1,90,2|0,0:0|0:0,0:0:0:0:
276,100,119536,1,2,0:0:0:0:
164,172,119744,1,0,0:0:0:0:
100,132,119953,5,4,0:0:0:0:
86,174,120061,1,0,0:0:0:0:
99,216,120170,1,0,0:0:0:0:
134,244,120279,1,0,0:0:0:0:
178,248,120387,1,2,0:0:0:0:
284,192,120605,1,0,0:0:0:0:
276,312,120822,1,2,0:0:0:0:
178,248,121039,1,0,0:0:0:0:
136,312,121257,5,0,0:0:0:0:
105,268,121374,1,0,0:0:0:0:
110,215,121491,1,0,0:0:0:0:
148,178,121608,1,0,0:0:0:0:
200,172,121725,1,2,0:0:0:0:
344,212,121960,1,0,0:0:0:0:
228,320,122194,1,2,0:0:0:0:
256,244,122663,5,0,0:0:0:0:
208,188,122792,1,0,0:0:0:0:
240,124,122921,1,0,0:0:0:0:
308,140,123050,1,0,0:0:0:0:
324,212,123180,1,2,0:0:0:0:
304,292,123438,1,0,0:0:0:0:
192,268,123697,1,2,0:0:0:0:
76,244,123997,1,0,0:0:0:0:
144,200,124297,6,0,P|200:184|248:200,1,90
300,232,124897,1,2,0:0:0:0:
232,264,125245,2,0,P|272:304|316:308,1,90
229,190,125943,2,0,P|184:208|160:264,1,90,2|0,0:0|0:0,0:0:0:0:
172,324,126641,5,0,0:0:0:0:
276,320,126990,1,2,0:0:0:0:
336,188,127257,1,0,0:0:0:0:
368,336,127525,1,2,0:0:0:0:
252,232,127793,1,0,0:0:0:0:
400,252,128061,6,0,P|424:200|420:156,1,90
364,72,128627,1,2,0:0:0:0:
280,192,128910,1,0,0:0:0:0:
276,32,129193,1,2,0:0:0:0:
376,160,129476,1,0,0:0:0:0:
220,112,129759,6,0,L|116:116,1,90
48,120,130347,1,2,0:0:0:0:
104,320,130641,1,0,0:0:0:0:
200,144,130935,1,2,0:0:0:0:
12,232,131229,1,0,0:0:0:0:
216,264,131523,5,0,0:0:0:0:
352,60,131856,1,0,0:0:0:0:
464,280,132189,1,2,0:0:0:0:
240,140,132541,1,0,0:0:0:0:
460,156,132894,1,2,0:0:0:0:
340,336,133247,1,0,0:0:0:0:
256,192,133600,12,0,135541,0:0:0:0:
