osu file format v14

[General]
AudioFilename: audio.mp3
AudioLeadIn: 0
PreviewTime: 43919
Countdown: 1
SampleSet: None
StackLeniency: 0.7
Mode: 0
LetterboxInBreaks: 0
WidescreenStoryboard: 0

[Editor]
DistanceSpacing: 1.2
BeatDivisor: 4
GridSize: 4
TimelineZoom: 1

[Metadata]
Title:Why Worry (Nightcore, short ver.)
TitleUnicode:Why Worry (Nightcore, short ver.)
Artist:Set It Off
ArtistUnicode:Set It Off
Creator:Sassbjorn
Version:Insane
Source:
Tags:Set It Off Why Worry Nightcore
BeatmapID:1480177
BeatmapSetID:698934

[Difficulty]
HPDrainRate:6
CircleSize:4
OverallDifficulty:7.5
ApproachRate:9
SliderMultiplier:1.5
SliderTickRate:1

[Events]
//Background and Video events
0,0,"map bg.png",0,0
//Break Periods
//Storyboard Layer 0 (Background)
//Storyboard Layer 1 (Fail)
//Storyboard Layer 2 (Pass)
//Storyboard Layer 3 (Foreground)
//Storyboard Sound Samples

[TimingPoints]
520.733821794791,494.641384995878,4,3,0,60,1,0
12386,-83.3333333333333,4,1,0,65,0,0
28220,-71.4285714285714,4,1,0,65,0,0
32177,-66.6666666666667,4,1,0,65,0,0
33167,-71.4285714285714,4,1,0,65,0,0
34156,-66.6666666666667,4,1,0,65,0,0
35145,-71.4285714285714,4,1,0,65,0,0
39102,-50,4,1,0,65,0,0
40586,-83.3333333333333,4,1,0,65,0,0
41081,-55.5555555555556,4,1,0,65,0,0
42565,-55.5555555555556,4,1,0,20,0,0
43059,-55.5555555555556,4,1,0,65,0,0
44049,-62.5,4,1,0,70,0,1
57899,-50,4,1,0,80,0,0
59135,-50,4,1,0,75,0,0
59383,-50,4,1,0,70,0,0
59630,-50,4,1,0,65,0,0

[HitObjects]
98,66,520,6,0,L|191:55,1,75
302,115,1015,2,0,L|209:126,1,75
128,210,1510,2,0,L|202:201,1,75
202,201,1880,1,0,0:0:0:0:
330,187,2128,2,0,L|292:191,1,37.5
144,330,2499,6,0,L|133:237,1,75
193,126,2994,2,0,L|204:219,1,75
288,300,3489,2,0,L|279:225,1,75
279,226,3859,1,0,0:0:0:0:
262,97,4107,2,0,L|266:135,1,37.5
346,273,4477,6,0,P|310:293|258:292,1,75
189,315,4972,2,0,P|189:273|216:229,1,75
231,158,5467,2,0,P|266:179|291:224,1,75
285,206,5838,1,0,0:0:0:0:
306,332,6085,2,0,L|302:294,1,37.5
185,94,6456,5,0,0:0:0:0:
157,174,6703,1,0,0:0:0:0:
101,109,6951,2,0,P|81:140|76:177,1,75
225,198,7445,2,0,P|194:178|157:173,1,75
156,173,7816,1,0,0:0:0:0:
115,252,8064,2,0,L|111:290,1,37.5
225,198,8434,6,0,P|261:178|313:179,1,75
382,156,8929,2,0,P|382:198|355:242,1,75
340,313,9424,2,0,P|305:292|280:247,1,75
286,265,9795,1,0,0:0:0:0:
264,143,10042,2,0,L|268:181,1,37.5
425,250,10413,5,0,0:0:0:0:
345,222,10660,1,0,0:0:0:0:
410,166,10908,2,0,P|379:146|342:141,1,75
321,290,11402,2,0,P|341:259|346:222,1,75
346,221,11773,1,0,0:0:0:0:
260,187,12021,1,0,0:0:0:0:
256,225,12144,1,0,1:0:0:0:
169,304,12392,6,0,P|117:306|82:294,2,89.9999972534181,0|0|0,0:0|3:0|3:0,0:0:0:0:
135,195,13134,1,0,0:0:0:0:
346,277,13381,2,0,P|360:234|357:190,2,89.9999972534181,0|0|0,0:0|3:0|3:0,0:0:0:0:
248,224,14123,1,0,0:0:0:0:
471,145,14370,5,0,0:0:0:0:
459,305,14618,2,0,L|454:249,1,44.999998626709,0|0,3:0|3:0,3:0:0:0:
454,260,14865,1,0,3:0:0:0:
276,235,15112,1,0,0:0:0:0:
388,93,15359,1,0,0:0:0:0:
454,260,15607,1,0,0:0:0:0:
320,153,15854,1,0,0:0:0:0:
447,171,16102,1,0,0:0:0:0:
352,328,16349,6,0,P|299:334|260:328,2,89.9999972534181,0|0|0,0:0|3:0|3:0,0:0:0:0:
243,244,17091,1,0,0:0:0:0:
410,229,17338,2,0,P|417:185|411:140,2,89.9999972534181,0|0|0,0:0|3:0|3:0,0:0:0:0:
326,121,18080,1,0,0:0:0:0:
193,204,18327,5,0,0:0:0:0:
342,226,18575,2,0,L|283:220,1,44.999998626709,0|0,3:0|3:0,3:0:0:0:
298,221,18822,1,0,3:0:0:0:
174,145,19069,1,0,0:0:0:0:
317,111,19317,1,0,0:0:0:0:
221,222,19564,1,0,0:0:0:0:
233,75,19811,1,0,0:0:0:0:
309,200,20059,1,0,0:0:0:0:
448,70,20306,6,0,L|392:63,1,44.999998626709,0|0,0:0|3:0,0:0:0:0:
328,130,20553,2,0,L|272:123,1,44.999998626709,0|0,0:0|3:0,0:0:0:0:
441,83,20801,2,0,L|385:76,1,44.999998626709,0|0,0:0|3:0,0:0:0:0:
321,143,21048,2,0,L|265:136,1,44.999998626709,0|0,0:0|3:0,0:0:0:0:
410,176,21295,5,0,0:0:0:0:
257,212,21542,1,0,0:0:0:0:
257,212,21666,1,0,0:0:0:0:
365,327,21913,1,0,0:0:0:0:
365,327,22037,1,0,0:0:0:0:
141,295,22284,5,0,0:0:0:0:
342,242,22532,1,0,0:0:0:0:
143,243,22779,5,0,0:0:0:0:
344,296,23027,1,0,0:0:0:0:
173,163,23274,1,0,0:0:0:0:
230,248,23521,1,0,0:0:0:0:
76,191,23769,1,0,0:0:0:0:
168,327,24016,1,0,0:0:0:0:
73,293,24263,6,0,P|118:265|167:218,1,89.9999972534181,0|0,0:0|3:0,0:0:0:0:
162,202,24634,1,0,3:0:0:0:
184,163,24757,1,0,3:0:0:0:
221,137,24881,1,0,3:0:0:0:
265,132,25004,1,0,3:0:0:0:
321,264,25252,1,0,0:0:0:0:
184,251,25500,1,0,3:0:0:0:
184,251,25623,1,0,3:0:0:0:
184,251,25747,2,0,P|170:192|193:141,1,89.9999972534181
380,210,26242,5,0,0:0:0:0:
354,246,26365,1,0,3:0:0:0:
312,258,26489,1,0,3:0:0:0:
271,241,26612,1,0,3:0:0:0:
251,201,26736,1,0,3:0:0:0:
339,56,26984,1,0,0:0:0:0:
505,92,27231,1,0,0:0:0:0:
422,74,27478,1,0,0:0:0:0:
256,110,27726,1,0,0:0:0:0:
339,92,27973,1,0,0:0:0:0:
406,242,28220,6,0,B|411:282|411:282|429:305|429:305|436:357,2,104.999996795654,0|0|0,0:0|3:0|3:0,0:0:0:0:
170,91,28962,1,0,0:0:0:0:
208,230,29209,1,0,0:0:0:0:
188,118,29457,1,0,0:0:0:0:
306,200,29704,1,0,0:0:0:0:
206,150,29951,1,0,0:0:0:0:
71,249,30199,6,0,B|55:286|55:286|58:314|58:314|37:363,2,104.999996795654,0|0|0,0:0|3:0|3:0,0:0:0:0:
151,305,30941,1,0,3:0:0:0:
300,149,31188,1,0,0:0:0:0:
151,231,31435,1,0,0:0:0:0:
306,213,31683,1,0,0:0:0:0:
143,162,31930,1,0,0:0:0:0:
260,118,32177,6,0,P|311:98|305:142,1,112.500004291535,0|0,0:0|2:0,0:0:0:0:
311,136,32548,1,0,0:0:0:0:
311,136,32672,2,0,P|341:179|409:163,1,112.500004291535,0|0,0:0|2:0,0:0:0:0:
386,85,33167,1,0,3:0:0:0:
150,133,33414,1,0,0:0:0:0:
274,227,33661,1,0,0:0:0:0:
165,242,33909,1,0,0:0:0:0:
260,118,34156,6,0,P|311:98|305:142,1,112.500004291535,0|0,0:0|3:0,0:0:0:0:
311,136,34527,1,0,0:0:0:0:
311,136,34651,2,0,P|341:179|409:163,1,112.500004291535,0|0,0:0|3:0,0:0:0:0:
386,85,35145,1,0,0:0:0:0:
248,243,35392,1,0,0:0:0:0:
248,243,35516,1,0,0:0:0:0:
452,275,35763,1,0,0:0:0:0:
452,275,35887,1,0,0:0:0:0:
370,115,36134,6,0,B|345:106|345:106|311:107,1,52.4999983978272,0|0,0:0|3:0,0:0:0:0:
213,171,36382,2,0,B|238:180|238:180|272:179,1,52.4999983978272,0|0,0:0|3:0,0:0:0:0:
358,138,36629,2,0,B|333:129|333:129|299:130,1,52.4999983978272,0|0,0:0|3:0,0:0:0:0:
201,194,36877,2,0,B|226:203|226:203|260:202,1,52.4999983978272,0|0,0:0|3:0,0:0:0:0:
231,123,37124,1,0,0:0:0:0:
405,272,37371,1,0,0:0:0:0:
405,272,37495,1,0,0:0:0:0:
150,326,37742,1,0,0:0:0:0:
150,326,37866,1,0,0:0:0:0:
253,132,38113,5,0,0:0:0:0:
253,248,38360,1,0,0:0:0:0:
345,105,38608,1,0,0:0:0:0:
406,204,38855,1,0,0:0:0:0:
371,357,39102,2,0,B|377:334|349:317|349:317|366:292|366:292|329:259|327:190,1,150,0|0,0:0|3:0,0:0:0:0:
290,384,39597,1,0,0:0:0:0:
426,221,39844,1,0,0:0:0:0:
118,113,40092,1,0,0:0:0:0:
118,113,40586,6,0,P|130:59|176:100,1,134.999995880127,0|0,2:0|2:0,2:0:0:0:
177,93,41081,6,0,P|132:57|118:113,1,134.999995880127,0|0,2:0|2:0,2:0:0:0:
422,300,41823,5,0,0:0:0:0:
98,233,42070,1,0,0:0:0:0:
98,233,42565,1,0,2:0:0:0:
103,311,42812,1,0,2:0:0:0:
171,91,43059,1,0,3:0:0:0:
221,49,43182,1,0,3:0:0:0:
284,63,43306,1,0,3:0:0:0:
312,121,43429,1,0,3:0:0:0:
283,180,43554,1,0,3:0:0:0:
253,238,43677,1,0,3:0:0:0:
282,297,43801,1,0,3:0:0:0:
345,310,43924,1,0,3:0:0:0:
395,269,44049,6,0,P|423:189|403:123,1,120,0|0,0:0|3:0,0:0:0:0:
216,175,44543,2,0,L|334:198,2,120,0|0|0,0:0|3:0|3:0,0:0:0:0:
346,115,45285,1,0,0:0:0:0:
394,313,45533,1,0,0:0:0:0:
198,255,45780,1,0,0:0:0:0:
455,184,46027,5,0,0:0:0:0:
281,274,46275,1,0,0:0:0:0:
335,100,46522,1,0,0:0:0:0:
426,274,46769,2,0,P|392:318|321:342,1,120,0|0,0:0|3:0,0:0:0:0:
243,113,47264,2,0,L|250:196,1,60,0|0,3:0|3:0,3:0:0:0:
169,322,47635,2,0,L|162:239,1,60,0|0,3:0|3:0,3:0:0:0:
148,72,48006,6,0,P|228:44|294:64,1,120,0|0,0:0|3:0,0:0:0:0:
242,251,48500,2,0,L|219:133,2,120,0|0|0,0:0|3:0|3:0,0:0:0:0:
357,101,49242,1,0,0:0:0:0:
144,168,49490,1,0,0:0:0:0:
309,319,49737,1,0,0:0:0:0:
273,72,49984,5,0,0:0:0:0:
168,326,50232,1,0,0:0:0:0:
94,64,50479,1,0,0:0:0:0:
348,169,50727,1,0,0:0:0:0:
422,78,50974,1,0,0:0:0:0:
402,320,51221,1,0,3:0:0:0:
359,356,51344,1,0,3:0:0:0:
306,335,51468,1,0,3:0:0:0:
296,281,51592,1,0,3:0:0:0:
289,222,51715,1,0,3:0:0:0:
267,166,51839,1,0,3:0:0:0:
233,117,51963,6,0,P|159:91|93:131,1,120,0|0,0:0|3:0,0:0:0:0:
148,303,52458,2,0,L|163:180,2,120,0|0|0,0:0|3:0|3:0,0:0:0:0:
314,293,53200,1,0,0:0:0:0:
59,211,53447,1,0,0:0:0:0:
314,129,53694,1,0,0:0:0:0:
188,40,53942,5,0,0:0:0:0:
245,254,54189,1,0,0:0:0:0:
182,85,54436,1,0,0:0:0:0:
125,299,54683,2,0,P|154:356|207:380,1,120,0|0,0:0|3:0,0:0:0:0:
317,210,55178,2,0,L|235:221,1,60,0|0,3:0|3:0,3:0:0:0:
129,147,55549,1,0,3:0:0:0:
129,147,55673,1,0,0:0:0:0:
302,66,55920,5,0,0:0:0:0:
285,256,56167,1,0,0:0:0:0:
431,135,56415,1,0,0:0:0:0:
193,180,56662,1,0,0:0:0:0:
420,157,56909,1,0,0:0:0:0:
182,202,57156,1,0,0:0:0:0:
331,64,57404,5,0,0:0:0:0:
348,254,57651,1,0,0:0:0:0:
77,301,57899,2,0,L|142:308,1,37.5,0|0,0:0|2:0,0:0:0:0:
441,58,58393,2,0,L|376:65,1,37.5,0|0,0:0|2:0,0:0:0:0:
96,72,58888,2,0,L|103:137,1,37.5,0|0,0:0|2:0,0:0:0:0:
273,163,59135,1,0,0:0:0:0:
197,227,59383,1,0,0:0:0:0:
370,281,59630,1,0,0:0:0:0:
