osu file format v14

[General]
AudioFilename: 02 Nightmare.mp3
AudioLeadIn: 0
PreviewTime: 95999
Countdown: 0
SampleSet: Soft
StackLeniency: 0.7
Mode: 0
LetterboxInBreaks: 0
WidescreenStoryboard: 1

[Editor]
DistanceSpacing: 1.2
BeatDivisor: 4
GridSize: 4
TimelineZoom: 1.9

[Metadata]
Title:Nightmare
TitleUnicode:Nightmare
Artist:Set It Off
ArtistUnicode:Set It Off
Creator:Cosmolade
Version:Insane
Source:
Tags:Cinematics (expanded edition) equal vision records reissue evr 245 Hazu- iYiyo pkhg Starset HB24 [_L_u_k_a_s_] Lukas Bakari -bakari-
BeatmapID:1399055
BeatmapSetID:660765

[Difficulty]
HPDrainRate:6
CircleSize:4
OverallDifficulty:7
ApproachRate:9.3
SliderMultiplier:1.4
SliderTickRate:1

[Events]
//Background and Video events
0,0,"BG.jpg",0,0
//Break Periods
//Storyboard Layer 0 (Background)
//Storyboard Layer 1 (Fail)
//Storyboard Layer 2 (Pass)
//Storyboard Layer 3 (Foreground)
//Storyboard Sound Samples

[TimingPoints]
0,352.941176470588,4,2,1,70,1,0
0,-76.9230769230769,4,2,1,70,0,0
5647,-100,4,2,1,70,0,0
16941,-100,4,2,2,70,0,0
22499,-100,4,2,2,5,0,0
22588,-100,4,2,2,70,0,0
28147,-100,4,2,2,5,0,0
28235,-100,4,2,2,70,0,0
33176,-133.333333333333,4,2,2,70,0,0
33882,-86.9565217391304,4,2,2,75,0,0
42264,-86.9565217391304,4,2,2,5,0,0
42352,-86.9565217391304,4,2,1,75,0,0
43764,-86.9565217391304,4,2,1,70,0,0
43852,-86.9565217391304,4,2,1,5,0,0
44294,-86.9565217391304,4,2,1,70,0,0
45176,-66.6666666666667,4,2,1,80,0,1
56117,-76.9230769230769,4,2,1,80,0,0
56470,-66.6666666666667,4,2,1,80,0,1
64941,-76.9230769230769,4,2,1,80,0,1
67764,-76.9230769230769,4,2,1,70,0,0
73411,-86.9565217391304,4,2,2,75,0,0
83294,-86.9565217391304,4,2,1,75,0,0
84705,-86.9565217391304,4,2,1,70,0,0
90264,-86.9565217391304,4,2,1,5,0,0
90352,-86.9565217391304,4,2,1,70,0,0
92117,-86.9565217391304,4,2,2,70,0,0
92470,-133.333333333333,4,2,2,70,0,0
93176,-76.9230769230769,4,2,1,75,0,0
95999,-66.6666666666667,4,2,1,80,0,1
106941,-76.9230769230769,4,2,1,80,0,0
107294,-66.6666666666667,4,2,1,80,0,1
115764,-76.9230769230769,4,2,1,80,0,1
118588,-117.647058823529,4,2,3,25,0,0
129176,-117.647058823529,4,2,2,65,0,0
129882,-66.6666666666667,4,2,3,75,0,0
130588,-86.9565217391304,4,2,3,75,0,0
152382,-86.9565217391304,4,2,1,5,0,0
152470,-149.253731343284,4,2,2,70,0,0
160941,-149.253731343284,4,2,1,75,0,0
163058,-149.253731343284,4,2,1,70,0,0
163676,-149.253731343284,4,2,1,5,0,0
163764,-66.6666666666667,4,2,1,80,0,1
174352,-76.9230769230769,4,2,1,70,0,1
174705,-76.9230769230769,4,2,1,80,0,0
175058,-100,4,2,1,80,0,1
183529,-76.9230769230769,4,2,1,80,0,1
186352,-71.4285714285714,4,2,1,80,0,0
191999,-66.6666666666667,4,2,1,80,0,0
196235,-66.6666666666667,4,2,2,80,0,0

[Colours]
Combo1 : 128,0,0
Combo2 : 0,86,128
Combo3 : 255,0,0
Combo4 : 49,98,98

[HitObjects]
70,92,0,6,0,L|159:111,1,90.9999958343508,12|0,0:0|0:0,0:0:0:0:
241,129,352,1,8,0:0:0:0:
323,145,529,1,0,0:0:0:0:
86,195,705,2,0,L|175:215,1,90.9999958343508,8|0,0:0|0:0,0:0:0:0:
233,307,1058,2,0,L|142:315,1,90.9999958343508,8|0,0:0|0:0,0:0:0:0:
292,217,1410,5,8,0:0:0:0:
372,243,1587,1,0,0:0:0:0:
451,270,1764,2,0,L|480:168,1,90.9999958343508,8|0,0:0|0:0,0:0:0:0:
390,58,2117,2,0,L|391:151,1,90.9999958343508,8|0,0:0|0:0,0:0:0:0:
318,24,2470,1,8,0:0:0:0:
480,109,2647,1,0,0:0:0:0:
334,258,2823,6,0,L|245:240,1,90.9999958343508,12|0,0:0|0:0,0:0:0:0:
162,224,3176,1,8,0:0:0:0:
79,207,3352,1,0,0:0:0:0:
303,155,3529,2,0,L|214:138,1,90.9999958343508,8|0,0:0|0:0,0:0:0:0:
115,50,3882,2,0,L|208:43,1,90.9999958343508,8|0,0:0|0:0,0:0:0:0:
107,167,4235,5,8,0:0:0:0:
83,247,4411,1,0,0:0:0:0:
62,328,4588,2,0,L|161:354,1,90.9999958343508,8|0,0:0|0:0,0:0:0:0:
275,262,4941,2,0,L|175:261,1,90.9999958343508,8|0,0:0|0:0,0:0:0:0:
345,316,5294,1,8,0:0:0:0:
226,171,5470,1,0,0:0:0:0:
414,35,5647,6,0,P|438:104|446:182,1,140,4|0,0:0|3:0,0:0:0:0:
441,254,6176,1,0,0:0:0:0:
297,339,6352,2,0,P|278:268|288:197,1,140,8|0,0:3|3:0,0:0:0:0:
355,153,6882,1,0,0:0:0:0:
194,99,7058,6,0,P|170:164|161:234,1,140,8|0,0:3|3:0,0:0:0:0:
168,318,7588,1,0,0:0:0:0:
289,133,7764,2,0,P|324:136|355:153,1,70,8|0,0:3|0:0,0:0:0:0:
304,215,8117,2,0,P|278:239|268:272,1,70,8|0,0:3|0:0,0:0:0:0:
465,250,8470,6,0,P|474:169|459:88,1,140,8|0,0:3|3:0,0:0:0:0:
399,59,8999,1,0,0:0:0:0:
282,202,9176,2,0,P|285:283|314:355,1,140,8|0,0:3|3:0,0:0:0:0:
386,357,9705,1,0,0:0:0:0:
466,193,9882,6,0,P|428:184|389:198,1,70,8|0,0:3|0:0,0:0:0:0:
466,277,10235,1,0,3:0:0:0:
466,193,10411,1,0,0:0:0:0:
462,108,10588,2,0,P|423:102|365:116,1,70,8|0,0:3|0:0,0:0:0:0:
352,280,10941,1,8,0:3:0:0:
427,186,11117,1,0,0:0:0:0:
330,40,11294,6,0,L|172:50,1,140,8|0,0:3|3:0,0:0:0:0:
123,99,11823,1,8,0:3:0:0:
91,302,11999,2,0,L|249:292,1,140,8|0,0:3|3:0,0:0:0:0:
298,243,12528,1,8,0:3:0:0:
102,170,12705,6,0,P|88:138|88:104,1,70,8|0,0:3|0:0,0:0:0:0:
172,40,13058,1,0,3:0:0:0:
252,60,13235,1,8,0:3:0:0:
332,80,13411,2,0,L|340:172,1,70,8|0,0:3|0:0,0:0:0:0:
404,44,13764,1,8,0:3:0:0:
256,140,13941,1,0,0:0:0:0:
420,280,14117,6,0,P|364:304|276:288,1,140,8|0,0:3|3:0,0:0:0:0:
232,232,14647,1,8,0:3:0:0:
404,44,14823,2,0,L|396:200,1,140,8|0,0:3|3:0,0:0:0:0:
316,160,15352,1,8,0:3:0:0:
492,208,15529,6,0,L|491:285,1,70,8|0,0:3|0:0,0:0:0:0:
396,328,15882,1,0,3:0:0:0:
316,300,16058,1,8,0:3:0:0:
244,256,16235,2,0,P|232:304|248:344,1,70,8|0,0:3|0:0,0:0:0:0:
320,208,16588,1,8,0:3:0:0:
152,272,16764,1,0,0:0:0:0:
280,152,16941,6,0,P|308:178|320:212,1,70,8|0,0:3|0:0,0:0:0:0:
176,128,17294,1,8,0:0:0:0:
240,72,17470,1,8,0:3:0:0:
308,24,17647,2,0,P|344:32|392:60,1,70,8|0,0:3|0:0,0:0:0:0:
475,175,17999,5,8,0:0:0:0:
403,215,18176,1,8,0:3:0:0:
319,207,18352,2,0,P|287:179|280:136,1,70,8|0,0:3|0:0,0:0:0:0:
308,288,18705,1,8,0:0:0:0:
364,124,18882,1,8,0:3:0:0:
378,285,19058,2,0,L|306:289,1,70,8|0,0:3|0:0,0:0:0:0:
216,184,19411,2,0,L|285:180,1,70,8|0,0:3|0:0,0:0:0:0:
128,296,19764,6,0,P|100:212|120:136,1,140,8|8,0:3|0:0,0:0:0:0:
168,104,20294,1,8,0:3:0:0:
383,87,20470,2,0,P|410:152|404:221,1,140,8|8,0:3|0:0,0:0:0:0:
344,280,21000,1,8,0:3:0:0:
177,292,21176,6,0,L|189:190,1,70,8|0,0:3|0:0,0:0:0:0:
253,335,21529,1,8,0:0:0:0:
99,239,21705,1,8,0:3:0:0:
264,158,21882,2,0,P|286:209|288:236,1,70,8|0,0:3|0:0,0:0:0:0:
108,307,22235,2,0,P|98:273|98:238,1,70,8|0,0:3|0:0,0:0:0:0:
267,74,22588,6,0,P|319:96|337:119,1,70,8|0,0:3|0:0,0:0:0:0:
202,126,22941,1,12,0:0:0:0:
330,11,23117,1,8,0:3:0:0:
399,169,23294,2,0,P|362:195|305:197,1,70,8|8,0:3|0:3,0:0:0:0:
405,89,23647,1,8,0:3:0:0:
410,262,23823,1,8,0:3:0:0:
258,179,23999,6,0,P|284:137|317:120,1,70,8|0,0:3|0:0,0:0:0:0:
413,270,24352,2,0,L|325:286,1,70,8|8,0:0|0:3,0:0:0:0:
221,356,24705,2,0,B|255:363|255:363|295:357,1,70,8|0,0:3|0:0,0:0:0:0:
167,282,25058,2,0,L|98:269,1,70,8|0,0:3|0:0,0:0:0:0:
35,116,25411,6,0,B|79:186|79:186|157:200,1,140,4|8,0:0|0:0,0:0:0:0:
223,172,25941,1,8,0:3:0:0:
173,7,26117,2,0,L|34:24,1,140,8|8,0:3|0:0,0:0:0:0:
35,116,26647,1,8,0:3:0:0:
220,240,26823,6,0,P|227:195|208:143,1,70,8|0,0:3|0:0,0:0:0:0:
138,253,27176,1,8,0:0:0:0:
305,210,27352,1,8,0:3:0:0:
198,85,27529,2,0,P|171:97|138:139,1,70,8|0,0:3|0:0,0:0:0:0:
305,210,27882,2,0,P|281:192|228:183,1,70,8|0,0:3|0:0,0:0:0:0:
392,332,28235,6,0,L|413:181,1,140,8|12,0:3|0:0,0:0:0:0:
491,148,28764,1,8,0:3:0:0:
342,92,28941,2,0,L|264:103,1,70,8|8,0:3|0:3,0:0:0:0:
393,160,29294,1,8,0:3:0:0:
298,12,29470,1,8,0:3:0:0:
199,157,29647,2,0,P|228:183|278:185,1,70,8|0,0:3|0:0,0:0:0:0:
188,60,29999,2,0,P|144:76|122:99,1,70,8|8,0:0|0:3,0:0:0:0:
79,286,30352,6,0,B|149:303|149:303|229:286,1,140,8|8,0:3|0:3,0:0:0:0:
301,255,30882,1,0,0:0:0:0:
385,81,31058,2,0,L|391:225,1,140,4|8,0:0|0:0,0:0:0:0:
303,57,31588,1,8,0:3:0:0:
476,125,31764,6,0,L|480:220,1,70,8|0,0:3|0:0,0:0:0:0:
351,316,32117,1,8,0:0:0:0:
259,316,32294,1,8,0:3:0:0:
181,269,32470,2,0,L|207:176,1,70,8|0,0:3|0:0,0:0:0:0:
386,109,32823,2,0,L|368:176,1,70,8|2,0:0|0:0,0:0:0:0:
187,186,33176,6,0,L|214:96,1,78.7500030040742,10|0,0:0|0:0,0:0:0:0:
240,105,33529,2,0,L|218:182,1,78.7500030040742,14|0,0:0|0:0,0:0:0:0:
386,109,33882,6,0,P|313:78|239:105,1,161.000003070831,6|8,0:0|0:0,0:0:0:0:
311,181,34411,1,2,0:0:0:0:
196,40,34588,2,0,P|231:17|292:5,1,80.5000015354157,2|0,0:0|0:0,0:0:0:0:
221,120,34941,1,10,0:0:0:0:
114,28,35117,1,0,0:0:0:0:
54,161,35294,6,0,L|56:326,1,161.000003070831,2|8,0:0|0:0,0:0:0:0:
154,357,35823,1,2,0:0:0:0:
283,248,35999,2,0,P|324:247|362:268,1,80.5000015354157,8|8,0:3|0:3,0:0:0:0:
231,315,36352,1,10,0:0:0:0:
307,155,36529,1,0,0:0:0:0:
439,295,36705,6,0,P|383:348|308:333,1,161.000003070831,6|8,0:0|0:0,0:0:0:0:
250,244,37235,1,2,0:0:0:0:
397,114,37411,2,0,L|402:218,1,80.5000015354157,2|0,0:0|0:0,0:0:0:0:
480,104,37764,1,10,0:0:0:0:
323,206,37941,1,0,0:0:0:0:
357,39,38117,6,0,P|435:41|480:104,1,161.000003070831,2|8,0:0|0:0,0:0:0:0:
323,206,38647,2,0,P|245:203|200:140,1,161.000003070831,2|8,0:0|0:3,0:0:0:0:
374,123,39176,1,10,0:0:0:0:
240,60,39352,1,0,0:0:0:0:
432,53,39529,6,0,P|466:121|414:208,1,161.000003070831,6|8,0:0|0:0,0:0:0:0:
369,265,40058,1,2,0:0:0:0:
208,199,40235,2,0,L|217:95,1,80.5000015354157,2|0,0:0|0:0,0:0:0:0:
298,30,40588,2,0,L|304:112,1,80.5000015354157,10|0,0:0|0:0,0:0:0:0:
213,289,40941,6,0,P|141:258|118:184,1,161.000003070831,6|8,0:0|0:0,0:0:0:0:
394,184,41470,2,2,P|370:258|298:289,1,161.000003070831,2|0,0:0|0:0,0:0:0:0:
336,96,41999,1,10,0:0:0:0:
299,196,42176,1,0,0:0:0:0:
356,16,42352,6,0,L|455:25,1,80.5000015354157,6|0,0:0|0:0,0:0:0:0:
313,112,42705,1,8,0:3:0:0:
313,112,42794,1,8,0:3:0:0:
313,112,42882,2,0,L|412:121,1,80.5000015354157,8|8,0:3|0:3,0:0:0:0:
270,203,43235,1,8,0:3:0:0:
289,35,43411,5,8,0:3:0:0:
327,24,43499,1,8,0:3:0:0:
367,22,43588,1,8,0:3:0:0:
406,29,43676,1,8,0:3:0:0:
443,44,43764,2,0,P|480:105|436:201,1,161.000003070831,12|0,0:0|0:0,0:0:0:0:
255,289,44294,5,12,0:0:0:0:
341,120,44470,1,12,0:0:0:0:
398,341,44647,1,12,0:0:0:0:
228,175,44823,1,8,0:0:0:0:
187,178,44911,1,8,0:0:0:0:
149,192,44999,1,8,0:0:0:0:
120,221,45088,1,8,0:0:0:0:
103,270,45176,6,0,P|108:192|99:145,1,105.000004005432,2|0,0:0|0:0,0:0:0:0:
24,304,45529,1,14,0:0:0:0:
200,224,45705,1,2,0:0:0:0:
40,108,45882,2,0,P|88:80|148:84,1,105.000004005432,2|0,0:0|0:0,0:0:0:0:
220,244,46235,1,10,0:0:0:0:
108,164,46411,1,2,0:0:0:0:
284,180,46588,6,0,P|312:236|296:292,1,105.000004005432,2|0,0:0|0:0,0:0:0:0:
252,101,46941,2,0,P|303:99|347:126,1,105.000004005432,10|0,0:0|0:0,0:0:0:0:
388,28,47294,1,2,0:0:0:0:
284,180,47470,1,0,0:0:0:0:
179,31,47647,1,8,0:0:0:0:
88,240,47823,2,0,L|144:228,1,52.5000020027161,2|0,0:0|0:0,0:0:0:0:
216,244,47999,6,0,L|84:276,1,105.000004005432,6|2,0:0|0:0,0:0:0:0:
264,328,48352,1,8,0:0:0:0:
168,156,48529,2,0,L|36:188,1,105.000004005432,2|0,0:0|0:0,0:0:0:0:
160,64,48882,2,0,P|204:68|260:128,1,105.000004005432,2|8,0:0|0:0,0:0:0:0:
108,136,49235,1,2,0:0:0:0:
324,56,49411,6,0,P|335:135|227:190,1,210.000008010865,0|8,0:0|0:0,0:0:0:0:
72,251,49941,2,0,P|131:246|179:270,1,105.000004005432,2|0,0:0|0:0,0:0:0:0:
48,336,50294,1,2,0:0:0:0:
123,168,50470,1,8,0:0:0:0:
207,331,50647,2,0,P|184:344|159:350,1,52.5000020027161,2|0,0:0|0:0,0:0:0:0:
264,300,50823,6,0,P|236:353|173:366,1,105.000004005432,6|0,0:0|0:0,0:0:0:0:
226,212,51176,1,8,0:0:0:0:
331,236,51352,2,0,P|357:287|349:350,1,105.000004005432,2|0,0:0|0:0,0:0:0:0:
226,212,51705,1,2,0:0:0:0:
344,136,51882,1,8,0:0:0:0:
452,311,52058,2,0,P|406:334|354:333,1,105.000004005432,2|0,0:0|0:0,0:0:0:0:
228,213,52411,6,0,P|274:191|327:192,1,105.000004005432,2|8,0:0|0:0,0:0:0:0:
195,289,52764,1,2,0:0:0:0:
256,113,52941,1,8,0:0:0:0:
317,289,53117,1,10,0:0:0:0:
317,289,53205,1,8,0:0:0:0:
317,289,53294,1,8,0:0:0:0:
255,137,53470,1,2,0:0:0:0:
114,247,53647,6,0,P|103:310|122:351,1,105.000004005432,14|0,0:0|0:0,0:0:0:0:
393,346,53999,2,0,P|410:297|398:247,1,105.000004005432,10|0,0:0|0:0,0:0:0:0:
162,44,54352,2,0,P|149:94|166:143,1,105.000004005432,10|0,0:0|0:0,0:0:0:0:
345,143,54705,2,0,P|362:94|350:44,1,105.000004005432,10|0,0:0|0:0,0:0:0:0:
257,160,55058,6,0,L|241:270,1,105.000004005432,14|8,0:0|0:3,0:0:0:0:
87,341,55411,1,8,0:0:0:0:
94,289,55499,1,8,0:0:0:0:
101,236,55588,1,8,0:0:0:0:
108,184,55676,1,8,0:0:0:0:
117,132,55764,1,8,0:0:0:0:
0,194,55941,1,8,0:3:0:0:
58,61,56117,5,8,0:0:0:0:
89,43,56205,1,8,0:0:0:0:
125,42,56294,1,8,0:0:0:0:
160,50,56382,1,8,0:0:0:0:
190,69,56470,6,0,P|239:84|308:56,1,105.000004005432,14|0,0:0|0:0,0:0:0:0:
132,135,56823,1,10,0:0:0:0:
238,0,56999,1,2,0:0:0:0:
331,136,57176,2,0,P|293:156|228:162,1,105.000004005432,2|0,0:0|0:0,0:0:0:0:
319,45,57529,1,10,0:0:0:0:
348,240,57705,1,2,0:0:0:0:
158,201,57882,6,0,L|140:85,1,105.000004005432,2|0,0:0|0:0,0:0:0:0:
318,44,58235,2,0,L|314:156,1,105.000004005432,10|0,0:0|0:0,0:0:0:0:
404,36,58588,1,2,0:0:0:0:
226,85,58764,1,0,0:0:0:0:
396,173,58941,1,8,0:0:0:0:
212,224,59117,2,0,P|245:236|276:240,1,52.5000020027161,2|0,0:0|0:0,0:0:0:0:
331,259,59294,6,0,P|291:271|220:257,1,105.000004005432,6|2,0:0|0:0,0:0:0:0:
322,354,59647,1,8,0:0:0:0:
316,173,59823,2,0,B|366:157|366:157|417:174,1,105.000004005432,2|0,0:0|0:0,0:0:0:0:
435,85,60176,2,0,B|485:99|485:99|512:149,1,105.000004005432,2|8,0:0|0:0,0:0:0:0:
482,249,60529,1,2,0:0:0:0:
261,280,60705,6,0,P|209:211|254:98,1,210.000008010865,0|8,0:0|0:0,0:0:0:0:
428,236,61235,2,0,L|423:347,1,105.000004005432,2|0,0:0|0:0,0:0:0:0:
336,224,61588,1,2,0:0:0:0:
504,160,61764,1,8,0:0:0:0:
342,103,61941,2,0,P|317:111|287:134,1,52.5000020027161,2|0,0:0|0:0,0:0:0:0:
412,79,62117,6,0,P|369:67|312:85,1,105.000004005432,6|0,0:0|0:0,0:0:0:0:
472,160,62470,1,8,0:0:0:0:
368,176,62647,2,0,P|329:196|298:249,1,105.000004005432,2|0,0:0|0:0,0:0:0:0:
482,177,62999,1,2,0:0:0:0:
396,91,63176,1,8,0:0:0:0:
253,165,63352,2,0,P|228:206|226:279,1,105.000004005432,2|0,0:0|0:0,0:0:0:0:
371,344,63705,6,0,L|371:226,1,105.000004005432,2|8,0:0|0:0,0:0:0:0:
449,371,64058,1,2,0:0:0:0:
297,286,64235,1,8,0:0:0:0:
265,281,64323,1,8,0:0:0:0:
233,286,64411,1,10,0:0:0:0:
204,300,64499,1,8,0:0:0:0:
183,324,64588,1,8,0:0:0:0:
303,373,64764,1,2,0:0:0:0:
194,209,64941,6,0,L|82:199,1,90.9999958343508,14|0,0:0|0:0,0:0:0:0:
318,139,65294,2,0,L|430:129,1,90.9999958343508,10|0,0:0|0:0,0:0:0:0:
154,171,65647,2,0,L|42:161,1,90.9999958343508,10|0,0:0|0:0,0:0:0:0:
347,98,65999,2,0,L|459:88,1,90.9999958343508,10|0,0:0|0:0,0:0:0:0:
478,88,66264,1,0,0:0:0:0:
492,160,66352,6,0,P|497:201|490:254,1,90.9999958343508,14|8,0:0|0:0,0:0:0:0:
436,300,66617,1,8,0:0:0:0:
396,308,66705,1,8,0:0:0:0:
354,306,66794,1,8,0:0:0:0:
315,291,66882,6,0,P|316:243|297:205,1,90.9999958343508,8|8,0:0|0:0,0:0:0:0:
267,176,67147,2,0,L|332:183,2,45.4999979171754,8|8|8,0:0|0:0|0:0,0:0:0:0:
240,103,67411,2,0,L|285:104,2,45.4999979171754,8|8|8,0:0|0:0|0:0,0:0:0:0:
256,192,67764,12,2,70588,0:0:0:0:
92,63,71999,5,10,0:0:0:0:
257,337,72352,1,10,0:0:0:0:
420,63,72705,1,10,0:0:0:0:
90,298,73058,1,10,0:0:0:0:
253,40,73411,6,0,B|263:98|324:123|324:123|295:110|256:117,1,161.000003070831,6|8,0:0|0:0,0:0:0:0:
287,196,73941,1,0,0:0:0:0:
343,31,74117,1,2,0:0:0:0:
417,79,74294,1,0,0:0:0:0:
478,142,74470,2,0,L|480:240,1,80.5000015354157,10|0,0:0|0:0,0:0:0:0:
396,338,74823,6,0,L|379:162,1,161.000003070831,2|8,0:0|0:0,0:0:0:0:
305,225,75352,1,2,0:0:0:0:
470,224,75529,2,0,L|456:125,1,80.5000015354157,0|0,0:0|0:0,0:0:0:0:
353,89,75882,2,0,L|364:168,1,80.5000015354157,8|2,0:0|0:0,0:0:0:0:
423,30,76235,6,0,P|363:-2|272:40,1,161.000003070831,2|8,0:0|0:0,0:0:0:0:
256,116,76764,1,0,0:0:0:0:
256,272,76941,1,2,0:0:0:0:
340,292,77117,1,0,0:0:0:0:
428,300,77294,2,0,P|416:248|372:212,1,80.5000015354157,10|0,0:0|0:0,0:0:0:0:
256,191,77647,6,0,L|256:283,1,80.5000015354157,6|0,0:0|0:0,0:0:0:0:
328,152,77999,1,8,0:0:0:0:
176,232,78176,1,2,0:0:0:0:
340,292,78352,2,0,P|348:332|340:372,1,80.5000015354157,2|0,0:0|0:0,0:0:0:0:
175,310,78705,2,0,P|168:271|176:232,1,80.5000015354157,10|0,0:0|0:0,0:0:0:0:
360,200,79058,5,6,0:0:0:0:
248,272,79235,1,0,0:0:0:0:
432,128,79411,2,0,P|453:160|449:227,1,80.5000015354157,8|0,0:0|0:0,0:0:0:0:
352,102,79764,2,0,P|379:61|426:43,1,80.5000015354157,2|0,0:0|0:0,0:0:0:0:
457,201,80117,1,10,0:0:0:0:
376,239,80294,1,0,0:0:0:0:
253,211,80470,6,0,L|235:49,1,161.000003070831,2|8,0:0|0:0,0:0:0:0:
328,101,80999,1,0,0:0:0:0:
171,189,81176,2,0,L|183:286,1,80.5000015354157,2|0,0:0|0:0,0:0:0:0:
74,143,81529,2,0,L|83:222,1,80.5000015354157,8|0,0:0|0:0,0:0:0:0:
16,69,81882,6,0,P|73:47|187:38,1,161.000003070831,2|8,0:0|0:0,0:0:0:0:
257,58,82411,1,0,0:0:0:0:
432,168,82588,2,0,L|438:260,1,80.5000015354157,2|0,0:0|0:0,0:0:0:0:
348,272,82941,2,0,L|354:364,1,80.5000015354157,10|0,0:0|0:0,0:0:0:0:
261,326,83294,5,4,0:0:0:0:
437,248,83470,1,8,0:0:0:0:
209,190,83647,1,8,0:0:0:0:
181,206,83735,1,8,0:0:0:0:
163,232,83823,1,8,0:0:0:0:
156,263,83911,1,8,0:0:0:0:
162,294,83999,1,8,0:0:0:0:
308,196,84176,1,8,0:3:0:0:
256,104,84352,5,8,0:0:0:0:
205,118,84441,1,8,0:0:0:0:
155,132,84529,1,8,0:0:0:0:
104,143,84617,1,8,0:0:0:0:
31,165,84705,6,0,P|34:117|75:72,1,80.5000015354157,10|0,0:0|0:0,0:0:0:0:
262,101,85058,1,2,3:2:0:0:
116,147,85235,1,8,0:0:0:0:
221,272,85411,2,0,L|53:254,1,161.000003070831,10|2,0:0|3:2,0:0:0:0:
171,173,85941,1,10,0:0:0:0:
43,333,86117,2,0,L|124:341,1,80.5000015354157,10|0,0:0|0:0,0:0:0:0:
170,172,86470,2,0,L|90:165,1,80.5000015354157,2|8,3:2|0:0,0:0:0:0:
291,347,86823,6,0,P|321:287|264:184,1,161.000003070831,10|2,0:0|3:2,0:0:0:0:
206,176,87352,1,8,0:0:0:0:
409,89,87529,2,0,L|428:197,1,80.5000015354157,10|0,0:0|0:0,0:0:0:0:
338,145,87882,1,2,3:2:0:0:
474,38,88058,1,8,0:0:0:0:
267,100,88235,6,0,P|259:168|340:227,1,161.000003070831,8|2,0:0|3:2,0:0:0:0:
409,204,88764,1,8,0:0:0:0:
285,297,88941,2,0,P|248:280|216:249,1,80.5000015354157,10|0,0:0|0:0,0:0:0:0:
144,303,89294,2,0,P|121:271|107:233,1,80.5000015354157,10|0,0:0|0:0,0:0:0:0:
188,99,89647,2,0,P|226:91|291:114,1,80.5000015354157,10|0,0:0|0:0,0:0:0:0:
108,233,89999,2,0,P|70:241|5:218,1,80.5000015354157,14|0,0:0|0:0,0:0:0:0:
188,99,90352,6,0,L|210:271,1,161.000003070831,10|2,0:0|3:2,0:0:0:0:
288,189,90882,1,8,0:0:0:0:
104,149,91058,2,0,L|94:61,1,80.5000015354157,8|0,0:0|0:0,0:0:0:0:
188,99,91411,1,2,3:2:0:0:
31,188,91588,1,8,0:0:0:0:
187,73,91764,6,0,P|224:68|293:78,1,80.5000015354157,12|0,0:0|0:0,0:0:0:0:
412,145,92117,2,0,L|415:195,2,40.2500007677078,8|0|2,0:0|0:0|0:0,0:0:0:0:
466,277,92470,6,0,P|423:292|371:285,1,78.7500030040742,10|0,0:0|0:0,0:0:0:0:
424,320,92823,2,0,P|369:321|336:302,1,78.7500030040742,14|0,0:0|0:0,0:0:0:0:
271,165,93176,6,0,B|263:246|263:246|212:140,1,181.999991668702,14|0,0:0|0:0,0:0:0:0:
360,129,93705,2,0,L|348:313,1,181.999991668702,10|2,0:0|0:0,0:0:0:0:
271,165,94235,1,8,0:0:0:0:
441,134,94411,6,0,L|436:228,1,90.9999958343508,2|0,0:0|0:0,0:0:0:0:
512,102,94764,1,10,0:0:0:0:
356,152,94941,1,8,0:0:0:0:
489,280,95117,1,2,0:0:0:0:
356,152,95294,6,0,P|337:190|292:221,1,90.9999958343508,10|10,0:0|0:0,0:0:0:0:
188,236,95647,1,8,0:0:0:0:
154,207,95735,1,8,0:0:0:0:
123,175,95823,1,8,0:0:0:0:
91,143,95911,1,8,0:0:0:0:
60,103,95999,6,0,P|103:80|179:93,1,105.000004005432,2|0,0:0|0:0,0:0:0:0:
53,196,96352,1,14,0:0:0:0:
42,15,96529,1,2,0:0:0:0:
241,48,96705,2,0,P|244:111|198:165,1,105.000004005432,2|0,0:0|0:0,0:0:0:0:
53,196,97058,1,10,0:0:0:0:
160,90,97235,1,2,0:0:0:0:
262,283,97411,6,0,L|157:267,1,105.000004005432,2|0,0:0|0:0,0:0:0:0:
222,145,97764,2,0,L|331:127,1,105.000004005432,10|0,0:0|0:0,0:0:0:0:
176,68,98117,1,2,0:0:0:0:
292,236,98294,1,0,0:0:0:0:
336,40,98470,1,8,0:0:0:0:
292,236,98647,2,0,L|364:228,1,52.5000020027161,2|0,0:0|0:0,0:0:0:0:
424,252,98823,6,0,L|300:268,1,105.000004005432,6|2,0:0|0:0,0:0:0:0:
488,328,99176,1,8,0:0:0:0:
428,152,99352,2,2,L|323:165,1,105.000004005432,2|0,0:0|0:0,0:0:0:0:
416,55,99705,2,0,P|467:63|506:97,1,105.000004005432,2|8,0:0|0:0,0:0:0:0:
356,120,100058,1,2,0:0:0:0:
172,76,100235,6,0,L|144:296,1,210.000008010865,0|8,0:0|0:0,0:0:0:0:
81,124,100764,2,0,L|85:8,1,105.000004005432,2|0,0:0|0:0,0:0:0:0:
172,76,101117,1,2,0:0:0:0:
9,175,101294,1,8,0:0:0:0:
172,76,101470,2,0,P|204:72|244:76,1,52.5000020027161,2|0,0:0|0:0,0:0:0:0:
304,104,101647,6,0,P|248:96|176:108,1,105.000004005432,6|0,0:0|0:0,0:0:0:0:
356,200,101999,1,8,0:0:0:0:
252,192,102176,2,0,P|184:208|132:240,1,105.000004005432,2|0,0:0|0:0,0:0:0:0:
324,288,102529,1,2,0:0:0:0:
388,192,102705,1,8,0:0:0:0:
304,96,102882,6,0,P|256:80|188:76,1,105.000004005432,2|0,0:0|0:0,0:0:0:0:
328,180,103235,1,2,0:0:0:0:
252,4,103411,1,8,0:0:0:0:
184,180,103588,1,2,0:0:0:0:
252,4,103764,5,8,0:0:0:0:
252,4,103852,1,8,3:0:0:0:
252,4,103941,1,10,0:0:0:0:
266,224,104117,1,8,0:0:0:0:
221,93,104294,1,2,0:0:0:0:
307,312,104470,2,0,L|414:294,1,105.000004005432,14|0,0:0|0:0,0:0:0:0:
208,188,104823,2,0,L|100:172,1,105.000004005432,10|0,0:0|0:0,0:0:0:0:
358,304,105176,6,0,P|362:252|332:201,1,105.000004005432,10|0,0:0|0:0,0:0:0:0:
148,360,105529,1,10,0:0:0:0:
282,267,105705,1,0,0:0:0:0:
94,108,105882,2,0,P|79:139|78:184,1,52.5000020027161,14|0,0:0|0:0,0:0:0:0:
92,216,106058,1,8,0:3:0:0:
104,220,106147,1,0,0:0:0:0:
116,224,106235,1,8,0:0:0:0:
128,228,106323,1,8,0:0:0:0:
140,232,106411,1,8,0:0:0:0:
152,236,106500,1,8,0:0:0:0:
196,240,106588,5,8,0:0:0:0:
248,216,106676,1,0,0:0:0:0:
280,168,106764,1,8,0:3:0:0:
288,112,106852,1,0,0:0:0:0:
268,64,106941,1,8,0:0:0:0:
224,44,107029,1,8,0:0:0:0:
180,68,107117,1,8,0:0:0:0:
176,116,107205,1,8,0:0:0:0:
232,168,107294,6,0,P|284:172|346:153,1,105.000004005432,14|0,0:0|0:0,0:0:0:0:
180,68,107647,1,10,0:0:0:0:
232,266,107823,1,2,0:0:0:0:
416,166,107999,2,0,P|394:99|341:74,1,105.000004005432,2|0,0:0|0:0,0:0:0:0:
178,223,108352,1,10,0:0:0:0:
321,163,108529,1,2,0:0:0:0:
84,145,108705,6,0,L|81:259,1,105.000004005432,2|0,0:0|0:0,0:0:0:0:
234,121,109058,2,0,L|223:14,1,105.000004005432,10|0,0:0|0:0,0:0:0:0:
321,163,109411,1,2,0:0:0:0:
132,76,109588,1,0,0:0:0:0:
366,15,109764,1,8,0:0:0:0:
221,237,109941,2,0,P|194:229|163:237,1,52.5000020027161,2|0,0:0|0:0,0:0:0:0:
90,219,110117,6,0,P|136:198|210:207,1,105.000004005432,6|2,0:0|0:0,0:0:0:0:
112,305,110470,1,8,0:0:0:0:
150,114,110647,2,0,P|213:118|273:158,1,105.000004005432,2|0,0:0|0:0,0:0:0:0:
48,123,110999,2,0,P|67:61|110:29,1,105.000004005432,2|8,0:0|0:0,0:0:0:0:
209,13,111352,1,2,0:0:0:0:
391,78,111529,6,0,B|389:231|389:231|360:149,1,210.000008010865,0|8,0:0|0:0,0:0:0:0:
341,7,112058,2,0,P|395:-8|449:12,1,105.000004005432,2|0,0:0|0:0,0:0:0:0:
482,228,112411,1,2,0:0:0:0:
391,78,112588,1,8,0:0:0:0:
321,246,112764,2,0,L|256:246,1,52.5000020027161,2|0,0:0|0:0,0:0:0:0:
195,276,112941,6,0,L|320:276,1,105.000004005432,6|0,0:0|0:0,0:0:0:0:
159,358,113294,1,8,0:0:0:0:
362,218,113470,2,0,P|384:264|374:315,1,105.000004005432,2|0,0:0|0:0,0:0:0:0:
179,163,113823,1,2,0:0:0:0:
302,278,113999,1,8,0:0:0:0:
102,369,114176,2,0,P|84:316|92:245,1,105.000004005432,2|0,0:0|0:0,0:0:0:0:
152,120,114529,6,0,L|220:218,1,105.000004005432,2|8,0:0|0:0,0:0:0:0:
232,72,114882,1,2,0:0:0:0:
111,224,115058,1,8,0:0:0:0:
126,247,115147,1,8,0:0:0:0:
143,268,115235,2,0,L|250:281,1,105.000004005432,10|8,0:0|0:0,0:0:0:0:
368,345,115588,1,2,0:0:0:0:
368,345,115764,6,0,L|270:368,1,90.9999958343508,14|0,0:0|0:0,0:0:0:0:
418,233,116117,2,0,L|321:255,1,90.9999958343508,10|0,0:0|0:0,0:0:0:0:
457,116,116470,2,0,L|360:139,1,90.9999958343508,10|0,0:0|0:0,0:0:0:0:
392,22,116823,1,10,0:0:0:0:
284,139,116999,1,0,0:0:0:0:
284,139,117088,1,0,0:0:0:0:
284,139,117176,6,0,P|287:169|332:214,1,90.9999958343508,14|8,0:0|0:0,0:0:0:0:
369,281,117441,2,0,L|429:280,2,45.4999979171754,8|8|8,0:0|0:0|0:0,0:0:0:0:
293,303,117705,1,8,0:0:0:0:
293,303,117794,1,8,0:0:0:0:
293,303,117882,2,0,L|228:302,1,45.4999979171754,8|8,0:0|0:0,0:0:0:0:
182,338,118058,2,0,L|136:339,1,45.4999979171754,8|8,0:0|0:0,0:0:0:0:
117,265,118235,1,8,0:0:0:0:
178,232,118323,1,8,0:0:0:0:
239,199,118411,2,0,L|292:172,1,45.4999979171754,8|8,0:0|0:0,0:0:0:0:
336,128,118588,6,0,P|289:37|241:130,1,238.00000453949,4|2,0:3|0:0,0:0:0:0:
303,292,119647,1,2,0:0:0:0:
389,253,119823,1,2,0:0:0:0:
460,190,119999,2,0,P|484:128|482:54,1,119.000002269745,2|2,0:0|0:0,0:0:0:0:
395,42,120529,2,0,L|321:71,1,59.5000011348725,2|2,0:0|0:0,0:0:0:0:
252,25,120882,2,0,L|178:52,1,59.5000011348725,0|2,0:0|0:0,0:0:0:0:
100,40,121235,1,2,0:0:0:0:
66,129,121411,6,0,P|52:196|73:258,1,119.000002269745,2|2,0:0|0:0,0:0:0:0:
126,318,121941,1,2,0:0:0:0:
168,233,122117,1,2,0:0:0:0:
344,233,122470,1,2,0:0:0:0:
386,318,122646,1,2,0:0:0:0:
460,258,122823,2,0,L|464:173,2,59.5000011348725,2|0|2,0:0|0:0|0:0,0:0:0:0:
374,188,123352,1,2,0:0:0:0:
374,188,123529,2,0,L|389:52,1,119.000002269745,2|2,0:0|0:0,0:0:0:0:
295,149,124058,1,2,0:0:0:0:
295,149,124235,6,0,L|310:17,1,119.000002269745,2|2,0:0|0:0,0:0:0:0:
225,41,124764,1,2,0:0:0:0:
142,52,124941,1,2,0:0:0:0:
76,271,125294,1,2,0:0:0:0:
157,256,125470,1,2,0:0:0:0:
236,230,125647,6,0,P|231:294|169:338,1,119.000002269745,0|2,0:0|0:0,0:0:0:0:
157,256,126176,2,0,L|294:211,1,119.000002269745,2|0,0:0|0:0,0:0:0:0:
333,273,126705,2,0,L|410:249,1,59.5000011348725,2|2,0:0|0:0,0:0:0:0:
352,180,127058,2,0,P|319:144|227:137,1,119.000002269745,2|2,0:0|0:0,0:0:0:0:
208,57,127588,1,2,0:0:0:0:
285,27,127764,6,0,L|366:17,1,59.5000011348725,2|0,0:0|0:0,0:0:0:0:
208,57,128117,2,0,L|144:48,1,59.5000011348725,2|2,0:0|0:0,0:0:0:0:
145,161,128470,2,0,P|163:94|140:37,1,119.000002269745,2|2,0:0|0:0,0:0:0:0:
68,105,128999,1,0,0:0:0:0:
217,19,129176,2,0,P|234:56|239:101,1,59.5000011348725,10|0,0:0|0:0,0:0:0:0:
117,213,129529,2,0,P|130:180|148:157,1,59.5000011348725,10|0,0:0|0:0,0:0:0:0:
333,111,129882,6,0,B|358:100|358:100|365:164|218:159|239:47,1,210.000008010865,4|0,0:0|0:0,0:0:0:0:
371,7,130411,1,0,0:0:0:0:
449,143,130588,6,0,P|456:103|452:63,2,80.5000015354157,8|2|0,0:0|0:0|0:0,0:0:0:0:
363,362,131117,1,0,0:0:0:0:
281,338,131294,2,0,P|258:305|254:242,1,80.5000015354157,2|2,0:0|0:0,0:0:0:0:
407,337,131647,1,0,0:0:0:0:
354,264,131823,2,0,P|379:217|419:196,1,80.5000015354157,0|8,0:0|0:0,0:0:0:0:
407,337,132176,1,2,0:0:0:0:
306,184,132352,1,0,0:0:0:0:
224,352,132529,1,0,0:0:0:0:
224,352,132705,6,0,B|167:337|111:359|111:359|161:314,1,161.000003070831,4|0,0:0|0:0,0:0:0:0:
219,254,133235,1,0,0:0:0:0:
39,316,133411,2,0,L|98:261,1,80.5000015354157,10|2,0:0|0:0,0:0:0:0:
56,166,133764,2,0,L|136:157,1,80.5000015354157,0|0,0:0|0:0,0:0:0:0:
311,179,134117,5,2,0:0:0:0:
256,268,134294,1,2,0:0:0:0:
289,80,134470,1,0,0:0:0:0:
389,109,134647,1,2,0:0:0:0:
335,256,134823,2,0,L|255:267,1,80.5000015354157,8|0,0:0|0:0,0:0:0:0:
186,116,135176,2,0,L|266:119,1,80.5000015354157,8|0,0:0|0:0,0:0:0:0:
297,355,135529,6,0,P|213:349|159:262,1,161.000003070831,4|0,0:0|0:0,0:0:0:0:
372,242,136058,1,0,0:0:0:0:
372,242,136235,2,0,L|376:338,2,80.5000015354157,8|2|0,0:0|0:0|0:0,0:0:0:0:
451,186,136764,1,0,0:0:0:0:
366,29,136941,6,0,P|292:86|202:86,1,161.000003070831,2|0,0:0|0:0,0:0:0:0:
145,60,137470,1,0,0:0:0:0:
145,60,137647,2,0,P|203:75|256:160,1,161.000003070831,8|0,0:0|0:0,0:0:0:0:
354,347,138176,1,0,0:0:0:0:
354,347,138352,6,0,L|374:177,1,161.000003070831,4|0,0:0|0:0,0:0:0:0:
165,186,138882,1,0,0:0:0:0:
165,186,139058,2,0,L|175:282,1,80.5000015354157,8|0,0:0|0:0,0:0:0:0:
372,187,139411,2,0,L|380:106,1,80.5000015354157,8|0,0:0|0:0,0:0:0:0:
132,106,139764,2,0,L|140:187,1,80.5000015354157,2|8,0:0|0:0,0:0:0:0:
202,57,140117,5,8,0:0:0:0:
54,165,140294,1,0,0:0:0:0:
277,286,140470,1,8,0:0:0:0:
213,101,140647,1,0,0:0:0:0:
108,276,140823,2,0,P|150:308|191:310,1,80.5000015354157,8|0,0:0|0:0,0:0:0:0:
311,90,141176,6,0,B|251:96|197:135|197:135|213:101,1,161.000003070831,4|0,0:0|0:0,0:0:0:0:
256,0,141705,1,0,0:0:0:0:
148,204,141882,2,0,P|186:218|226:214,1,80.5000015354157,8|2,0:0|0:0,0:0:0:0:
71,117,142235,2,0,L|55:215,1,80.5000015354157,0|0,0:0|0:0,0:0:0:0:
250,298,142588,6,0,P|309:242|287:147,1,161.000003070831,2|0,0:0|0:0,0:0:0:0:
96,148,143117,1,0,0:0:0:0:
149,235,143294,2,0,P|189:231|233:207,1,80.5000015354157,8|2,0:0|0:0,0:0:0:0:
71,117,143647,2,0,L|55:201,1,80.5000015354157,0|0,0:0|0:0,0:0:0:0:
184,328,143999,6,0,B|240:356|304:332|304:332|240:308,1,161.000003070831,4|2,0:0|0:0,0:0:0:0:
216,248,144529,1,0,0:0:0:0:
72,288,144705,2,0,P|76:328|96:368,2,80.5000015354157,8|0|2,0:0|0:0|0:0,0:0:0:0:
100,204,145235,1,0,0:0:0:0:
280,132,145411,5,2,0:0:0:0:
224,212,145588,1,0,0:0:0:0:
180,84,145764,2,0,P|208:64|268:52,1,80.5000015354157,2|2,0:0|0:0,0:0:0:0:
120,152,146117,1,8,0:0:0:0:
120,152,146294,1,0,0:0:0:0:
144,8,146470,1,2,0:0:0:0:
200,240,146647,1,0,0:0:0:0:
32,84,146823,6,0,P|8:172|44:252,1,161.000003070831,4|2,0:0|0:0,0:0:0:0:
108,276,147352,1,0,0:0:0:0:
228,160,147529,2,0,B|260:141|308:162|308:162|354:182|408:148,1,161.000003070831,8|0,0:0|0:0,0:0:0:0:
343,81,148058,1,0,0:0:0:0:
260,286,148235,5,2,0:0:0:0:
156,208,148411,2,0,P|144:168|156:116,1,80.5000015354157,2|0,0:0|0:0,0:0:0:0:
197,55,148764,1,2,0:0:0:0:
66,142,148941,2,0,P|74:104|106:55,2,80.5000015354157,8|0|0,0:0|0:0|0:0,0:0:0:0:
88,227,149470,1,0,0:0:0:0:
294,347,149647,6,0,L|307:149,1,161.000003070831,2|2,0:0|0:0,0:0:0:0:
215,286,150176,1,0,0:0:0:0:
386,178,150352,1,8,0:0:0:0:
216,127,150529,2,0,L|223:37,1,80.5000015354157,0|0,0:0|0:0,0:0:0:0:
371,92,150882,6,0,P|430:106|467:153,1,120.750002303124,2|0,0:0|0:0,0:0:0:0:
455,172,151235,2,0,P|416:126|358:112,1,120.750002303124,2|0,0:0|0:0,0:0:0:0:
368,204,151588,6,0,L|361:251,2,40.2500007677078,0|0|8,0:0|0:0|0:0,0:0:0:0:
444,268,151941,1,2,0:0:0:0:
287,147,152117,2,0,L|271:233,1,80.5000015354157,8|0,0:3|0:0,0:0:0:0:
50,116,152470,6,0,B|230:44|273:253|542:300|494:4|361:169|273:145,1,562.799973378297,6|0,0:0|0:0,0:0:0:0:
83,188,154941,2,0,P|107:184|130:185,1,46.8999977815248,0|0,0:0|0:0,0:0:0:0:
83,188,155294,6,0,B|140:228|112:316|112:316|184:244|292:288|292:288|452:340|496:220,1,562.799973378297,6|0,0:0|0:0,0:0:0:0:
341,183,157764,2,0,P|361:195|385:199,1,46.8999977815248,0|0,0:0|0:0,0:0:0:0:
341,183,158117,6,0,B|380:118|380:118|290:240|157:208,1,328.299984470673,6|0,0:0|0:0,0:0:0:0:
261,297,159705,1,0,0:0:0:0:
384,281,160058,2,0,P|364:320|351:374,2,93.7999955630495,0|0|0,0:0|0:0|0:0,0:0:0:0:
424,208,160941,5,14,0:0:0:0:
435,182,161029,1,8,0:0:0:0:
437,155,161117,1,8,0:0:0:0:
437,126,161205,1,8,0:0:0:0:
430,99,161294,1,8,0:0:0:0:
418,72,161382,1,8,0:0:0:0:
348,36,161470,5,10,0:0:0:0:
324,48,161558,1,8,0:0:0:0:
300,60,161647,1,8,0:0:0:0:
276,72,161735,1,8,0:0:0:0:
250,84,161823,1,8,0:0:0:0:
224,96,161911,1,8,0:0:0:0:
151,53,161999,5,10,0:0:0:0:
135,87,162088,1,8,0:0:0:0:
121,123,162177,1,8,0:0:0:0:
107,159,162265,1,8,0:0:0:0:
91,194,162353,1,8,0:0:0:0:
75,230,162441,1,8,0:0:0:0:
114,312,162529,5,10,0:0:0:0:
159,321,162617,1,8,0:0:0:0:
205,323,162705,1,8,0:0:0:0:
251,321,162793,1,8,0:0:0:0:
297,312,162882,1,8,0:0:0:0:
341,296,162970,1,8,0:0:0:0:
393,243,163058,6,0,B|377:199|441:155|382:75|374:183,1,164.149992235337,4|0,0:3|0:0,0:0:0:0:
469,110,163764,6,0,P|478:154|466:218,1,105.000004005432,6|0,0:0|0:0,0:0:0:0:
388,38,164117,1,10,0:0:0:0:
503,9,164294,1,2,0:0:0:0:
374,173,164470,2,0,L|262:192,1,105.000004005432,2|0,0:0|0:0,0:0:0:0:
387,67,164823,1,10,0:0:0:0:
361,268,164999,1,2,0:0:0:0:
194,151,165176,6,0,P|232:115|304:110,1,105.000004005432,2|0,0:0|0:0,0:0:0:0:
90,177,165529,2,0,P|95:126|127:71,1,105.000004005432,10|0,0:0|0:0,0:0:0:0:
391,219,165882,1,2,0:0:0:0:
237,249,166058,1,0,0:0:0:0:
284,102,166235,1,8,0:0:0:0:
331,334,166411,2,0,L|269:333,1,52.5000020027161,2|0,0:0|0:0,0:0:0:0:
210,365,166588,6,0,L|318:365,1,105.000004005432,6|2,0:0|0:0,0:0:0:0:
188,273,166941,1,8,0:0:0:0:
38,303,167117,2,0,L|52:193,1,105.000004005432,2|0,0:0|0:0,0:0:0:0:
179,94,167470,2,0,L|199:220,1,105.000004005432,2|8,0:0|0:0,0:0:0:0:
102,53,167823,5,2,0:0:0:0:
102,53,167999,2,0,P|193:9|267:78,1,210.000008010865,0|8,0:0|0:0,0:0:0:0:
220,295,168529,2,0,P|196:250|198:187,1,105.000004005432,2|0,0:0|0:0,0:0:0:0:
450,163,168882,1,2,0:0:0:0:
274,223,169058,1,8,0:0:0:0:
306,41,169235,2,0,L|375:41,1,52.5000020027161,2|0,0:0|0:0,0:0:0:0:
433,10,169411,6,0,L|315:9,1,105.000004005432,6|0,0:0|0:0,0:0:0:0:
478,89,169764,1,8,0:0:0:0:
312,97,169941,2,0,L|200:94,1,105.000004005432,2|0,0:0|0:0,0:0:0:0:
328,9,170294,1,2,0:0:0:0:
195,191,170470,1,8,0:0:0:0:
394,311,170647,6,0,P|349:322|286:309,1,105.000004005432,2|0,0:0|0:0,0:0:0:0:
94,190,170999,2,0,P|140:178|207:198,1,105.000004005432,2|8,0:0|0:0,0:0:0:0:
68,296,171352,1,2,0:0:0:0:
142,98,171529,1,8,0:0:0:0:
142,98,171617,1,0,0:0:0:0:
142,98,171705,2,0,P|156:85|209:72,2,52.5000020027161,10|8|8,0:0|0:0|0:0,0:0:0:0:
226,138,172058,1,2,0:0:0:0:
64,44,172235,6,0,P|49:88|61:148,1,105.000004005432,14|0,0:0|0:0,0:0:0:0:
231,239,172588,2,0,P|242:188|226:138,1,105.000004005432,10|0,0:0|0:0,0:0:0:0:
30,242,172941,2,0,B|75:267|130:242|130:242|195:207|243:248,1,210.000008010865,10|10,0:0|0:0,0:0:0:0:
190,334,173470,1,0,0:0:0:0:
33,120,173647,5,8,0:0:0:0:
96,64,173764,1,8,0:0:0:0:
164,112,173882,1,8,0:0:0:0:
236,152,173999,1,8,0:3:0:0:
308,108,174117,1,8,0:3:0:0:
376,60,174235,1,8,0:3:0:0:
448,96,174352,2,0,P|452:130|448:179,2,60.6666638895672,8|8|8,0:0|0:0|0:0,0:0:0:0:
376,60,174705,2,0,P|371:30|372:-1,2,60.6666638895672,8|0|0,0:3|0:0|0:0,0:0:0:0:
410,316,175058,6,0,P|343:284|310:227,1,140,6|2,0:0|0:0,0:0:0:0:
321,137,175588,1,2,0:0:0:0:
221,262,175764,2,0,L|226:350,1,70,10|0,0:0|0:0,0:0:0:0:
93,274,176117,1,2,0:0:0:0:
142,196,176294,1,2,0:0:0:0:
188,119,176470,6,0,P|114:110|54:166,1,140,2|2,0:0|0:0,0:0:0:0:
207,33,176999,1,0,0:0:0:0:
207,33,177176,2,0,L|373:35,1,140,10|0,0:0|0:0,0:0:0:0:
417,92,177705,1,2,0:0:0:0:
378,271,177882,6,0,B|323:251|323:251|290:153,1,140,6|0,0:0|0:0,0:0:0:0:
210,66,178411,1,2,0:0:0:0:
179,151,178588,1,8,0:0:0:0:
144,235,178764,2,0,L|69:223,1,70,2|0,0:0|0:0,0:0:0:0:
139,68,179117,1,2,0:0:0:0:
139,68,179294,6,0,L|289:58,1,140,0|0,0:0|0:0,0:0:0:0:
351,113,179823,1,2,0:0:0:0:
275,288,179999,2,0,P|237:290|186:268,2,70,8|2|0,0:0|0:0|0:0,0:0:0:0:
348,232,180529,1,2,0:0:0:0:
153,349,180705,6,0,P|120:288|140:223,1,140,6|0,0:0|0:0,0:0:0:0:
220,177,181235,1,2,0:0:0:0:
23,170,181411,2,0,L|32:243,2,70,8|2|0,0:0|0:0|0:0,0:0:0:0:
107,138,181941,2,0,L|107:69,1,70,2|0,0:0|0:0,0:0:0:0:
284,0,182294,6,0,L|305:148,1,140,2|2,0:0|0:0,0:0:0:0:
383,93,182823,1,8,0:0:0:0:
191,78,182999,1,2,0:0:0:0:
374,7,183176,1,8,0:0:0:0:
258,192,183352,1,2,0:0:0:0:
358,331,183529,6,0,P|405:320|448:288,1,90.9999958343508,14|0,0:0|0:0,0:0:0:0:
154,331,183882,2,0,P|107:320|64:288,1,90.9999958343508,10|0,0:0|0:0,0:0:0:0:
347,208,184235,2,0,P|374:185|404:136,1,90.9999958343508,10|0,0:0|0:0,0:0:0:0:
164,207,184588,2,0,P|131:177|108:138,1,90.9999958343508,10|0,0:0|0:0,0:0:0:0:
256,48,184852,1,0,0:0:0:0:
256,48,184941,6,0,L|256:143,1,90.9999958343508,14|8,0:0|0:0,0:0:0:0:
252,214,185205,1,8,0:0:0:0:
207,222,185294,1,8,0:0:0:0:
164,208,185382,1,8,0:0:0:0:
134,173,185470,2,0,L|84:216,1,45.4999979171754,8|8,0:0|0:0,0:0:0:0:
110,96,185647,1,8,0:0:0:0:
110,96,185735,1,8,0:0:0:0:
110,96,185823,2,0,L|64:128,2,45.4999979171754,8|8|8,0:0|0:0|0:0,0:0:0:0:
178,36,186176,1,0,0:0:0:0:
138,222,186352,6,0,B|143:304|224:336|224:336|197:280,1,195.999994018555,14|8,0:0|0:0,0:0:0:0:
257,215,186882,1,0,0:0:0:0:
65,174,187058,2,0,P|55:226|68:288,1,97.9999970092774,2|0,0:0|0:0,0:0:0:0:
150,130,187411,1,8,0:0:0:0:
0,94,187588,1,2,0:0:0:0:
231,78,187764,6,0,P|245:141|152:232,1,195.999994018555,2|8,0:0|0:0,0:0:0:0:
64,48,188294,2,0,L|160:24,1,97.9999970092774,2|0,0:0|0:0,0:0:0:0:
324,50,188647,2,0,L|231:78,1,97.9999970092774,2|8,0:0|0:0,0:0:0:0:
397,114,188999,1,2,0:0:0:0:
280,297,189176,6,0,B|239:347|239:347|260:188,1,195.999994018555,6|8,0:0|0:0,0:0:0:0:
354,234,189705,1,0,0:0:0:0:
178,176,189882,2,0,L|160:272,1,97.9999970092774,2|0,0:0|0:0,0:0:0:0:
247,106,190235,1,10,0:0:0:0:
80,169,190411,1,0,0:0:0:0:
286,23,190588,6,0,P|330:65|288:188,1,195.999994018555,10|8,0:0|0:0,0:0:0:0:
100,88,191117,2,0,P|144:76|208:92,1,97.9999970092774,2|8,0:0|0:0,0:0:0:0:
352,256,191470,2,0,P|308:272|254:262,1,97.9999970092774,2|8,0:0|0:0,0:0:0:0:
194,85,191823,1,2,0:0:0:0:
30,221,191999,6,0,L|48:324,1,105.000004005432,14|0,0:0|0:0,0:0:0:0:
129,119,192352,1,10,0:0:0:0:
219,165,192529,1,0,0:0:0:0:
45,64,192705,2,0,P|84:28|156:24,1,105.000004005432,10|0,0:0|0:0,0:0:0:0:
307,120,193058,2,0,P|269:155|219:165,1,105.000004005432,10|0,0:0|0:0,0:0:0:0:
331,14,193411,6,0,B|484:36|484:36|397:48,1,210.000008010865,10|8,0:0|0:0,0:0:0:0:
218,164,193941,2,0,B|192:115|192:115|216:68,1,105.000004005432,2|8,0:0|0:0,0:0:0:0:
118,59,194294,1,2,0:0:0:0:
292,111,194470,1,8,0:0:0:0:
41,177,194647,1,2,0:0:0:0:
148,317,194823,6,0,P|169:278|180:212,1,105.000004005432,14|0,0:0|0:0,0:0:0:0:
331,218,195176,2,0,P|340:270|364:317,1,105.000004005432,10|0,0:0|0:0,0:0:0:0:
254,143,195529,1,10,0:0:0:0:
415,172,195705,1,0,0:0:0:0:
160,236,195882,1,10,0:0:0:0:
289,15,196058,1,2,0:0:0:0:
254,314,196235,5,8,0:0:0:0:
256,192,196323,12,4,197999,0:0:0:0:
