osu file format v14

[General]
AudioFilename: audio.mp3
AudioLeadIn: 0
PreviewTime: -1
Countdown: 1
SampleSet: Soft
StackLeniency: 0.7
Mode: 1
LetterboxInBreaks: 0
WidescreenStoryboard: 1

[Editor]
DistanceSpacing: 1.5
BeatDivisor: 4
GridSize: 32
TimelineZoom: 1.8

[Metadata]
Title:Killer In The Mirror
TitleUnicode:Killer In The Mirror
Artist:Set It Off
ArtistUnicode:Set It Off
Creator:QEpicAce
Version:Inner Oni
Source:
Tags:
BeatmapID:1934920
BeatmapSetID:925522

[Difficulty]
HPDrainRate:6.9
CircleSize:5
OverallDifficulty:6
ApproachRate:5
SliderMultiplier:1.4
SliderTickRate:1

[Events]
//Background and Video events
0,0,"art-suzuya-alice-in-5712.jpg",0,0
//Break Periods
2,69580,73179
//Storyboard Layer 0 (Background)
//Storyboard Layer 1 (Fail)
//Storyboard Layer 2 (Pass)
//Storyboard Layer 3 (Foreground)
//Storyboard Sound Samples

[TimingPoints]
45,333.338888981483,4,2,0,100,1,0
13711,-111.111111111111,4,2,0,100,0,0
16378,-100,4,2,0,100,0,0
24378,-111.111111111111,4,2,0,100,0,0
27045,-90.9090909090909,4,2,0,100,0,0
30712,-95.2380952380952,4,2,0,100,0,0
31378,-100,4,2,0,100,0,0
32212,-90.9090909090909,4,2,0,100,0,0
36045,-100,4,2,0,100,0,0
37712,-117.647058823529,4,2,0,100,0,1
41545,-111.111111111111,4,2,0,100,0,1
46212,-105.263157894737,4,2,0,100,0,1
48045,-117.647058823529,4,2,0,100,0,1
52212,-111.111111111111,4,2,0,100,0,1
56879,-105.263157894737,4,2,0,100,0,1
59045,-100,4,2,0,100,0,1
62546,-133.333333333333,4,2,0,100,0,1
63379,-100,4,2,0,100,0,1
63879,-133.333333333333,4,2,0,100,0,1
64379,-100,4,2,0,100,0,1
67879,-133.333333333333,4,2,0,100,0,1
68712,-100,4,2,0,100,0,1
69212,-133.333333333333,4,2,0,100,0,1
69712,-100,4,2,0,100,0,0
83046,-111.111111111111,4,2,0,100,0,0
85713,-100,4,2,0,100,0,0
93713,-111.111111111111,4,2,0,100,0,0
96379,-90.9090909090909,4,2,0,100,0,0
98879,-95.2380952380952,4,2,0,100,0,0
100713,-100,4,2,0,100,0,0
101546,-90.9090909090909,4,2,0,100,0,0
104213,-95.2380952380952,4,2,0,100,0,0
107046,-117.647058823529,4,2,0,100,0,1
110880,-111.111111111111,4,2,0,100,0,1
115546,-105.263157894737,4,2,0,100,0,1
117380,-117.647058823529,4,2,0,100,0,1
121547,-111.111111111111,4,2,0,100,0,1
126213,-105.263157894737,4,2,0,100,0,1
128380,-100,4,2,0,100,0,1
131880,-133.333333333333,4,2,0,100,0,1
132713,-100,4,2,0,100,0,1
133213,-133.333333333333,4,2,0,100,0,1
133713,-100,4,2,0,100,0,1
137213,-133.333333333333,4,2,0,100,0,1
138047,-100,4,2,0,100,0,1
138547,-133.333333333333,4,2,0,100,0,1
139047,-111.111111111111,4,2,0,100,0,0
149714,-90.9090909090909,4,2,0,100,0,0
155047,-100,4,2,0,100,0,0
158047,-66.6666666666667,4,2,0,100,0,0
161714,-117.647058823529,4,2,0,100,0,1
165538,-111.111111111111,4,2,0,100,0,1
170214,-105.263157894737,4,2,0,100,0,1
172047,-117.647058823529,4,2,0,100,0,1
176214,-111.111111111111,4,2,0,100,0,1
180881,-105.263157894737,4,2,0,100,0,1
183047,-100,4,2,0,100,0,1
185714,-90.9090909090909,4,2,0,100,0,1
188381,-100,4,2,0,100,0,1
191048,-90.9090909090909,4,2,0,100,0,1
194048,-117.647058823529,4,2,0,100,0,1
197548,-111.111111111111,4,2,0,100,0,1
202215,-105.263157894737,4,2,0,100,0,1
204381,-111.111111111111,4,2,0,100,0,0
207881,-133.333333333333,4,2,0,100,0,0
208715,-111.111111111111,4,2,0,100,0,0
209215,-133.333333333333,4,2,0,100,0,0
209715,-125,4,2,0,100,0,0
213215,-133.333333333333,4,2,0,100,0,0
214048,-125,4,2,0,100,0,0
214548,-133.333333333333,4,2,0,100,0,0

[HitObjects]
256,192,5711,5,0,0:0:0:0:
256,192,6045,1,8,0:0:0:0:
256,192,6128,1,8,0:0:0:0:
256,192,6211,1,0,0:0:0:0:
256,192,6545,1,0,0:0:0:0:
256,192,6628,1,0,0:0:0:0:
256,192,6711,1,8,0:0:0:0:
288,192,6795,1,0,0:0:0:0:
256,192,6878,1,8,0:0:0:0:
256,192,7045,1,0,0:0:0:0:
256,192,7378,1,0,0:0:0:0:
256,192,7545,1,8,0:0:0:0:
256,192,7711,1,0,0:0:0:0:
256,192,8045,1,0,0:0:0:0:
256,192,8711,1,0,0:0:0:0:
256,192,8767,1,8,0:0:0:0:
256,192,8822,1,8,0:0:0:0:
256,192,8878,1,0,0:0:0:0:
256,192,9211,1,0,0:0:0:0:
256,192,9295,1,8,0:0:0:0:
256,192,9378,1,8,0:0:0:0:
256,192,9545,1,0,0:0:0:0:
256,192,9712,1,8,0:0:0:0:
256,192,9878,1,8,0:0:0:0:
256,192,9961,1,8,0:0:0:0:
256,192,10045,1,0,0:0:0:0:
256,192,10378,1,0,0:0:0:0:
256,192,10711,1,0,0:0:0:0:
256,192,11378,1,0,0:0:0:0:
256,192,11434,1,0,0:0:0:0:
256,192,11489,1,8,0:0:0:0:
256,192,11545,1,8,0:0:0:0:
256,160,11878,1,0,0:0:0:0:
256,160,12045,1,8,0:0:0:0:
256,192,12128,1,8,0:0:0:0:
256,192,12211,1,0,0:0:0:0:
256,192,12378,1,0,0:0:0:0:
256,192,12711,1,0,0:0:0:0:
256,192,12878,1,8,0:0:0:0:
256,192,13045,1,0,0:0:0:0:
256,192,13211,1,8,0:0:0:0:
256,192,13295,1,8,0:0:0:0:
256,192,13378,1,0,0:0:0:0:
256,192,13711,1,12,0:0:0:0:
256,192,13878,1,12,0:0:0:0:
256,192,14378,1,12,0:0:0:0:
256,192,14545,1,12,0:0:0:0:
256,192,15045,1,4,0:0:0:0:
256,192,15711,1,12,0:0:0:0:
256,192,15878,1,12,0:0:0:0:
256,192,16378,5,0,0:0:0:0:
256,192,16712,1,8,0:0:0:0:
256,192,16795,1,8,0:0:0:0:
256,192,16878,1,0,0:0:0:0:
256,192,17212,1,0,0:0:0:0:
256,192,17295,1,0,0:0:0:0:
256,192,17378,1,8,0:0:0:0:
288,192,17462,1,0,0:0:0:0:
256,192,17545,1,8,0:0:0:0:
256,192,17712,1,8,0:0:0:0:
256,192,18045,1,8,0:0:0:0:
256,192,18212,1,0,0:0:0:0:
256,192,18378,1,8,0:0:0:0:
256,192,18712,1,0,0:0:0:0:
256,192,19378,1,0,0:0:0:0:
256,192,19434,1,8,0:0:0:0:
256,192,19489,1,8,0:0:0:0:
256,192,19545,1,0,0:0:0:0:
256,192,19878,1,0,0:0:0:0:
256,192,19962,1,8,0:0:0:0:
256,192,20045,1,8,0:0:0:0:
256,192,20212,1,0,0:0:0:0:
256,192,20379,1,8,0:0:0:0:
256,192,20545,1,8,0:0:0:0:
256,192,20628,1,8,0:0:0:0:
256,192,20712,1,0,0:0:0:0:
256,192,21045,1,0,0:0:0:0:
256,192,21378,1,0,0:0:0:0:
256,192,22045,1,0,0:0:0:0:
256,192,22101,1,0,0:0:0:0:
256,192,22156,1,8,0:0:0:0:
256,192,22212,1,8,0:0:0:0:
256,160,22545,1,0,0:0:0:0:
256,160,22712,1,8,0:0:0:0:
256,192,22795,1,8,0:0:0:0:
256,192,22878,1,0,0:0:0:0:
256,192,23045,1,8,0:0:0:0:
256,192,23378,1,0,0:0:0:0:
256,192,23545,1,8,0:0:0:0:
256,192,23712,1,8,0:0:0:0:
256,192,23878,1,0,0:0:0:0:
256,192,23962,1,0,0:0:0:0:
256,192,24045,1,8,0:0:0:0:
256,192,24378,1,4,0:0:0:0:
256,192,24545,1,4,0:0:0:0:
256,192,25045,1,4,0:0:0:0:
256,192,25212,1,4,0:0:0:0:
256,192,25712,1,12,0:0:0:0:
256,192,26378,5,4,0:0:0:0:
256,192,26545,1,4,0:0:0:0:
256,192,27045,5,8,0:0:0:0:
256,192,27101,1,8,0:0:0:0:
256,192,27156,1,8,0:0:0:0:
256,192,27212,1,8,0:0:0:0:
288,192,27295,1,0,0:0:0:0:
256,192,27378,1,8,0:0:0:0:
384,64,27545,1,0,0:0:0:0:
256,192,27628,1,0,0:0:0:0:
256,192,27712,1,8,0:0:0:0:
256,192,27795,1,0,0:0:0:0:
224,192,27878,1,0,0:0:0:0:
192,192,27962,1,8,0:0:0:0:
256,192,28045,1,0,0:0:0:0:
224,192,28212,1,0,0:0:0:0:
224,192,28267,1,0,0:0:0:0:
224,192,28323,1,0,0:0:0:0:
224,192,28378,1,0,0:0:0:0:
224,192,28628,1,0,0:0:0:0:
224,192,28878,1,8,0:0:0:0:
224,192,28933,1,8,0:0:0:0:
224,192,28989,1,8,0:0:0:0:
224,192,29045,1,8,0:0:0:0:
256,192,29295,1,8,0:0:0:0:
256,192,29545,1,0,0:0:0:0:
256,192,29628,1,0,0:0:0:0:
256,192,29712,1,8,0:0:0:0:
256,192,29878,1,8,0:0:0:0:
256,192,30045,1,0,0:0:0:0:
224,192,30128,1,0,0:0:0:0:
224,192,30212,1,8,0:0:0:0:
256,192,30378,1,8,0:0:0:0:
256,192,30712,1,8,0:0:0:0:
256,192,30795,1,8,0:0:0:0:
256,192,30878,1,0,0:0:0:0:
256,192,31045,1,0,0:0:0:0:
256,192,31378,1,0,0:0:0:0:
224,192,31545,1,8,0:0:0:0:
256,192,31628,1,8,0:0:0:0:
224,192,31712,1,0,0:0:0:0:
256,192,31878,1,0,0:0:0:0:
224,192,32212,1,0,0:0:0:0:
224,192,32295,1,0,0:0:0:0:
256,192,32378,5,8,0:0:0:0:
256,192,32461,1,0,0:0:0:0:
256,192,32545,1,0,0:0:0:0:
256,192,32628,1,8,0:0:0:0:
256,192,32712,1,0,0:0:0:0:
384,64,32878,1,8,0:0:0:0:
256,192,32962,1,8,0:0:0:0:
256,192,33045,1,0,0:0:0:0:
256,192,33128,1,8,0:0:0:0:
224,192,33211,1,0,0:0:0:0:
256,192,33295,1,0,0:0:0:0:
256,192,33378,1,8,0:0:0:0:
224,192,33545,1,0,0:0:0:0:
224,192,33600,1,0,0:0:0:0:
224,192,33656,1,0,0:0:0:0:
224,192,33711,1,0,0:0:0:0:
224,192,33962,1,0,0:0:0:0:
224,192,34211,1,8,0:0:0:0:
224,192,34266,1,8,0:0:0:0:
224,192,34322,1,8,0:0:0:0:
224,192,34378,1,8,0:0:0:0:
256,192,34628,1,8,0:0:0:0:
256,192,34878,1,0,0:0:0:0:
256,192,34961,1,8,0:0:0:0:
256,192,35045,1,8,0:0:0:0:
256,192,35211,1,0,0:0:0:0:
256,192,35378,1,8,0:0:0:0:
224,192,35461,1,8,0:0:0:0:
224,192,35545,1,0,0:0:0:0:
256,192,35711,1,0,0:0:0:0:
256,192,36045,1,8,0:0:0:0:
256,192,36128,1,8,0:0:0:0:
256,192,36211,1,0,0:0:0:0:
256,192,36378,1,4,0:0:0:0:
256,192,37712,1,4,0:0:0:0:
256,192,38378,1,0,0:0:0:0:
256,192,38878,1,8,0:0:0:0:
256,192,39045,1,0,0:0:0:0:
256,192,39545,1,8,0:0:0:0:
256,192,39712,1,0,0:0:0:0:
288,160,40212,1,0,0:0:0:0:
256,192,40295,1,0,0:0:0:0:
256,192,40379,1,0,0:0:0:0:
256,192,40712,1,8,0:0:0:0:
256,160,41045,1,8,0:0:0:0:
224,192,41545,1,8,0:0:0:0:
256,192,41629,1,8,0:0:0:0:
256,192,41712,1,0,0:0:0:0:
224,192,42045,1,0,0:0:0:0:
224,192,42212,1,8,0:0:0:0:
224,192,42295,1,8,0:0:0:0:
224,192,42379,1,0,0:0:0:0:
224,192,42712,1,0,0:0:0:0:
224,192,42795,1,0,0:0:0:0:
224,192,42879,1,8,0:0:0:0:
224,192,42962,1,0,0:0:0:0:
224,192,43045,1,8,0:0:0:0:
256,192,43379,1,8,0:0:0:0:
256,192,43545,1,8,0:0:0:0:
256,192,43712,1,0,0:0:0:0:
256,192,43795,1,0,0:0:0:0:
256,192,43879,1,8,0:0:0:0:
256,192,44045,1,0,0:0:0:0:
256,192,44212,1,8,0:0:0:0:
256,192,44379,1,0,0:0:0:0:
256,192,44712,1,0,0:0:0:0:
256,160,45045,1,0,0:0:0:0:
256,160,45129,1,0,0:0:0:0:
256,160,45212,1,8,0:0:0:0:
256,160,45379,1,8,0:0:0:0:
256,160,45462,1,8,0:0:0:0:
256,160,45545,1,0,0:0:0:0:
256,160,45629,1,8,0:0:0:0:
256,160,45712,1,8,0:0:0:0:
256,160,46212,1,0,0:0:0:0:
256,160,46379,1,0,0:0:0:0:
256,160,46462,1,0,0:0:0:0:
256,160,46545,1,8,0:0:0:0:
256,160,46629,1,0,0:0:0:0:
256,160,46712,1,8,0:0:0:0:
256,160,46879,1,8,0:0:0:0:
256,160,47045,1,8,0:0:0:0:
256,160,47212,1,0,0:0:0:0:
256,160,47295,1,0,0:0:0:0:
256,160,47379,1,8,0:0:0:0:
256,160,47545,1,8,0:0:0:0:
256,160,47629,1,8,0:0:0:0:
256,160,47712,1,0,0:0:0:0:
256,160,48045,1,0,0:0:0:0:
256,160,48212,1,8,0:0:0:0:
256,160,48295,1,8,0:0:0:0:
256,160,48379,1,0,0:0:0:0:
256,160,48712,1,0,0:0:0:0:
256,160,49045,1,0,0:0:0:0:
256,160,49545,1,8,0:0:0:0:
256,160,49712,1,0,0:0:0:0:
256,160,50045,1,8,0:0:0:0:
256,160,50129,1,8,0:0:0:0:
256,160,50212,1,8,0:0:0:0:
256,160,50295,1,0,0:0:0:0:
256,160,50379,1,0,0:0:0:0:
256,160,50712,1,0,0:0:0:0:
256,160,50879,1,0,0:0:0:0:
256,160,51045,1,0,0:0:0:0:
256,160,51129,1,0,0:0:0:0:
256,160,51212,1,8,0:0:0:0:
256,160,51295,1,0,0:0:0:0:
256,160,51379,1,8,0:0:0:0:
256,192,51545,1,8,0:0:0:0:
256,192,51712,1,0,0:0:0:0:
256,192,52212,1,8,0:0:0:0:
256,192,52379,1,0,0:0:0:0:
256,192,52712,1,8,0:0:0:0:
256,192,52795,1,8,0:0:0:0:
256,192,52879,1,0,0:0:0:0:
256,192,52962,1,8,0:0:0:0:
256,192,53045,1,0,0:0:0:0:
256,192,53379,1,0,0:0:0:0:
256,192,53545,1,0,0:0:0:0:
256,192,53629,1,0,0:0:0:0:
256,192,53712,1,0,0:0:0:0:
288,192,53795,1,8,0:0:0:0:
288,192,53879,1,0,0:0:0:0:
288,192,54045,1,0,0:0:0:0:
288,192,54212,1,8,0:0:0:0:
288,192,54295,1,8,0:0:0:0:
288,192,54379,1,0,0:0:0:0:
288,192,54545,1,0,0:0:0:0:
288,192,54712,1,8,0:0:0:0:
288,160,54879,1,0,0:0:0:0:
256,160,55045,1,8,0:0:0:0:
256,160,55129,1,8,0:0:0:0:
256,160,55212,1,0,0:0:0:0:
256,160,55379,1,0,0:0:0:0:
256,160,55712,1,0,0:0:0:0:
256,160,55795,1,0,0:0:0:0:
256,160,55879,1,8,0:0:0:0:
256,160,56045,1,0,0:0:0:0:
256,160,56129,1,0,0:0:0:0:
256,160,56212,1,8,0:0:0:0:
256,160,56295,1,0,0:0:0:0:
256,160,56379,1,0,0:0:0:0:
256,160,56879,1,0,0:0:0:0:
256,160,56962,1,0,0:0:0:0:
256,160,57045,1,0,0:0:0:0:
288,192,57129,1,8,0:0:0:0:
256,160,57212,1,0,0:0:0:0:
256,160,57379,1,8,0:0:0:0:
256,160,57462,1,0,0:0:0:0:
256,160,57545,1,8,0:0:0:0:
256,160,57712,1,0,0:0:0:0:
256,192,58045,1,0,0:0:0:0:
288,192,59045,1,8,0:0:0:0:
288,192,59128,1,8,0:0:0:0:
288,192,59212,1,8,0:0:0:0:
288,192,59295,1,0,0:0:0:0:
288,192,59378,1,8,0:0:0:0:
288,192,59462,1,0,0:0:0:0:
288,192,59545,1,0,0:0:0:0:
288,192,59712,1,8,0:0:0:0:
288,192,59795,1,8,0:0:0:0:
288,192,59878,1,8,0:0:0:0:
288,192,59962,1,0,0:0:0:0:
288,192,60045,1,8,0:0:0:0:
288,192,60129,1,0,0:0:0:0:
288,192,60212,1,0,0:0:0:0:
288,192,60379,1,0,0:0:0:0:
288,192,60462,1,0,0:0:0:0:
288,192,60546,1,8,0:0:0:0:
288,192,60629,1,0,0:0:0:0:
288,192,60712,1,0,0:0:0:0:
288,192,60796,1,8,0:0:0:0:
288,192,60879,1,0,0:0:0:0:
288,192,60962,1,0,0:0:0:0:
288,192,61046,1,8,0:0:0:0:
288,192,61379,1,8,0:0:0:0:
288,192,62046,1,0,0:0:0:0:
256,192,62546,1,0,0:0:0:0:
256,192,62712,1,0,0:0:0:0:
256,192,63379,1,8,0:0:0:0:
256,192,63879,1,8,0:0:0:0:
256,192,64046,1,8,0:0:0:0:
288,192,64379,1,8,0:0:0:0:
288,192,64462,1,8,0:0:0:0:
288,192,64546,1,8,0:0:0:0:
288,192,64629,1,0,0:0:0:0:
288,192,64712,1,8,0:0:0:0:
288,192,64796,1,0,0:0:0:0:
288,192,64879,1,0,0:0:0:0:
288,192,65046,1,8,0:0:0:0:
288,192,65129,1,8,0:0:0:0:
288,192,65212,1,8,0:0:0:0:
288,192,65296,1,0,0:0:0:0:
288,192,65379,1,8,0:0:0:0:
288,192,65463,1,0,0:0:0:0:
288,192,65546,1,0,0:0:0:0:
288,192,65713,1,0,0:0:0:0:
288,192,65796,1,0,0:0:0:0:
288,192,65880,1,8,0:0:0:0:
288,192,65963,1,0,0:0:0:0:
288,192,66046,1,0,0:0:0:0:
288,192,66130,1,8,0:0:0:0:
288,192,66213,1,0,0:0:0:0:
288,192,66296,1,0,0:0:0:0:
288,192,66380,1,8,0:0:0:0:
288,192,66713,1,8,0:0:0:0:
288,192,67380,1,0,0:0:0:0:
256,192,67880,1,0,0:0:0:0:
256,192,68046,1,0,0:0:0:0:
256,192,68713,1,8,0:0:0:0:
256,192,69213,1,8,0:0:0:0:
256,192,69380,1,8,0:0:0:0:
256,192,74379,5,0,0:0:0:0:
256,192,74546,1,0,0:0:0:0:
256,192,74712,1,8,0:0:0:0:
256,192,74879,1,8,0:0:0:0:
256,192,75046,5,0,0:0:0:0:
256,192,75380,1,8,0:0:0:0:
256,192,75463,1,8,0:0:0:0:
256,192,75546,1,0,0:0:0:0:
256,192,75880,1,0,0:0:0:0:
256,192,75963,1,0,0:0:0:0:
256,192,76046,1,8,0:0:0:0:
288,192,76130,1,0,0:0:0:0:
256,192,76213,1,8,0:0:0:0:
256,192,76380,1,0,0:0:0:0:
256,192,76713,1,0,0:0:0:0:
256,192,76880,1,8,0:0:0:0:
256,192,77046,1,0,0:0:0:0:
256,192,77380,1,0,0:0:0:0:
256,192,78046,1,0,0:0:0:0:
256,192,78102,1,8,0:0:0:0:
256,192,78157,1,8,0:0:0:0:
256,192,78213,1,0,0:0:0:0:
256,192,78546,1,0,0:0:0:0:
256,192,78630,1,8,0:0:0:0:
256,192,78713,1,8,0:0:0:0:
256,192,78880,1,0,0:0:0:0:
256,192,79047,1,8,0:0:0:0:
256,192,79213,1,8,0:0:0:0:
256,192,79296,1,8,0:0:0:0:
256,192,79380,1,0,0:0:0:0:
256,192,79713,1,0,0:0:0:0:
256,192,80046,1,0,0:0:0:0:
256,192,80713,1,0,0:0:0:0:
256,192,80769,1,0,0:0:0:0:
256,192,80824,1,8,0:0:0:0:
256,192,80880,1,8,0:0:0:0:
256,160,81213,1,0,0:0:0:0:
256,160,81380,1,8,0:0:0:0:
256,192,81463,1,8,0:0:0:0:
256,192,81546,1,0,0:0:0:0:
256,192,81713,1,0,0:0:0:0:
256,192,82046,1,0,0:0:0:0:
256,192,82213,1,8,0:0:0:0:
256,192,82380,1,0,0:0:0:0:
256,192,82546,1,8,0:0:0:0:
256,192,82630,1,8,0:0:0:0:
256,192,82713,1,0,0:0:0:0:
256,192,83046,1,12,0:0:0:0:
256,192,83213,1,12,0:0:0:0:
256,192,83713,1,12,0:0:0:0:
256,192,83880,1,12,0:0:0:0:
256,192,84380,1,4,0:0:0:0:
256,192,85046,1,12,0:0:0:0:
256,192,85213,1,12,0:0:0:0:
256,192,85713,5,0,0:0:0:0:
256,192,86047,1,8,0:0:0:0:
256,192,86130,1,8,0:0:0:0:
256,192,86213,1,0,0:0:0:0:
256,192,86547,1,0,0:0:0:0:
256,192,86630,1,0,0:0:0:0:
256,192,86713,1,8,0:0:0:0:
288,192,86797,1,0,0:0:0:0:
256,192,86880,1,8,0:0:0:0:
256,192,87047,1,8,0:0:0:0:
256,192,87380,1,8,0:0:0:0:
256,192,87547,1,0,0:0:0:0:
256,192,87713,1,8,0:0:0:0:
256,192,88047,1,0,0:0:0:0:
256,192,88713,1,0,0:0:0:0:
256,192,88769,1,8,0:0:0:0:
256,192,88824,1,8,0:0:0:0:
256,192,88880,1,0,0:0:0:0:
256,192,89213,1,0,0:0:0:0:
256,192,89297,1,8,0:0:0:0:
256,192,89380,1,8,0:0:0:0:
256,192,89547,1,0,0:0:0:0:
256,192,89714,1,8,0:0:0:0:
256,192,89880,1,8,0:0:0:0:
256,192,89963,1,8,0:0:0:0:
256,192,90047,1,0,0:0:0:0:
256,192,90380,1,0,0:0:0:0:
256,192,90713,1,0,0:0:0:0:
256,192,91380,1,0,0:0:0:0:
256,192,91436,1,0,0:0:0:0:
256,192,91491,1,8,0:0:0:0:
256,192,91547,1,8,0:0:0:0:
256,160,91880,1,0,0:0:0:0:
256,160,92047,1,8,0:0:0:0:
256,192,92130,1,8,0:0:0:0:
256,192,92213,1,0,0:0:0:0:
256,192,92380,1,8,0:0:0:0:
256,192,92713,1,0,0:0:0:0:
256,192,92880,1,8,0:0:0:0:
256,192,93047,1,8,0:0:0:0:
256,192,93213,1,0,0:0:0:0:
256,192,93297,1,0,0:0:0:0:
256,192,93380,1,8,0:0:0:0:
256,192,93713,1,4,0:0:0:0:
256,192,93880,1,4,0:0:0:0:
256,192,94380,1,4,0:0:0:0:
256,192,94547,1,4,0:0:0:0:
256,192,95047,1,12,0:0:0:0:
256,192,95713,5,4,0:0:0:0:
256,192,95880,1,4,0:0:0:0:
256,192,96380,5,8,0:0:0:0:
256,192,96436,1,8,0:0:0:0:
256,192,96491,1,8,0:0:0:0:
256,192,96547,1,8,0:0:0:0:
288,192,96630,1,0,0:0:0:0:
256,192,96713,1,8,0:0:0:0:
384,64,96880,1,0,0:0:0:0:
256,192,96963,1,0,0:0:0:0:
256,192,97047,1,8,0:0:0:0:
256,192,97130,1,0,0:0:0:0:
224,192,97213,1,0,0:0:0:0:
192,192,97297,1,8,0:0:0:0:
256,192,97380,1,0,0:0:0:0:
224,192,97547,1,0,0:0:0:0:
224,192,97602,1,0,0:0:0:0:
224,192,97658,1,0,0:0:0:0:
224,192,97713,1,0,0:0:0:0:
224,192,97963,1,0,0:0:0:0:
224,192,98213,1,8,0:0:0:0:
224,192,98268,1,8,0:0:0:0:
224,192,98324,1,8,0:0:0:0:
224,192,98380,1,8,0:0:0:0:
256,192,98630,1,8,0:0:0:0:
256,192,98880,1,0,0:0:0:0:
256,192,98963,1,0,0:0:0:0:
256,192,99047,1,8,0:0:0:0:
256,192,99213,1,8,0:0:0:0:
256,192,99380,1,0,0:0:0:0:
224,192,99463,1,0,0:0:0:0:
224,192,99547,1,8,0:0:0:0:
256,192,99713,1,8,0:0:0:0:
256,192,100047,1,8,0:0:0:0:
256,192,100130,1,8,0:0:0:0:
256,192,100213,1,0,0:0:0:0:
256,192,100380,1,0,0:0:0:0:
256,192,100713,1,0,0:0:0:0:
224,192,100880,1,8,0:0:0:0:
256,192,100963,1,8,0:0:0:0:
224,192,101047,1,0,0:0:0:0:
256,192,101213,1,0,0:0:0:0:
224,192,101547,1,0,0:0:0:0:
224,192,101630,1,0,0:0:0:0:
256,192,101713,5,8,0:0:0:0:
256,192,101796,1,0,0:0:0:0:
256,192,101880,1,0,0:0:0:0:
256,192,101963,1,8,0:0:0:0:
256,192,102047,1,0,0:0:0:0:
384,64,102213,1,8,0:0:0:0:
256,192,102297,1,8,0:0:0:0:
256,192,102380,1,0,0:0:0:0:
256,192,102463,1,8,0:0:0:0:
224,192,102546,1,0,0:0:0:0:
256,192,102630,1,0,0:0:0:0:
256,192,102713,1,8,0:0:0:0:
224,192,102880,1,0,0:0:0:0:
224,192,102935,1,0,0:0:0:0:
224,192,102991,1,0,0:0:0:0:
224,192,103046,1,0,0:0:0:0:
224,192,103297,1,0,0:0:0:0:
224,192,103546,1,8,0:0:0:0:
224,192,103601,1,8,0:0:0:0:
224,192,103657,1,8,0:0:0:0:
224,192,103713,1,8,0:0:0:0:
256,192,103963,1,8,0:0:0:0:
256,192,104213,1,0,0:0:0:0:
256,192,104296,1,8,0:0:0:0:
256,192,104380,1,8,0:0:0:0:
256,192,104546,1,0,0:0:0:0:
256,192,104713,1,8,0:0:0:0:
224,192,104796,1,8,0:0:0:0:
224,192,104880,1,0,0:0:0:0:
256,192,105046,1,0,0:0:0:0:
256,192,105380,1,8,0:0:0:0:
256,192,105463,1,8,0:0:0:0:
256,192,105546,1,0,0:0:0:0:
256,192,105713,1,4,0:0:0:0:
256,192,107047,1,4,0:0:0:0:
256,192,107713,1,0,0:0:0:0:
256,192,108213,1,8,0:0:0:0:
256,192,108380,1,0,0:0:0:0:
256,192,108880,1,8,0:0:0:0:
256,192,109047,1,0,0:0:0:0:
288,160,109547,1,0,0:0:0:0:
256,192,109630,1,0,0:0:0:0:
256,192,109714,1,0,0:0:0:0:
256,192,110047,1,8,0:0:0:0:
256,160,110380,1,8,0:0:0:0:
224,192,110880,1,8,0:0:0:0:
256,192,110964,1,8,0:0:0:0:
256,192,111047,1,0,0:0:0:0:
224,192,111380,1,0,0:0:0:0:
224,192,111547,1,8,0:0:0:0:
224,192,111630,1,8,0:0:0:0:
224,192,111714,1,0,0:0:0:0:
224,192,112047,1,0,0:0:0:0:
224,192,112130,1,0,0:0:0:0:
224,192,112214,1,8,0:0:0:0:
224,192,112297,1,0,0:0:0:0:
224,192,112380,1,8,0:0:0:0:
256,192,112714,1,8,0:0:0:0:
256,192,112880,1,8,0:0:0:0:
256,192,113047,1,0,0:0:0:0:
256,192,113130,1,0,0:0:0:0:
256,192,113214,1,8,0:0:0:0:
256,192,113380,1,0,0:0:0:0:
256,192,113547,1,8,0:0:0:0:
256,192,113714,1,0,0:0:0:0:
256,192,114047,1,0,0:0:0:0:
256,160,114380,1,0,0:0:0:0:
256,160,114464,1,0,0:0:0:0:
256,160,114547,1,8,0:0:0:0:
256,160,114714,1,8,0:0:0:0:
256,160,114797,1,8,0:0:0:0:
256,160,114880,1,0,0:0:0:0:
256,160,114964,1,8,0:0:0:0:
256,160,115047,1,8,0:0:0:0:
256,160,115547,1,0,0:0:0:0:
256,160,115714,1,0,0:0:0:0:
256,160,115797,1,0,0:0:0:0:
256,160,115880,1,8,0:0:0:0:
256,160,115964,1,0,0:0:0:0:
256,160,116047,1,8,0:0:0:0:
256,160,116214,1,8,0:0:0:0:
256,160,116380,1,8,0:0:0:0:
256,160,116547,1,0,0:0:0:0:
256,160,116630,1,0,0:0:0:0:
256,160,116714,1,8,0:0:0:0:
256,160,116880,1,8,0:0:0:0:
256,160,116964,1,8,0:0:0:0:
256,160,117047,1,0,0:0:0:0:
256,160,117380,1,0,0:0:0:0:
256,160,117547,1,8,0:0:0:0:
256,160,117630,1,8,0:0:0:0:
256,160,117714,1,0,0:0:0:0:
256,160,118047,1,0,0:0:0:0:
256,160,118380,1,0,0:0:0:0:
256,160,118880,1,8,0:0:0:0:
256,160,119047,1,0,0:0:0:0:
256,160,119380,1,8,0:0:0:0:
256,160,119464,1,8,0:0:0:0:
256,160,119547,1,8,0:0:0:0:
256,160,119630,1,0,0:0:0:0:
256,160,119714,1,0,0:0:0:0:
256,160,120047,1,0,0:0:0:0:
256,160,120214,1,0,0:0:0:0:
256,160,120380,1,0,0:0:0:0:
256,160,120464,1,0,0:0:0:0:
256,160,120547,1,8,0:0:0:0:
256,160,120630,1,0,0:0:0:0:
256,160,120714,1,8,0:0:0:0:
256,192,120880,1,8,0:0:0:0:
256,192,121047,1,0,0:0:0:0:
256,192,121547,1,8,0:0:0:0:
256,192,121714,1,0,0:0:0:0:
256,192,122047,1,8,0:0:0:0:
256,192,122130,1,8,0:0:0:0:
256,192,122214,1,0,0:0:0:0:
256,192,122297,1,8,0:0:0:0:
256,192,122380,1,0,0:0:0:0:
256,192,122714,1,0,0:0:0:0:
256,192,122880,1,0,0:0:0:0:
256,192,122964,1,0,0:0:0:0:
256,192,123047,1,0,0:0:0:0:
288,192,123130,1,8,0:0:0:0:
288,192,123214,1,0,0:0:0:0:
288,192,123380,1,0,0:0:0:0:
288,192,123547,1,8,0:0:0:0:
288,192,123630,1,8,0:0:0:0:
288,192,123714,1,0,0:0:0:0:
288,192,123880,1,0,0:0:0:0:
288,192,124047,1,8,0:0:0:0:
288,160,124214,1,0,0:0:0:0:
256,160,124380,1,8,0:0:0:0:
256,160,124464,1,8,0:0:0:0:
256,160,124547,1,0,0:0:0:0:
256,160,124714,1,0,0:0:0:0:
256,160,125047,1,0,0:0:0:0:
256,160,125130,1,0,0:0:0:0:
256,160,125214,1,8,0:0:0:0:
256,160,125380,1,0,0:0:0:0:
256,160,125464,1,0,0:0:0:0:
256,160,125547,1,8,0:0:0:0:
256,160,125630,1,0,0:0:0:0:
256,160,125714,1,0,0:0:0:0:
256,160,126214,1,0,0:0:0:0:
256,160,126297,1,0,0:0:0:0:
256,160,126380,1,0,0:0:0:0:
288,192,126464,1,8,0:0:0:0:
256,160,126547,1,0,0:0:0:0:
256,160,126714,1,8,0:0:0:0:
256,160,126797,1,0,0:0:0:0:
256,160,126880,1,8,0:0:0:0:
256,160,127047,1,0,0:0:0:0:
256,192,127380,1,0,0:0:0:0:
288,192,128380,1,8,0:0:0:0:
288,192,128463,1,8,0:0:0:0:
288,192,128547,1,8,0:0:0:0:
288,192,128630,1,0,0:0:0:0:
288,192,128713,1,8,0:0:0:0:
288,192,128797,1,0,0:0:0:0:
288,192,128880,1,0,0:0:0:0:
288,192,129047,1,8,0:0:0:0:
288,192,129130,1,8,0:0:0:0:
288,192,129213,1,8,0:0:0:0:
288,192,129297,1,0,0:0:0:0:
288,192,129380,1,8,0:0:0:0:
288,192,129464,1,0,0:0:0:0:
288,192,129547,1,0,0:0:0:0:
288,192,129714,1,0,0:0:0:0:
288,192,129797,1,0,0:0:0:0:
288,192,129881,1,8,0:0:0:0:
288,192,129964,1,0,0:0:0:0:
288,192,130047,1,0,0:0:0:0:
288,192,130131,1,8,0:0:0:0:
288,192,130214,1,0,0:0:0:0:
288,192,130297,1,0,0:0:0:0:
288,192,130381,1,8,0:0:0:0:
288,192,130714,1,8,0:0:0:0:
288,192,131381,1,0,0:0:0:0:
256,192,131881,1,0,0:0:0:0:
256,192,132047,1,0,0:0:0:0:
256,192,132714,1,8,0:0:0:0:
256,192,133214,1,8,0:0:0:0:
256,192,133381,1,8,0:0:0:0:
288,192,133714,1,8,0:0:0:0:
288,192,133797,1,8,0:0:0:0:
288,192,133881,1,8,0:0:0:0:
288,192,133964,1,0,0:0:0:0:
288,192,134047,1,8,0:0:0:0:
288,192,134131,1,0,0:0:0:0:
288,192,134214,1,0,0:0:0:0:
288,192,134381,1,8,0:0:0:0:
288,192,134464,1,8,0:0:0:0:
288,192,134547,1,8,0:0:0:0:
288,192,134631,1,0,0:0:0:0:
288,192,134714,1,8,0:0:0:0:
288,192,134798,1,0,0:0:0:0:
288,192,134881,1,0,0:0:0:0:
288,192,135048,1,0,0:0:0:0:
288,192,135131,1,0,0:0:0:0:
288,192,135215,1,8,0:0:0:0:
288,192,135298,1,0,0:0:0:0:
288,192,135381,1,0,0:0:0:0:
288,192,135465,1,8,0:0:0:0:
288,192,135548,1,0,0:0:0:0:
288,192,135631,1,0,0:0:0:0:
288,192,135715,1,8,0:0:0:0:
288,192,136048,1,8,0:0:0:0:
288,192,136715,1,0,0:0:0:0:
256,192,137215,1,0,0:0:0:0:
256,192,137381,1,0,0:0:0:0:
256,192,138048,1,8,0:0:0:0:
256,192,138548,1,8,0:0:0:0:
256,192,138715,1,8,0:0:0:0:
256,192,139047,1,0,0:0:0:0:
256,192,139213,1,8,0:0:0:0:
256,192,139713,1,0,0:0:0:0:
256,192,139880,1,8,0:0:0:0:
224,192,140380,1,0,0:0:0:0:
224,192,141047,1,0,0:0:0:0:
224,192,141714,1,8,0:0:0:0:
224,192,141880,1,0,0:0:0:0:
224,192,142380,1,8,0:0:0:0:
224,192,142464,1,8,0:0:0:0:
224,192,142547,1,0,0:0:0:0:
224,192,143047,1,8,0:0:0:0:
224,192,143714,1,8,0:0:0:0:
224,192,144380,1,0,0:0:0:0:
224,192,144547,1,8,0:0:0:0:
224,192,145047,1,0,0:0:0:0:
224,192,145214,1,8,0:0:0:0:
224,192,145714,1,0,0:0:0:0:
224,192,146380,1,0,0:0:0:0:
224,192,147047,1,8,0:0:0:0:
224,192,147214,1,0,0:0:0:0:
224,192,147714,1,8,0:0:0:0:
224,192,147880,1,0,0:0:0:0:
224,192,148380,1,8,0:0:0:0:
224,192,148464,1,8,0:0:0:0:
224,192,148547,1,0,0:0:0:0:
256,192,149047,1,0,0:0:0:0:
224,192,149714,1,8,0:0:0:0:
224,192,149797,1,8,0:0:0:0:
224,192,149880,1,0,0:0:0:0:
224,192,150047,1,0,0:0:0:0:
224,192,150214,1,0,0:0:0:0:
224,192,150380,1,8,0:0:0:0:
224,192,150464,1,8,0:0:0:0:
224,192,150547,1,0,0:0:0:0:
256,192,150714,1,0,0:0:0:0:
256,192,150880,1,0,0:0:0:0:
256,192,151047,1,8,0:0:0:0:
256,192,151130,1,8,0:0:0:0:
256,192,151214,1,0,0:0:0:0:
256,192,151380,1,0,0:0:0:0:
256,192,151464,1,0,0:0:0:0:
256,192,151547,1,0,0:0:0:0:
256,192,151714,1,0,0:0:0:0:
256,192,151797,1,0,0:0:0:0:
256,192,151880,1,0,0:0:0:0:
256,192,151964,1,0,0:0:0:0:
256,192,152047,1,8,0:0:0:0:
256,192,152380,1,8,0:0:0:0:
256,192,152464,1,0,0:0:0:0:
256,192,152547,1,8,0:0:0:0:
256,192,152714,1,0,0:0:0:0:
256,192,152880,1,8,0:0:0:0:
256,192,152964,1,8,0:0:0:0:
256,192,153047,1,8,0:0:0:0:
256,192,153130,1,0,0:0:0:0:
256,192,153214,1,8,0:0:0:0:
288,192,153380,1,0,0:0:0:0:
288,192,153714,1,8,0:0:0:0:
288,192,153797,1,8,0:0:0:0:
288,192,153880,1,8,0:0:0:0:
288,192,153964,1,8,0:0:0:0:
288,192,154047,1,0,0:0:0:0:
288,192,154214,1,0,0:0:0:0:
288,192,154381,1,8,0:0:0:0:
256,192,154464,1,0,0:0:0:0:
256,192,154547,1,8,0:0:0:0:
256,192,154714,1,8,0:0:0:0:
288,192,155047,1,0,0:0:0:0:
288,192,155214,1,0,0:0:0:0:
288,192,155714,1,8,0:0:0:0:
288,192,155880,1,8,0:0:0:0:
288,192,156380,1,0,0:0:0:0:
288,192,157047,5,8,0:0:0:0:
256,192,158047,5,4,0:0:0:0:
256,192,158380,1,4,0:0:0:0:
256,192,158714,1,4,0:0:0:0:
224,192,159047,1,12,0:0:0:0:
224,192,159214,1,0,0:0:0:0:
224,192,159297,1,0,0:0:0:0:
224,192,159380,1,8,0:0:0:0:
224,192,159547,1,8,0:0:0:0:
224,192,159630,1,8,0:0:0:0:
224,192,159714,1,0,0:0:0:0:
224,192,160047,1,8,0:0:0:0:
256,192,161714,1,4,0:0:0:0:
256,192,162380,1,0,0:0:0:0:
256,192,162880,1,8,0:0:0:0:
256,192,163047,1,0,0:0:0:0:
256,192,163547,1,8,0:0:0:0:
256,192,163714,1,0,0:0:0:0:
288,160,164214,1,0,0:0:0:0:
256,192,164297,1,0,0:0:0:0:
256,192,164381,1,0,0:0:0:0:
256,192,164547,1,0,0:0:0:0:
256,192,164714,1,8,0:0:0:0:
256,160,165047,1,8,0:0:0:0:
224,192,165547,1,8,0:0:0:0:
256,192,165631,1,8,0:0:0:0:
256,192,165714,1,0,0:0:0:0:
224,192,166047,1,0,0:0:0:0:
224,192,166214,1,8,0:0:0:0:
224,192,166297,1,8,0:0:0:0:
224,192,166381,1,0,0:0:0:0:
224,192,166714,1,0,0:0:0:0:
224,192,166797,1,0,0:0:0:0:
224,192,166881,1,8,0:0:0:0:
224,192,166964,1,0,0:0:0:0:
224,192,167047,1,8,0:0:0:0:
256,192,167381,1,8,0:0:0:0:
256,192,167547,1,8,0:0:0:0:
256,192,167714,1,0,0:0:0:0:
256,192,167797,1,0,0:0:0:0:
256,192,167881,1,8,0:0:0:0:
256,192,168047,1,0,0:0:0:0:
256,192,168214,1,8,0:0:0:0:
256,192,168381,1,0,0:0:0:0:
256,192,168714,1,0,0:0:0:0:
256,160,169047,1,0,0:0:0:0:
256,160,169131,1,0,0:0:0:0:
256,160,169214,1,8,0:0:0:0:
256,160,169381,1,8,0:0:0:0:
256,160,169464,1,8,0:0:0:0:
256,160,169547,1,0,0:0:0:0:
256,160,169631,1,8,0:0:0:0:
256,160,169714,1,8,0:0:0:0:
256,160,170214,1,0,0:0:0:0:
256,160,170381,1,0,0:0:0:0:
256,160,170464,1,0,0:0:0:0:
256,160,170547,1,8,0:0:0:0:
256,160,170631,1,0,0:0:0:0:
256,160,170714,1,8,0:0:0:0:
256,160,170881,1,8,0:0:0:0:
256,160,171047,1,8,0:0:0:0:
256,160,171214,1,0,0:0:0:0:
256,160,171297,1,0,0:0:0:0:
256,160,171381,1,8,0:0:0:0:
256,160,171547,1,8,0:0:0:0:
256,160,171631,1,8,0:0:0:0:
256,160,171714,1,0,0:0:0:0:
256,160,172047,1,0,0:0:0:0:
256,160,172214,1,8,0:0:0:0:
256,160,172297,1,8,0:0:0:0:
256,160,172381,1,0,0:0:0:0:
256,160,172714,1,0,0:0:0:0:
256,160,173047,1,0,0:0:0:0:
256,160,173547,1,8,0:0:0:0:
256,160,173714,1,0,0:0:0:0:
256,160,174047,1,8,0:0:0:0:
256,160,174131,1,8,0:0:0:0:
256,160,174214,1,8,0:0:0:0:
256,160,174297,1,0,0:0:0:0:
256,160,174381,1,0,0:0:0:0:
256,160,174714,1,0,0:0:0:0:
256,160,174881,1,0,0:0:0:0:
256,160,175047,1,0,0:0:0:0:
256,160,175131,1,0,0:0:0:0:
256,160,175214,1,8,0:0:0:0:
256,160,175297,1,0,0:0:0:0:
256,160,175381,1,8,0:0:0:0:
256,192,175547,1,8,0:0:0:0:
256,192,175714,1,0,0:0:0:0:
256,192,176214,1,8,0:0:0:0:
256,192,176381,1,0,0:0:0:0:
256,192,176714,1,8,0:0:0:0:
256,192,176797,1,8,0:0:0:0:
256,192,176881,1,0,0:0:0:0:
256,192,176964,1,8,0:0:0:0:
256,192,177047,1,0,0:0:0:0:
256,192,177381,1,0,0:0:0:0:
256,192,177547,1,0,0:0:0:0:
256,192,177631,1,0,0:0:0:0:
256,192,177714,1,0,0:0:0:0:
288,192,177797,1,8,0:0:0:0:
288,192,177881,1,0,0:0:0:0:
288,192,178047,1,0,0:0:0:0:
288,192,178214,1,8,0:0:0:0:
288,192,178297,1,8,0:0:0:0:
288,192,178381,1,0,0:0:0:0:
288,192,178547,1,0,0:0:0:0:
288,192,178714,1,8,0:0:0:0:
288,160,178881,1,0,0:0:0:0:
256,160,179047,1,8,0:0:0:0:
256,160,179131,1,8,0:0:0:0:
256,160,179214,1,0,0:0:0:0:
256,160,179381,1,0,0:0:0:0:
256,160,179714,1,0,0:0:0:0:
256,160,179797,1,0,0:0:0:0:
256,160,179881,1,8,0:0:0:0:
256,160,180047,1,0,0:0:0:0:
256,160,180131,1,0,0:0:0:0:
256,160,180214,1,8,0:0:0:0:
256,160,180297,1,0,0:0:0:0:
256,160,180381,1,0,0:0:0:0:
256,160,180881,1,0,0:0:0:0:
256,160,180964,1,0,0:0:0:0:
256,160,181047,1,0,0:0:0:0:
288,192,181131,1,8,0:0:0:0:
256,160,181214,1,0,0:0:0:0:
256,160,181381,1,8,0:0:0:0:
256,160,181464,1,0,0:0:0:0:
256,160,181547,1,8,0:0:0:0:
256,160,181714,1,0,0:0:0:0:
256,192,182047,1,0,0:0:0:0:
288,192,183047,1,8,0:0:0:0:
288,192,183130,1,8,0:0:0:0:
288,192,183214,1,8,0:0:0:0:
288,192,183297,1,0,0:0:0:0:
288,192,183380,1,8,0:0:0:0:
288,192,183464,1,0,0:0:0:0:
288,192,183547,1,0,0:0:0:0:
288,192,183714,1,8,0:0:0:0:
288,192,183797,1,8,0:0:0:0:
288,192,183880,1,8,0:0:0:0:
288,192,183964,1,0,0:0:0:0:
288,192,184047,1,8,0:0:0:0:
288,192,184131,1,0,0:0:0:0:
288,192,184214,1,0,0:0:0:0:
288,192,184381,1,0,0:0:0:0:
288,192,184464,1,0,0:0:0:0:
288,192,184548,1,8,0:0:0:0:
288,192,184631,1,0,0:0:0:0:
288,192,184714,1,0,0:0:0:0:
288,192,184798,1,8,0:0:0:0:
288,192,184881,1,0,0:0:0:0:
288,192,184964,1,0,0:0:0:0:
288,192,185048,1,8,0:0:0:0:
288,192,185381,1,8,0:0:0:0:
256,192,185714,1,0,0:0:0:0:
256,192,185798,1,0,0:0:0:0:
256,192,185881,1,0,0:0:0:0:
256,192,185964,1,0,0:0:0:0:
288,192,186048,1,0,0:0:0:0:
256,192,186131,1,0,0:0:0:0:
256,192,186214,1,8,0:0:0:0:
256,192,186298,1,0,0:0:0:0:
256,192,186381,1,8,0:0:0:0:
256,192,186464,1,8,0:0:0:0:
256,192,186548,1,8,0:0:0:0:
256,192,186631,1,8,0:0:0:0:
256,192,186714,1,0,0:0:0:0:
256,192,186798,1,0,0:0:0:0:
256,192,186881,1,8,0:0:0:0:
256,192,186964,1,8,0:0:0:0:
256,192,187048,1,0,0:0:0:0:
256,192,187131,1,0,0:0:0:0:
256,192,187214,1,8,0:0:0:0:
256,192,187298,1,8,0:0:0:0:
256,192,187381,1,8,0:0:0:0:
256,192,187548,1,0,0:0:0:0:
256,192,187631,1,0,0:0:0:0:
256,192,187714,1,0,0:0:0:0:
256,192,187881,1,8,0:0:0:0:
256,192,188048,1,8,0:0:0:0:
288,192,188381,1,8,0:0:0:0:
288,192,188464,1,8,0:0:0:0:
288,192,188548,1,8,0:0:0:0:
288,192,188631,1,0,0:0:0:0:
288,192,188714,1,8,0:0:0:0:
288,192,188798,1,0,0:0:0:0:
288,192,188881,1,0,0:0:0:0:
288,192,189048,1,8,0:0:0:0:
288,192,189131,1,8,0:0:0:0:
288,192,189214,1,8,0:0:0:0:
288,192,189298,1,0,0:0:0:0:
288,192,189381,1,8,0:0:0:0:
288,192,189465,1,0,0:0:0:0:
288,192,189548,1,0,0:0:0:0:
288,192,189715,1,0,0:0:0:0:
288,192,189798,1,0,0:0:0:0:
288,192,189882,1,8,0:0:0:0:
288,192,189965,1,0,0:0:0:0:
288,192,190048,1,0,0:0:0:0:
288,192,190132,1,8,0:0:0:0:
288,192,190215,1,0,0:0:0:0:
288,192,190298,1,0,0:0:0:0:
288,192,190382,1,8,0:0:0:0:
288,192,190715,1,8,0:0:0:0:
256,192,191048,1,0,0:0:0:0:
256,192,191131,1,0,0:0:0:0:
256,192,191214,1,8,0:0:0:0:
256,192,191298,1,8,0:0:0:0:
256,192,191381,1,0,0:0:0:0:
256,192,191464,1,0,0:0:0:0:
256,192,191548,1,8,0:0:0:0:
256,192,191631,1,8,0:0:0:0:
256,192,191714,1,0,0:0:0:0:
256,192,191798,1,0,0:0:0:0:
256,192,191881,1,8,0:0:0:0:
256,192,191964,1,8,0:0:0:0:
256,192,192048,1,0,0:0:0:0:
256,192,192131,1,0,0:0:0:0:
256,192,192214,1,8,0:0:0:0:
256,192,192298,1,8,0:0:0:0:
256,192,192381,1,0,0:0:0:0:
256,192,192548,1,0,0:0:0:0:
256,192,192631,1,0,0:0:0:0:
256,192,192714,1,8,0:0:0:0:
256,192,192798,1,0,0:0:0:0:
256,192,192881,1,0,0:0:0:0:
256,192,193048,1,8,0:0:0:0:
256,192,193214,1,8,0:0:0:0:
256,192,193298,1,8,0:0:0:0:
256,192,193381,1,0,0:0:0:0:
256,192,193464,1,8,0:0:0:0:
256,192,193548,1,8,0:0:0:0:
256,192,193631,1,0,0:0:0:0:
256,160,193714,1,0,0:0:0:0:
256,160,194048,1,0,0:0:0:0:
256,160,194381,1,0,0:0:0:0:
256,160,194881,1,8,0:0:0:0:
256,160,195048,1,0,0:0:0:0:
256,160,195380,1,8,0:0:0:0:
256,160,195464,1,8,0:0:0:0:
256,160,195547,1,8,0:0:0:0:
256,160,195630,1,0,0:0:0:0:
256,160,195714,1,0,0:0:0:0:
256,160,196047,1,0,0:0:0:0:
256,160,196214,1,0,0:0:0:0:
256,160,196380,1,0,0:0:0:0:
256,160,196464,1,0,0:0:0:0:
256,160,196547,1,8,0:0:0:0:
256,160,196630,1,0,0:0:0:0:
256,160,196714,1,8,0:0:0:0:
256,192,196880,1,8,0:0:0:0:
256,192,197047,1,0,0:0:0:0:
256,192,197548,1,8,0:0:0:0:
256,192,197714,1,0,0:0:0:0:
256,192,198047,1,8,0:0:0:0:
256,192,198130,1,8,0:0:0:0:
256,192,198214,1,0,0:0:0:0:
256,192,198297,1,8,0:0:0:0:
256,192,198380,1,0,0:0:0:0:
256,192,198714,1,0,0:0:0:0:
256,192,198880,1,0,0:0:0:0:
256,192,198964,1,0,0:0:0:0:
256,192,199047,1,0,0:0:0:0:
288,192,199130,1,8,0:0:0:0:
288,192,199214,1,0,0:0:0:0:
288,192,199380,1,0,0:0:0:0:
288,192,199547,1,8,0:0:0:0:
288,192,199630,1,8,0:0:0:0:
288,192,199714,1,0,0:0:0:0:
288,192,199880,1,0,0:0:0:0:
288,192,200047,1,8,0:0:0:0:
288,160,200214,1,0,0:0:0:0:
256,160,200380,1,8,0:0:0:0:
256,160,200464,1,8,0:0:0:0:
256,160,200547,1,0,0:0:0:0:
256,160,200714,1,0,0:0:0:0:
256,160,201047,1,0,0:0:0:0:
256,160,201130,1,0,0:0:0:0:
256,160,201214,1,8,0:0:0:0:
256,160,201380,1,0,0:0:0:0:
256,160,201464,1,0,0:0:0:0:
256,160,201547,1,8,0:0:0:0:
256,160,201630,1,0,0:0:0:0:
256,160,201714,1,0,0:0:0:0:
256,160,202215,1,0,0:0:0:0:
256,160,202297,1,0,0:0:0:0:
256,160,202380,1,0,0:0:0:0:
288,192,202464,1,8,0:0:0:0:
256,160,202547,1,0,0:0:0:0:
256,160,202714,1,8,0:0:0:0:
256,160,202797,1,0,0:0:0:0:
256,160,202880,1,8,0:0:0:0:
256,160,203047,1,0,0:0:0:0:
256,192,203380,1,0,0:0:0:0:
288,192,204381,1,8,0:0:0:0:
288,192,204463,1,8,0:0:0:0:
288,192,204547,1,8,0:0:0:0:
288,192,204630,1,0,0:0:0:0:
288,192,204713,1,8,0:0:0:0:
288,192,204797,1,0,0:0:0:0:
288,192,204880,1,0,0:0:0:0:
288,192,205047,1,8,0:0:0:0:
288,192,205130,1,8,0:0:0:0:
288,192,205213,1,8,0:0:0:0:
288,192,205297,1,0,0:0:0:0:
288,192,205380,1,8,0:0:0:0:
288,192,205464,1,0,0:0:0:0:
288,192,205547,1,0,0:0:0:0:
288,192,205714,1,0,0:0:0:0:
288,192,205797,1,0,0:0:0:0:
288,192,205881,1,8,0:0:0:0:
288,192,205964,1,0,0:0:0:0:
288,192,206047,1,0,0:0:0:0:
288,192,206131,1,8,0:0:0:0:
288,192,206214,1,0,0:0:0:0:
288,192,206297,1,0,0:0:0:0:
288,192,206381,1,8,0:0:0:0:
288,192,206714,1,8,0:0:0:0:
288,192,207381,1,0,0:0:0:0:
256,192,207881,1,0,0:0:0:0:
256,192,208047,1,0,0:0:0:0:
256,192,208714,1,8,0:0:0:0:
256,192,209215,1,8,0:0:0:0:
256,192,209381,1,8,0:0:0:0:
288,192,209715,1,8,0:0:0:0:
288,192,209797,1,8,0:0:0:0:
288,192,209881,1,8,0:0:0:0:
288,192,209964,1,0,0:0:0:0:
288,192,210047,1,8,0:0:0:0:
288,192,210131,1,0,0:0:0:0:
288,192,210214,1,0,0:0:0:0:
288,192,210381,1,8,0:0:0:0:
288,192,210464,1,8,0:0:0:0:
288,192,210547,1,8,0:0:0:0:
288,192,210631,1,0,0:0:0:0:
288,192,210714,1,8,0:0:0:0:
288,192,210798,1,0,0:0:0:0:
288,192,210881,1,0,0:0:0:0:
288,192,211048,1,0,0:0:0:0:
288,192,211131,1,0,0:0:0:0:
288,192,211215,1,8,0:0:0:0:
288,192,211298,1,0,0:0:0:0:
288,192,211381,1,0,0:0:0:0:
288,192,211465,1,8,0:0:0:0:
288,192,211548,1,0,0:0:0:0:
288,192,211631,1,0,0:0:0:0:
288,192,211715,1,8,0:0:0:0:
288,192,212048,1,8,0:0:0:0:
288,192,212715,1,0,0:0:0:0:
256,192,213215,1,0,0:0:0:0:
256,192,213381,1,0,0:0:0:0:
256,192,214048,1,8,0:0:0:0:
256,192,214548,1,8,0:0:0:0:
256,192,214715,1,8,0:0:0:0:
256,192,214798,1,0,0:0:0:0:
256,192,214881,1,0,0:0:0:0:
256,192,214965,1,0,0:0:0:0:
256,192,215047,1,0,0:0:0:0:
