osu file format v14

[General]
AudioFilename: audio.mp3
AudioLeadIn: 0
PreviewTime: 29625
Countdown: 0
SampleSet: Soft
StackLeniency: 0.3
Mode: 0
LetterboxInBreaks: 0
WidescreenStoryboard: 0

[Editor]
Bookmarks: 1125,34125,72375
DistanceSpacing: 1
BeatDivisor: 2
GridSize: 4
TimelineZoom: 1.5

[Metadata]
Title:Kill The Lights
TitleUnicode:Kill The Lights
Artist:Set It Off
ArtistUnicode:Set It Off
Creator:Cosmolade
Version:Normal
Source:
Tags:Cinematics (Expanded Edition) Equal Vision Records Reissue EVR 245 Atsuro
BeatmapID:1186317
BeatmapSetID:559814

[Difficulty]
HPDrainRate:4
CircleSize:2.5
OverallDifficulty:4
ApproachRate:5.5
SliderMultiplier:1.2
SliderTickRate:1

[Events]
//Background and Video events
0,0,"BG.jpg",0,0
//Break Periods
//Storyboard Layer 0 (Background)
//Storyboard Layer 1 (Fail)
//Storyboard Layer 2 (Pass)
//Storyboard Layer 3 (Foreground)
//Storyboard Sound Samples

[TimingPoints]
375,375,4,2,1,40,1,0
6375,-100,4,2,1,55,0,1
12375,-100,4,2,1,45,0,0
30375,-100,4,2,1,70,0,1
42375,-100,4,2,1,70,0,0
48000,-100,4,2,1,70,0,0
48375,-100,4,2,1,50,0,0
60375,-100,4,2,1,60,0,0
72375,-100,4,2,1,40,0,0
78375,-100,4,2,1,50,0,0
82875,-100,4,2,1,60,0,0
83625,-100,4,2,1,40,0,0
84375,-100,4,2,1,70,0,1
96375,-100,4,2,1,70,0,0
102375,-100,4,2,1,70,0,1
108375,-100,4,2,1,70,0,0
108656,-100,4,2,1,60,0,0
113625,-100,4,2,1,70,0,0
114375,-100,4,2,1,60,0,0
120375,-100,4,2,1,70,0,0
120750,-100,4,2,1,40,0,0
123000,-100,4,2,1,60,0,0
123375,-100,4,2,1,70,0,0
123750,-100,4,2,1,40,0,0
125812,-100,4,2,1,50,0,0
126375,-100,4,2,1,60,0,0
132750,-100,4,2,1,40,0,0
133125,-100,4,2,1,30,0,0
133500,-100,4,2,1,50,0,0
133875,-100,4,2,1,70,0,1
145875,-100,4,2,1,70,0,0
151875,-100,4,2,1,70,0,1
157875,-100,4,2,1,70,0,0
164250,-100,4,2,1,20,0,0

[Colours]
Combo1 : 142,146,213
Combo2 : 214,105,105
Combo3 : 186,174,133
Combo4 : 103,152,120
SliderBorder : 220,160,160
SliderTrackOverride : 175,69,69

[HitObjects]
92,258,375,6,0,P|139:269|222:252,1,120,2|2,0:0|0:0,0:0:0:0:
271,154,1125,2,0,P|232:143|141:160,1,120,2|2,0:0|0:0,0:0:0:0:
209,257,1875,1,2,0:0:0:0:
328,244,2250,2,0,P|352:224|370:178,1,60,2|0,0:0|0:0,0:0:0:0:
404,153,2625,2,0,B|425:172|434:209|434:209|444:245|481:266,1,120,2|0,0:0|0:0,0:0:0:0:
367,325,3375,6,0,L|247:350,1,120,2|2,0:0|0:0,0:0:0:0:
193,243,4125,2,0,B|147:284|147:284|83:292,1,120,2|2,0:0|0:0,0:0:0:0:
109,172,4875,2,0,B|155:131|155:131|219:123,1,120,2|2,0:0|0:0,0:0:0:0:
315,189,5625,1,2,0:0:0:0:
238,281,6000,1,4,1:3:0:0:
315,189,6375,6,0,P|333:117|318:61,1,120,4|8,0:0|3:0,0:0:0:0:
214,124,7125,2,0,P|196:196|211:252,1,120,2|8,0:0|3:0,0:0:0:0:
315,189,7875,1,4,3:0:0:0:
323,73,8250,2,0,L|264:31,1,60,8|0,3:0|0:0,0:0:0:0:
214,35,8625,2,0,B|145:34|145:34|98:62,1,120,2|8,0:0|3:0,0:0:0:0:
67,175,9375,6,0,L|203:231,1,120,4|8,0:0|3:0,0:0:0:0:
194,341,10125,2,0,L|58:285,1,120,2|8,0:0|3:0,0:0:0:0:
177,220,10875,2,0,P|157:175|179:89,1,120,8|4,3:0|3:0,0:0:0:0:
262,32,11625,1,8,3:0:0:0:
435,197,12375,6,0,B|466:148|466:148|465:72,1,120,4|8,0:0|3:0,0:0:0:0:
348,115,13125,2,0,B|317:164|317:164|318:240,1,120,2|8,0:0|3:0,0:0:0:0:
197,225,13875,2,0,B|197:162|197:162|166:113,1,120,2|8,0:0|3:0,0:0:0:0:
47,98,14625,1,2,0:0:0:0:
7,211,15000,1,8,3:0:0:0:
66,315,15375,5,2,0:0:0:0:
182,344,15750,2,0,P|244:329|295:278,1,120,8|0,3:0|0:0,0:0:0:0:
292,173,16500,2,0,P|229:186|179:239,1,120,8|0,3:0|0:0,0:0:0:0:
285,292,17250,2,0,B|328:332|328:332|376:295,1,120,8|0,3:0|0:0,0:0:0:0:
349,180,18000,2,0,P|315:169|285:175,1,60,8|8,3:0|3:0,0:0:0:0:
231,167,18375,6,0,L|116:118,1,120,4|8,0:0|3:0,0:0:0:0:
26,193,19125,2,0,L|141:242,1,120,2|8,0:0|3:0,0:0:0:0:
79,345,19875,2,0,P|135:361|192:344,1,120,2|8,0:0|3:0,0:0:0:0:
301,293,20625,1,2,0:0:0:0:
367,193,21000,1,8,3:0:0:0:
307,88,21375,5,2,0:0:0:0:
367,193,21751,2,0,L|456:113,1,120,8|0,3:0|0:0,0:0:0:0:
398,10,22501,2,0,L|306:87,1,120,8|0,3:0|0:0,0:0:0:0:
186,97,23250,2,0,P|205:152|263:198,1,120,8|8,3:0|3:0,0:0:0:0:
354,253,24000,1,8,3:0:0:0:
244,302,24375,6,0,L|120:286,1,120,4|4,0:0|0:3,0:0:0:0:
65,286,24937,2,0,P|96:229|91:158,1,120,8|4,3:0|0:3,0:0:0:0:
77,117,25500,1,4,0:3:0:0:
181,57,25875,2,0,L|315:40,1,120,4|4,0:3|0:3,0:0:0:0:
315,99,26437,2,0,P|361:110|427:165,1,120,8|4,3:0|0:3,0:0:0:0:
439,209,27000,1,8,0:3:0:0:
375,310,27375,6,0,P|321:291|280:231,1,120,4|4,0:0|0:3,0:0:0:0:
224,244,27937,2,0,P|188:291|132:311,1,120,8|4,3:0|0:3,0:0:0:0:
72,306,28500,1,8,3:0:0:0:
47,188,28875,2,0,B|70:171|104:173|104:173|109:142|145:107,1,120,4|8,0:0|3:0,0:0:0:0:
201,23,29625,1,8,3:0:0:0:
258,128,30000,1,2,0:0:0:0:
315,21,30375,6,0,P|358:65|375:130,1,120,4|8,0:0|3:0,0:0:0:0:
377,179,30937,2,0,B|328:219|328:219|251:221,1,120,0|0,0:3|0:3,0:0:0:0:
211,216,31500,1,8,3:0:0:0:
129,127,31875,2,0,P|155:78|226:36,1,120,0|8,0:0|3:0,0:0:0:0:
267,39,32437,2,0,B|311:71|311:71|344:57|390:68,1,120,4|4,0:3|0:3,0:0:0:0:
432,85,33000,1,8,3:0:0:0:
416,203,33375,6,0,P|433:277|403:331,1,120,4|8,0:0|3:0,0:0:0:0:
296,314,34125,2,0,P|278:257|296:201,1,120,2|8,0:0|3:0,0:0:0:0:
276,145,34687,1,0,0:0:0:0:
215,147,34875,2,0,B|161:171|161:171|100:146,1,120,4|8,0:3|3:0,0:0:0:0:
174,50,35625,2,0,L|253:31,1,60,4|8,0:3|0:3,0:0:0:0:
287,60,36000,2,0,L|355:67,1,60,8|0,0:3|0:0,0:0:0:0:
387,110,36375,6,0,P|408:168|389:244,1,120,4|8,0:0|3:0,0:0:0:0:
387,283,36937,2,0,P|323:287|272:331,1,120,0|0,0:0|0:0,0:0:0:0:
233,358,37500,1,8,3:0:0:0:
116,329,37875,2,0,L|68:220,1,120,0|8,0:0|3:0,0:0:0:0:
32,170,38437,2,0,B|93:149|93:149|121:76,1,120,4|4,0:3|0:3,0:0:0:0:
133,40,39000,1,8,3:0:0:0:
221,108,39375,6,0,L|176:231,2,120,4|8|2,0:0|3:0|0:0,0:0:0:0:
330,59,40500,2,0,P|358:108|366:182,1,120,8|0,3:0|0:0,0:0:0:0:
340,223,41062,2,0,L|388:272,2,60,4|8|4,0:3|3:0|0:3,0:0:0:0:
282,241,41625,2,0,B|230:221|230:221|148:227,1,120,8|8,0:3|3:0,0:0:0:0:
75,304,42375,6,0,P|127:342|205:336,1,120,4|8,0:0|3:0,0:0:0:0:
275,270,43125,2,0,B|332:280|332:280|391:343,1,120,2|8,0:0|3:0,0:0:0:0:
483,276,43875,1,4,3:0:0:0:
440,163,44250,2,0,L|368:125,1,60,8|0,3:0|0:0,0:0:0:0:
338,169,44625,2,0,P|287:149|229:107,1,120,2|8,0:0|3:0,0:0:0:0:
114,106,45375,6,0,B|162:244,1,120,4|8,0:0|3:0,0:0:0:0:
144,339,46125,2,0,P|88:320|45:263,1,120,2|8,0:0|3:0,0:0:0:0:
153,219,46875,1,8,0:3:0:0:
257,277,47250,1,4,0:3:0:0:
360,216,47625,2,0,L|486:149,1,120,8|0,3:3|0:0,0:0:0:0:
374,81,48375,6,0,B|323:106|323:106|296:81|251:88,1,120,4|8,0:0|3:0,0:0:0:0:
144,88,49125,2,0,P|169:163|209:195,1,120,2|8,0:0|3:0,0:0:0:0:
318,188,49875,2,0,L|376:75,1,120,2|8,0:0|3:0,0:0:0:0:
474,145,50625,1,2,0:0:0:0:
455,263,51000,1,8,3:0:0:0:
359,335,51375,6,0,B|305:360|305:360|248:334,1,120,4|8,0:3|3:0,0:0:0:0:
302,227,52125,1,0,0:0:0:0:
183,246,52500,2,0,B|129:221|129:221|72:247,1,120,8|0,0:3|0:3,0:0:0:0:
41,130,53250,1,8,3:0:0:0:
146,73,53625,2,0,L|218:44,1,60,0|4,0:3|0:3,0:0:0:0:
247,90,54000,2,0,L|321:102,1,60,8|8,3:3|3:3,0:0:0:0:
320,158,54375,6,0,L|393:279,1,120,4|8,0:0|3:0,0:0:0:0:
292,340,55125,2,0,P|256:294|245:218,1,120,2|8,0:0|3:0,0:0:0:0:
124,219,55875,2,0,L|50:329,1,120,2|8,0:0|3:0,0:0:0:0:
176,331,56625,1,2,0:0:0:0:
243,234,57000,1,8,3:0:0:0:
176,134,57375,6,0,P|131:120|54:148,1,120,4|8,0:3|3:0,0:0:0:0:
126,235,58125,1,0,0:0:0:0:
245,236,58500,2,0,L|360:307,1,120,8|0,3:0|0:0,0:0:0:0:
433,214,59250,1,8,3:0:0:0:
397,99,59625,2,0,P|360:70|334:64,1,60,0|4,0:0|3:3,0:0:0:0:
294,93,60000,2,0,P|257:80|226:81,1,60,8|8,3:0|3:0,0:0:0:0:
185,109,60375,6,0,P|131:130|93:193,1,120,4|8,0:0|3:0,0:0:0:0:
35,282,61125,2,0,B|92:298|92:298|156:280,1,120,2|8,0:0|3:0,0:0:0:0:
253,219,61875,1,2,0:0:0:0:
333,130,62250,2,0,P|364:128|414:146,1,60,8|0,3:0|0:0,0:0:0:0:
411,191,62625,2,0,L|339:311,1,120,2|8,0:0|3:0,0:0:0:0:
253,219,63375,6,0,L|232:84,1,120,4|8,3:0|3:0,0:0:0:0:
127,45,64125,2,0,P|102:102|51:143,1,120,2|8,0:0|3:0,0:0:0:0:
161,201,64875,1,2,0:0:0:0:
59,265,65250,2,0,P|86:288|109:329,1,60,8|0,3:0|0:0,0:0:0:0:
132,358,65625,2,0,L|245:284,1,120,4|8,0:3|3:0,0:0:0:0:
292,284,66187,1,8,3:0:0:0:
350,271,66375,6,0,P|339:205|297:158,1,120,4|8,0:0|3:0,0:0:0:0:
186,154,67125,2,0,P|197:220|239:267,1,120,2|8,0:0|3:0,0:0:0:0:
306,164,67875,1,2,0:0:0:0:
273,48,68250,2,0,L|347:33,1,60,8|0,3:0|0:0,0:0:0:0:
391,46,68625,2,0,B|389:92|389:92|427:106|467:150,1,120,2|8,0:0|3:0,0:0:0:0:
410,246,69375,6,0,P|371:200|316:178,1,120,4|8,3:0|3:0,0:0:0:0:
197,179,70125,2,0,P|140:202|103:247,1,120,4|8,3:0|3:0,0:0:0:0:
212,298,70875,2,0,L|357:318,1,120,0|8,0:0|3:0,0:0:0:0:
445,278,71625,2,0,L|497:216,1,60,8|0,0:3|0:0,0:0:0:0:
453,180,72000,2,0,L|478:117,1,60,8|0,3:0|0:0,0:0:0:0:
450,69,72375,6,0,P|390:86|326:65,1,120,0|4,0:0|0:3,0:0:0:0:
279,51,72937,2,0,L|188:158,1,120,8|4,3:0|0:3,0:0:0:0:
160,186,73500,1,4,0:3:0:0:
104,292,73875,6,0,P|159:306|237:278,1,120,4|4,0:3|0:3,0:0:0:0:
266,253,74437,2,0,B|310:294|310:294|361:251,1,120,8|4,3:0|0:3,0:0:0:0:
398,213,75000,1,10,0:3:0:0:
349,103,75375,6,0,L|219:51,1,120,4|4,0:0|3:0,0:0:0:0:
178,51,75937,2,0,P|111:106|91:158,1,120,8|4,3:0|0:3,0:0:0:0:
88,193,76500,1,4,0:3:0:0:
154,292,76875,2,0,P|212:301|271:288,1,120,4|4,0:3|0:3,0:0:0:0:
318,251,77437,2,0,B|337:195|337:195|307:121,1,120,8|4,3:0|0:3,0:0:0:0:
280,88,78000,1,8,0:3:0:0:
395,53,78375,6,0,P|449:99|471:147,1,120,4|8,0:0|3:0,0:0:0:0:
493,198,78937,2,0,P|429:199|376:236,1,120,4|4,3:0|3:0,0:0:0:0:
332,260,79500,1,8,3:0:0:0:
229,321,79875,2,0,P|213:279|241:185,1,120,4|8,0:3|3:0,0:0:0:0:
216,147,80437,2,0,P|167:133|98:159,1,120,4|4,0:3|0:3,0:0:0:0:
59,196,81000,1,8,3:0:0:0:
75,314,81375,6,0,B|116:312|145:277|145:277|182:284,1,120,4|4,0:3|0:3,0:0:0:0:
301,301,82125,2,0,L|447:328,1,120,8|8,3:0|3:0,0:0:0:0:
476,306,82687,1,8,0:3:0:0:
490,247,82875,2,0,P|451:209|431:126,1,120,10|0,3:0|0:0,0:0:0:0:
429,28,83625,1,2,0:0:0:0:
324,87,84000,1,2,0:0:0:0:
380,193,84375,6,0,L|473:106,1,120,4|8,0:0|3:0,0:0:0:0:
500,161,84937,2,0,P|481:225|483:302,1,120,0|0,3:0|0:0,0:0:0:0:
481,338,85500,1,8,3:0:0:0:
362,321,85875,2,0,L|236:276,1,120,0|8,0:0|3:0,0:0:0:0:
190,267,86437,2,0,P|126:282|76:265,1,120,4|4,0:3|0:3,0:0:0:0:
41,215,87000,1,8,3:0:0:0:
57,96,87375,6,0,P|96:109|151:174,1,120,4|8,0:0|3:0,0:0:0:0:
263,163,88125,2,0,P|299:116|353:92,1,120,2|8,0:0|3:0,0:0:0:0:
414,95,88687,1,0,0:0:0:0:
463,128,88875,2,0,L|522:260,1,120,4|8,0:3|3:0,0:0:0:0:
417,312,89625,2,0,L|367:259,1,60,4|8,0:3|3:0,0:0:0:0:
319,289,90000,2,0,L|269:234,1,60,8|0,3:0|0:0,0:0:0:0:
218,252,90375,6,0,P|188:199|205:132,1,120,4|8,0:0|3:0,0:0:0:0:
186,84,90937,2,0,P|137:126|81:138,1,120
24,136,91500,1,8,3:0:0:0:
32,255,91875,2,0,L|126:338,1,120,0|8,0:0|3:0,0:0:0:0:
173,365,92437,2,0,P|207:316|276:286,1,120,4|4,0:3|0:3,0:0:0:0:
319,284,93000,1,8,3:0:0:0:
414,211,93375,6,0,P|438:265|432:324,2,120,4|8|2,0:0|3:0|0:0,0:0:0:0:
383,95,94500,2,0,P|337:132|278:140,1,120,8|0,3:0|0:0,0:0:0:0:
221,159,95062,2,0,L|256:224,2,60,4|8|4,0:3|3:0|0:3,0:0:0:0:
161,151,95625,2,0,B|109:126|109:126|42:157,1,120,0|8,0:0|3:0,0:0:0:0:
63,272,96375,6,0,L|120:290,1,60,4|0,0:0|0:0,0:0:0:0:
175,265,96750,2,0,L|236:281,1,60,8|0,3:0|0:0,0:0:0:0:
282,244,97125,2,0,B|337:260|337:260|405:243,1,120,4|8,0:3|3:0,0:0:0:0:
477,155,97875,1,0,0:3:0:0:
387,75,98250,2,0,P|428:45|508:39,2,120,8|4|8,0:3|0:3|3:0,0:0:0:0:
343,116,99187,1,0,0:0:0:0:
323,172,99375,6,0,P|291:242|240:268,1,120,4|8,3:0|3:0,0:0:0:0:
157,194,100125,2,0,P|189:124|240:98,1,120,4|8,3:0|3:0,0:0:0:0:
279,124,100687,2,0,L|380:225,1,120,0|0,0:0|0:0,0:0:0:0:
405,251,101250,1,8,3:0:0:0:
294,297,101625,2,0,P|279:326|232:353,1,60,8|8,0:3|0:3,0:0:0:0:
202,322,102000,2,0,P|148:325|127:314,1,60,8|8,0:3|0:3,0:0:0:0:
123,266,102375,6,0,P|66:232|46:168,1,120,4|8,0:0|3:0,0:0:0:0:
40,124,102937,2,0,L|170:70,1,120,0|0,0:0|0:0,0:0:0:0:
207,57,103500,1,8,0:3:0:0:
309,119,103875,2,0,P|328:185|306:258,1,120,0|8,3:0|3:0,0:0:0:0:
351,284,104437,2,0,L|460:224,1,120,4|4,0:3|0:3,0:0:0:0:
474,168,105000,1,8,3:0:0:0:
375,99,105375,6,0,P|409:68|496:47,2,120,4|8|2,0:0|3:0|0:0,0:0:0:0:
361,218,106500,2,0,P|307:199|263:138,1,120,8|8,3:0|3:0,0:0:0:0:
161,95,107250,1,0,0:0:0:0:
54,151,107625,1,8,3:0:0:0:
59,270,108000,2,0,P|83:294|128:308,1,60,4|0,0:3|0:0,0:0:0:0:
166,306,108375,6,0,P|246:275|292:284,1,120,4|2,0:0|0:3,0:0:0:0:
394,309,109125,2,0,P|390:246|431:173,1,120,4|2,0:3|0:3,0:0:0:0:
478,94,109875,2,0,L|346:54,1,120,4|2,0:3|0:3,0:0:0:0:
306,39,110437,2,0,P|271:79|184:87,1,120,4|4,0:3|0:3,0:0:0:0:
148,84,111000,1,2,0:3:0:0:
97,116,111187,2,0,L|48:175,1,60,0|4,0:0|0:3,0:0:0:0:
64,282,111750,5,2,0:3:0:0:
181,307,112125,2,0,L|266:208,1,120,4|2,0:3|0:3,0:0:0:0:
306,179,112687,1,0,0:0:0:0:
366,182,112875,2,0,P|379:239|358:318,1,120,4|2,0:3|0:3,0:0:0:0:
355,354,113437,2,0,L|230:321,1,120,4|2,0:3|0:3,0:0:0:0:
181,307,114000,1,8,0:3:0:0:
131,197,114375,6,0,P|88:230|63:305,2,120,4|0|0,0:0|0:3|0:3,0:0:0:0:
203,100,115500,2,0,L|289:84,1,60,2|0,0:3|0:0,0:0:0:0:
288,142,115875,2,0,L|415:168,1,120,4|2,0:3|0:3,0:0:0:0:
461,188,116437,2,0,B|480:241|480:241|459:306,1,120,4|0,0:3|0:0,0:0:0:0:
284,339,117375,6,0,L|188:237,1,120,4|2,0:3|0:3,0:0:0:0:
160,208,117937,2,0,P|224:224|274:208,1,120,4|4,0:3|0:3,0:0:0:0:
214,103,118687,2,0,L|95:82,1,120,0|0,0:0|0:0,0:0:0:0:
36,93,119250,1,4,0:3:0:0:
26,152,119437,2,0,P|47:203|37:283,1,120,4|2,0:3|0:3,0:0:0:0:
77,316,120000,1,8,0:3:0:0:
179,253,120375,6,0,L|296:330,1,120,4|8,3:0|0:0,0:0:0:0:
394,283,121125,1,8,0:0:0:0:
436,170,121500,1,8,0:0:0:0:
343,93,121875,2,0,B|291:109|291:109|255:93|201:103,1,120,8|8,0:0|0:0,0:0:0:0:
169,117,122437,2,0,P|125:29|103:20,2,120,0|0|4,0:0|0:0|0:3,0:0:0:0:
136,167,123375,5,4,3:0:0:0:
121,286,123750,2,0,B|143:340|143:340|213:364,1,120,8|8,0:0|0:0,0:0:0:0:
255,252,124500,1,8,0:0:0:0:
310,360,124875,2,0,B|369:340|369:340|391:286,1,120,8|8,0:0|0:0,0:0:0:0:
420,233,125437,2,0,L|514:323,2,120,0|0|4,0:0|0:0|3:0,0:0:0:0:
410,173,126375,5,4,0:0:0:0:
370,59,126750,2,0,P|341:52|302:67,1,60,0|4,0:0|0:0,0:0:0:0:
253,45,127125,2,0,P|206:82|148:93,1,120,0|4,0:0|0:0,0:0:0:0:
32,58,127875,2,0,P|28:120|51:172,1,120,8|4,3:0|3:0,0:0:0:0:
80,224,128437,2,0,B|111:230|130:215|130:215|145:266|196:278|238:258,1,180,8|8,3:0|3:0,0:0:0:0:
297,159,129375,6,0,L|417:104,1,120,4|0,0:0|0:0,0:0:0:0:
465,115,129937,2,0,L|440:192,1,60,2|2,0:0|0:0,0:0:0:0:
490,213,130312,2,0,L|468:279,1,60,2|4,0:0|0:3,0:0:0:0:
488,327,130687,2,0,L|351:283,1,120,4|8,0:3|3:0,0:0:0:0:
313,290,131250,2,0,L|230:307,1,60,8|8,3:0|3:0,0:0:0:0:
194,312,131625,5,12,3:0:0:0:
110,195,132000,1,12,3:0:0:0:
387,52,133125,1,2,0:0:0:0:
452,152,133500,1,2,0:0:0:0:
488,266,133875,6,0,P|433:272|365:235,1,120,4|8,0:0|3:0,0:0:0:0:
332,203,134437,2,0,L|314:348,1,120,0|0,0:0|0:0,0:0:0:0:
265,353,135000,1,8,3:0:0:0:
188,260,135375,2,0,B|131:242|131:242|59:271,1,120,0|8,0:0|3:0,0:0:0:0:
19,242,135937,2,0,L|56:117,1,120,4|4,0:3|0:3,0:0:0:0:
105,97,136500,1,8,3:0:0:0:
198,172,136875,6,0,B|178:227|178:227|201:300,1,120,4|8,0:0|3:0,0:0:0:0:
316,284,137625,2,0,B|334:225|334:225|314:170,1,120,4|8,0:3|3:0,0:0:0:0:
323,111,138187,1,4,0:3:0:0:
378,88,138375,2,0,L|494:165,1,120,0|8,0:0|3:0,0:0:0:0:
453,272,139125,2,0,P|408:292|384:285,1,60,0|8,0:0|3:3,0:0:0:0:
340,277,139500,2,0,P|314:245|315:210,1,60,8|0,3:0|0:0,0:0:0:0:
329,169,139875,6,0,L|202:236,1,120,4|8,0:0|3:0,0:0:0:0:
165,240,140437,2,0,P|126:178|134:118,1,120,0|0,0:0|0:0,0:0:0:0:
155,79,141000,1,8,3:0:0:0:
270,44,141375,2,0,B|309:67|309:67|355:65|355:65|391:89,1,120,0|8,0:0|3:0,0:0:0:0:
438,87,141937,2,0,P|415:153|441:219,1,120,4|4,0:3|0:3,0:0:0:0:
454,253,142500,1,8,3:0:0:0:
345,304,142875,6,0,B|309:304|290:283|290:283|268:307|236:302,2,120,6|8|2,0:0|3:0|0:0,0:0:0:0:
389,192,144000,2,0,B|325:163|325:163|296:107,1,120,8|0,3:0|0:0,0:0:0:0:
255,80,144562,2,0,L|255:14,2,60,4|8|4,0:3|3:0|0:3,0:0:0:0:
209,118,145125,2,0,B|187:163|187:163|123:192,1,120,0|8,0:0|3:0,0:0:0:0:
88,307,145875,6,0,L|154:346,1,60,4|0,0:0|0:0,0:0:0:0:
188,302,146250,2,0,P|210:307|268:285,1,60,8|0,3:0|0:0,0:0:0:0:
296,267,146625,2,0,P|335:312|420:323,2,120,4|8|4,0:3|3:0|0:3,0:0:0:0:
231,163,147750,2,0,P|183:186|111:162,2,120,8|4|8,3:0|0:3|3:0,0:0:0:0:
257,109,148687,1,0,0:0:0:0:
291,60,148875,6,0,L|424:30,1,120,4|8,0:0|3:0,0:0:0:0:
454,144,149625,2,0,P|413:187|418:262,1,120,4|8,0:3|3:0,0:0:0:0:
428,302,150187,2,0,B|369:278|369:278|349:300|311:294,1,120
260,276,150750,1,8,3:0:0:0:
151,327,151125,2,0,L|73:342,1,60,8|8,3:0|0:3,0:0:0:0:
80,279,151500,2,0,L|15:243,1,60,8|8,0:3|3:0,0:0:0:0:
40,191,151875,6,0,P|98:172|140:114,1,120,4|8,0:0|3:0,0:0:0:0:
180,89,152437,2,0,B|208:118|241:124|241:124|248:200,1,120
251,232,153000,1,8,3:0:0:0:
348,302,153375,2,0,L|405:179,1,120,0|8,0:0|3:0,0:0:0:0:
411,133,153937,2,0,B|356:106|356:106|287:127,1,120,4|4,0:3|0:3,0:0:0:0:
244,146,154500,1,8,3:0:0:0:
156,226,154875,6,0,P|219:264|281:258,1,120,4|8,0:0|3:0,0:0:0:0:
243,145,155625,2,0,P|180:106|118:113,1,120,2|8,0:0|3:0,0:0:0:0:
77,123,156187,1,0,0:0:0:0:
38,169,156375,2,0,L|56:253,1,60,8|0,0:3|0:0,0:0:0:0:
108,242,156750,2,0,B|125:302|125:302|186:340,1,120,0|8,0:0|3:0,0:0:0:0:
293,325,157500,1,4,0:3:0:0:
372,235,157875,6,0,L|326:112,1,120,4|8,0:0|3:0,0:0:0:0:
330,62,158437,1,0,0:0:0:0:
385,38,158625,2,0,P|427:62|508:73,2,120,2|8|2,0:0|3:0|0:0,0:0:0:0:
265,52,159750,2,0,P|234:58|205:79,1,60,8|0,3:0|0:0,0:0:0:0:
159,44,160125,2,0,P|112:93|94:158,1,120,2|8,0:0|3:0,0:0:0:0:
92,201,160687,1,0,0:0:0:0:
127,249,160875,6,0,L|263:288,1,120,4|8,0:0|3:0,0:0:0:0:
361,295,161625,2,0,L|407:238,1,60,2|4,0:0|0:3,0:0:0:0:
370,195,162000,2,0,L|415:149,1,60,8|4,0:3|0:3,0:0:0:0:
369,109,162375,2,0,B|422:83|422:83|482:117,2,120,4|4|4,0:0|0:3|0:0,0:0:0:0:
265,171,163500,1,4,0:3:0:0:
161,110,163875,5,4,0:0:0:0:
