osu file format v14

[General]
AudioFilename: audio.mp3
AudioLeadIn: 0
PreviewTime: 29625
Countdown: 0
SampleSet: Soft
StackLeniency: 0.3
Mode: 0
LetterboxInBreaks: 0
WidescreenStoryboard: 1

[Editor]
Bookmarks: 72375
DistanceSpacing: 1.3
BeatDivisor: 4
GridSize: 4
TimelineZoom: 2.3

[Metadata]
Title:Kill The Lights
TitleUnicode:Kill The Lights
Artist:Set It Off
ArtistUnicode:Set It Off
Creator:Cosmolade
Version:Insane
Source:
Tags:Cinematics (Expanded Edition) Equal Vision Records Reissue EVR 245 Atsuro
BeatmapID:1183879
BeatmapSetID:559814

[Difficulty]
HPDrainRate:6
CircleSize:3.6
OverallDifficulty:7
ApproachRate:9
SliderMultiplier:1.4
SliderTickRate:2

[Events]
//Background and Video events
0,0,"BG.jpg",0,0
//Break Periods
//Storyboard Layer 0 (Background)
//Storyboard Layer 1 (Fail)
//Storyboard Layer 2 (Pass)
//Storyboard Layer 3 (Foreground)
//Storyboard Sound Samples

[TimingPoints]
375,375,4,2,1,40,1,0
4687,-100,4,2,1,50,0,0
5625,-133.333333333333,4,2,1,50,0,0
6000,-66.6666666666667,4,2,1,50,0,0
6375,-74.0740740740741,4,2,1,55,0,1
6750,-74.0740740740741,4,2,1,55,0,0
12000,-66.6666666666667,4,2,1,55,0,0
12375,-100,4,2,1,45,0,0
30375,-74.0740740740741,4,2,1,70,0,1
42375,-74.0740740740741,4,2,1,70,0,0
48000,-133.333333333333,4,2,1,70,0,0
48375,-100,4,2,1,50,0,0
60375,-100,4,2,1,60,0,0
72375,-100,4,2,1,40,0,0
78375,-100,4,2,1,50,0,0
82875,-100,4,2,1,60,0,0
83625,-100,4,2,1,40,0,0
84375,-74.0740740740741,4,2,1,70,0,1
96375,-74.0740740740741,4,2,1,70,0,0
102375,-74.0740740740741,4,2,1,70,0,1
108375,-100,4,2,1,70,0,0
108656,-100,4,2,1,60,0,0
113625,-100,4,2,1,70,0,0
114375,-100,4,2,1,60,0,0
120375,-100,4,2,1,70,0,0
120750,-100,4,2,1,40,0,0
123000,-100,4,2,1,60,0,0
123375,-100,4,2,1,70,0,0
123750,-100,4,2,1,40,0,0
125812,-100,4,2,1,50,0,0
126375,-100,4,2,1,60,0,0
132750,-133.333333333333,4,2,1,40,0,0
133125,-100,4,2,1,30,0,0
133500,-100,4,2,1,50,0,0
133875,-74.0740740740741,4,2,1,70,0,1
145875,-74.0740740740741,4,2,1,70,0,0
151875,-74.0740740740741,4,2,1,70,0,1
157875,-83.3333333333333,4,2,1,70,0,0
164250,-83.3333333333333,4,2,1,20,0,0

[Colours]
Combo1 : 142,146,213
Combo2 : 214,105,105
Combo3 : 186,174,133
Combo4 : 103,152,120
SliderBorder : 220,160,160
SliderTrackOverride : 175,69,69

[HitObjects]
126,164,375,6,0,P|150:156|190:116,1,70,2|0,0:0|0:0,0:0:0:0:
256,32,750,1,2,0:0:0:0:
328,128,937,1,0,0:0:0:0:
328,128,1031,1,0,0:0:0:0:
328,128,1125,2,0,P|336:172|328:200,1,70,2|0,0:0|0:0,0:0:0:0:
182,195,1500,2,0,P|175:161|184:128,1,70,2|0,0:0|0:0,0:0:0:0:
420,248,1875,6,0,L|356:328,1,70,2|0,0:0|0:0,0:0:0:0:
272,360,2250,1,2,0:0:0:0:
200,264,2437,1,0,0:0:0:0:
108,344,2625,2,0,L|136:380,1,35,2|0,0:0|0:0,0:0:0:0:
108,344,2812,2,0,B|84:312|84:312|52:304|52:304|4:228,1,140,2|0,0:0|0:0,0:0:0:0:
92,92,3375,6,0,P|124:88|168:52,1,70,2|0,0:0|0:0,0:0:0:0:
256,128,3750,1,2,0:0:0:0:
360,68,3937,1,0,0:0:0:0:
380,76,4031,1,0,0:0:0:0:
400,84,4125,2,0,P|424:104|448:156,1,70,2|0,0:0|0:0,0:0:0:0:
356,220,4500,1,2,0:0:0:0:
155,68,4687,1,0,0:0:0:0:
112,180,4875,6,0,B|80:192|80:192|36:180,1,70,2|0,0:0|0:0,0:0:0:0:
155,68,5250,2,0,B|187:56|187:56|231:68,1,70,2|0,0:0|0:0,0:0:0:0:
100,280,5625,6,0,B|88:256|88:256|72:240|72:240|56:208,1,78.7500030040742,2|0,0:0|0:0,0:0:0:0:
45,182,6000,6,0,P|83:175|53:201,1,105.000004005432,4|0,1:3|0:0,0:0:0:0:
140,360,6375,6,0,P|176:328|188:268,1,94.5000003604889,4|0,0:0|0:0,0:0:0:0:
256,180,6750,2,0,L|380:200,1,94.5000003604889,8|0,3:0|0:0,0:0:0:0:
363,225,7031,1,0,0:0:0:0:
363,225,7125,1,2,0:0:0:0:
276,296,7312,1,4,0:3:0:0:
256,180,7500,2,0,B|300:170|300:170|356:184,1,94.5000003604889,8|0,3:0|0:0,0:0:0:0:
136,124,7875,6,0,P|96:128|36:80,1,94.5000003604889,4|0,3:0|0:0,0:0:0:0:
209,50,8250,2,0,P|249:46|309:94,1,94.5000003604889,8|0,3:0|0:0,0:0:0:0:
217,163,8625,1,2,0:0:0:0:
372,120,8812,1,4,0:3:0:0:
295,71,9000,1,8,3:0:0:0:
369,226,9187,1,0,0:0:0:0:
217,163,9375,6,0,P|181:132|135:124,1,94.5000003604889,4|0,0:0|0:0,0:0:0:0:
256,256,9750,2,0,P|296:224|312:164,1,94.5000003604889,8|0,3:0|0:0,0:0:0:0:
316,152,10031,1,0,0:0:0:0:
316,152,10125,1,2,0:0:0:0:
257,290,10312,1,4,0:3:0:0:
166,116,10500,2,0,P|131:162|120:226,1,94.5000003604889,8|0,3:0|0:0,0:0:0:0:
120,232,10781,1,0,0:0:0:0:
120,264,10875,5,8,3:0:0:0:
252,348,11062,1,8,3:0:0:0:
392,264,11250,1,4,3:0:0:0:
392,104,11437,1,4,3:0:0:0:
252,32,11625,1,8,3:0:0:0:
253,31,12000,6,0,P|259:86|269:32,1,157.500006008148,0|0,0:0|0:0,0:0:0:0:
253,31,12375,6,0,P|229:44|173:47,1,70,4|0,0:0|0:0,0:0:0:0:
68,32,12750,1,8,3:0:0:0:
132,132,12937,1,0,0:0:0:0:
80,240,13125,2,0,L|148:312,1,70,2|4,0:0|0:3,0:0:0:0:
132,132,13500,1,8,3:0:0:0:
64,256,13687,1,0,0:0:0:0:
144,112,13875,6,0,P|168:132|220:144,1,70,2|0,0:0|0:0,0:0:0:0:
368,112,14250,2,0,P|344:132|292:144,1,70,8|0,3:0|0:0,0:0:0:0:
216,272,14625,2,0,B|249:250|255:217|255:217|261:250|305:278,1,140,2|8,0:0|3:0,0:0:0:0:
256,372,15187,1,0,0:0:0:0:
204,143,15375,6,0,L|232:56,1,70,2|4,0:0|0:3,0:0:0:0:
324,72,15750,1,8,3:0:0:0:
136,209,15937,2,0,P|116:173|120:125,1,70,2|0,0:0|0:0,0:0:0:0:
225,76,16312,1,4,0:3:0:0:
136,208,16500,1,8,3:0:0:0:
236,44,16687,2,0,L|328:60,1,70,2|0,0:0|0:0,0:0:0:0:
336,204,17062,5,4,0:3:0:0:
304,55,17250,1,8,3:0:0:0:
408,164,17437,1,2,0:0:0:0:
244,204,17625,2,0,L|180:228,1,35
176,228,17812,1,4,0:3:0:0:
144,240,17906,1,4,0:3:0:0:
96,232,18000,5,8,3:0:0:0:
80,196,18093,1,8,3:0:0:0:
80,160,18187,1,8,3:0:0:0:
96,128,18281,1,8,3:0:0:0:
132,96,18375,6,0,P|168:88|224:104,1,70,4|0,0:0|0:0,0:0:0:0:
264,196,18750,1,8,3:0:0:0:
176,276,18937,1,0,0:0:0:0:
264,196,19125,2,0,P|296:212|344:228,1,70,2|4,0:0|0:3,0:0:0:0:
312,80,19500,1,8,3:0:0:0:
256,288,19687,1,0,0:0:0:0:
200,80,19875,6,0,P|160:88|128:76,1,70,2|0,0:0|0:0,0:0:0:0:
312,80,20250,2,0,P|352:72|384:84,1,70,8|0,3:0|0:0,0:0:0:0:
364,247,20625,2,0,B|332:231|332:231|312:179,1,70,2|4,0:0|0:3,0:0:0:0:
148,247,21000,2,0,B|180:231|180:231|192:199,1,70,8|0,3:0|0:0,0:0:0:0:
256,68,21375,1,2,0:0:0:0:
192,199,21562,1,4,0:3:0:0:
124,68,21750,6,0,P|100:40|72:24,2,70,8|2|0,3:0|0:0|0:0,0:0:0:0:
84,156,22312,1,4,0:3:0:0:
36,240,22500,2,0,P|69:252|116:246,1,70,8|2,3:0|0:0,0:0:0:0:
188,195,22875,1,0,0:0:0:0:
244,276,23062,6,0,P|248:310|243:345,1,70,4|8,0:3|3:0,0:0:0:0:
396,304,23437,1,4,0:3:0:0:
342,143,23625,2,0,L|399:183,1,70,8|4,3:0|0:3,0:0:0:0:
395,303,24000,2,0,L|338:263,1,70,8|0,3:0|0:0,0:0:0:0:
238,70,24375,6,0,P|238:122|182:198,1,140,4|4,0:0|0:3,0:0:0:0:
120,92,24937,2,0,L|84:76,2,35,8|0|0,3:0|0:0|0:0,0:0:0:0:
190,192,25312,1,4,0:3:0:0:
120,292,25500,2,0,L|68:308,2,35,4|0|0,0:3|0:0|0:0,0:0:0:0:
190,192,25875,6,0,B|254:166|254:166|326:194,1,140,4|4,0:3|0:3,0:0:0:0:
418,258,26437,2,0,L|450:234,2,35,8|0|0,3:0|0:0|0:0,0:0:0:0:
256,332,26812,1,4,0:3:0:0:
100,236,27000,1,8,0:3:0:0:
120,212,27093,1,8,0:3:0:0:
140,188,27187,1,8,0:3:0:0:
160,164,27281,1,8,0:3:0:0:
184,139,27375,6,0,P|248:155|340:127,1,140,4|4,0:0|0:3,0:0:0:0:
286,275,27937,2,0,P|222:259|130:287,1,140,8|4,3:0|0:3,0:0:0:0:
114,299,28406,1,4,0:3:0:0:
70,295,28500,1,8,3:0:0:0:
38,263,28593,1,8,3:0:0:0:
38,219,28687,2,0,L|58:175,1,35,8|8,3:0|0:3,0:0:0:0:
78,151,28875,2,0,B|102:139|118:143|118:143|134:107,1,70,4|4,0:0|0:3,0:0:0:0:
234,207,29250,2,0,B|210:219|194:215|194:215|178:251,1,70,8|0,3:0|0:0,0:0:0:0:
138,89,29625,5,8,3:0:0:0:
256,328,30000,2,0,L|300:256,1,70,2|0,0:0|0:0,0:0:0:0:
384,128,30375,6,0,P|412:152|440:228,1,94.5000003604889,4|0,0:0|0:0,0:0:0:0:
372,308,30750,1,8,3:0:0:0:
296,112,30937,2,0,P|324:60|356:40,1,94.5000003604889,0|0,0:3|0:0,0:0:0:0:
473,67,31312,1,0,0:3:0:0:
412,287,31500,1,8,3:0:0:0:
230,196,31687,6,0,L|154:116,1,94.5000003604889,4|0,0:3|0:0,0:0:0:0:
72,46,32062,1,4,0:3:0:0:
33,162,32250,1,8,3:0:0:0:
116,301,32437,2,0,P|160:288|216:304,1,94.5000003604889,4|0,0:3|0:0,0:0:0:0:
396,301,32812,2,0,P|351:288|295:304,1,94.5000003604889,4|8,0:3|3:0,0:0:0:0:
167,369,33187,1,0,0:0:0:0:
17,232,33375,6,0,P|33:172|1:120,1,94.5000003604889,4|0,0:0|0:0,0:0:0:0:
72,30,33750,1,8,3:0:0:0:
188,69,33937,1,0,0:0:0:0:
222,187,34125,2,0,P|274:171|314:127,1,94.5000003604889,2|4,0:0|0:3,0:0:0:0:
387,234,34500,2,0,P|415:190|419:126,1,94.5000003604889,8|0,3:0|0:0,0:0:0:0:
464,35,34875,2,0,L|336:39,1,94.5000003604889,4|0,0:3|0:0,0:0:0:0:
208,146,35250,2,0,L|303:144,1,94.5000003604889,8|0,3:0|0:0,0:0:0:0:
369,37,35625,5,4,0:3:0:0:
256,252,35812,1,8,0:3:0:0:
140,37,36000,2,0,P|104:67|72:119,1,94.5000003604889,8|0,0:3|0:0,0:0:0:0:
68,328,36375,6,0,P|104:298|136:246,1,94.5000003604889,4|0,0:0|0:0,0:0:0:0:
256,280,36750,1,8,3:0:0:0:
444,328,36937,2,0,P|408:298|376:246,1,94.5000003604889,0|0,0:0|0:0,0:0:0:0:
364,136,37312,1,0,0:0:0:0:
256,80,37500,1,8,3:0:0:0:
152,136,37687,6,0,B|108:124|108:124|56:136,1,94.5000003604889,4|0,0:3|0:0,0:0:0:0:
112,248,38062,2,0,B|156:260|156:260|208:248,1,94.5000003604889,4|8,0:3|3:0,0:0:0:0:
360,136,38437,2,0,B|404:124|404:124|456:136,1,94.5000003604889,4|0,0:3|0:0,0:0:0:0:
400,248,38812,2,0,B|356:260|356:260|304:248,1,94.5000003604889,4|8,0:3|3:0,0:0:0:0:
360,136,39187,1,0,0:0:0:0:
501,291,39375,6,0,P|486:335|452:367,1,94.5000003604889,4|0,0:0|0:0,0:0:0:0:
317,339,39750,2,0,P|302:295|308:249,1,94.5000003604889,8|0,3:0|0:0,0:0:0:0:
385,152,40125,2,0,P|430:151|471:173,1,94.5000003604889,2|4,0:0|0:3,0:0:0:0:
317,339,40500,1,8,3:0:0:0:
224,204,40687,6,0,P|241:160|278:132,1,94.5000003604889,4|0,0:3|0:0,0:0:0:0:
414,208,41062,1,4,0:3:0:0:
276,296,41250,2,0,P|224:312|168:288,1,94.5000003604889,8|4,3:0|0:3,0:0:0:0:
276,112,41625,1,8,0:3:0:0:
364,292,41812,1,4,0:3:0:0:
186,301,42000,2,0,B|144:272|144:272|124:216,1,94.5000003604889,8|4,3:0|0:3,0:0:0:0:
276,112,42375,6,0,P|260:152|212:192,1,94.5000003604889,4|0,0:0|0:0,0:0:0:0:
96,152,42750,2,0,P|116:112|176:72,1,94.5000003604889,8|0,3:0|0:0,0:0:0:0:
188,64,43031,1,0,0:0:0:0:
188,64,43125,1,2,0:0:0:0:
312,220,43312,1,4,0:3:0:0:
284,24,43500,1,8,3:0:0:0:
222,186,43687,1,0,0:0:0:0:
140,24,43875,6,0,P|112:65|64:96,1,94.5000003604889,4|0,3:0|0:0,0:0:0:0:
76,216,44250,1,8,3:0:0:0:
156,308,44437,1,0,0:0:0:0:
224,204,44625,2,0,B|260:172|260:172|308:216,1,94.5000003604889,2|0,0:0|0:0,0:0:0:0:
256,336,45000,1,8,3:0:0:0:
76,216,45187,1,0,0:0:0:0:
263,91,45375,6,0,B|291:95|303:99|303:99|363:147,1,94.5000003604889,4|0,0:0|0:0,0:0:0:0:
167,134,45750,2,0,P|149:90|158:44,1,94.5000003604889,8|0,3:0|0:0,0:0:0:0:
158,44,46031,1,0,0:0:0:0:
158,44,46125,1,2,0:0:0:0:
256,188,46312,1,4,0:3:0:0:
353,44,46500,2,0,P|362:90|345:134,1,94.5000003604889,8|0,3:0|0:0,0:0:0:0:
345,133,46781,1,0,0:0:0:0:
345,133,46875,5,8,0:3:0:0:
236,251,47062,1,4,0:3:0:0:
397,294,47250,1,4,0:3:0:0:
262,160,47437,1,4,0:3:0:0:
243,360,47625,1,8,3:3:0:0:
288,80,48000,6,0,P|252:76|220:88,1,52.5000020027161,0|0,0:0|0:0,0:0:0:0:
288,80,48375,6,0,L|368:40,1,70,4|0,0:0|0:0,0:0:0:0:
376,164,48750,1,8,3:0:0:0:
256,188,48937,1,0,0:0:0:0:
172,96,49125,2,0,P|128:100|88:132,1,70,2|4,0:0|0:3,0:0:0:0:
60,224,49500,1,8,3:0:0:0:
140,312,49687,1,0,0:0:0:0:
186,197,49875,6,0,L|274:185,1,70,2|0,0:0|0:0,0:0:0:0:
140,312,50250,2,0,L|52:324,1,70,8|0,3:0|0:0,0:0:0:0:
233,341,50625,2,0,P|240:307|229:273,1,70,2|4,0:0|0:3,0:0:0:0:
138,128,51000,2,0,P|128:161|134:196,1,70,8|0,3:0|0:0,0:0:0:0:
233,341,51375,5,4,0:3:0:0:
134,196,51562,1,0,0:3:0:0:
251,93,51750,1,8,3:0:0:0:
64,237,51937,2,0,P|52:189|68:149,1,70,2|0,0:0|0:0,0:0:0:0:
254,120,52312,1,4,3:0:0:0:
60,139,52500,1,8,0:3:0:0:
261,148,52687,2,0,P|265:183|254:216,1,70,2|0,0:0|0:3,0:0:0:0:
223,38,53062,5,4,0:3:0:0:
362,160,53250,1,8,3:0:0:0:
174,116,53437,2,0,L|82:96,1,70,2|0,0:0|0:3,0:0:0:0:
63,211,53812,1,4,0:3:0:0:
87,223,53906,1,4,0:3:0:0:
107,247,54000,1,8,3:3:0:0:
115,275,54093,1,8,3:3:0:0:
111,303,54187,2,0,L|147:335,1,35,8|8,3:3|0:3,0:0:0:0:
187,363,54375,6,0,P|215:327|227:280,1,70,4|0,0:0|0:0,0:0:0:0:
228,168,54750,1,8,3:0:0:0:
328,238,54937,1,0,0:0:0:0:
128,104,55125,2,0,P|160:68|196:56,1,70,2|4,0:0|0:3,0:0:0:0:
228,168,55500,2,0,P|196:204|160:216,1,70,8|0,3:0|0:0,0:0:0:0:
200,40,55875,6,0,L|297:49,1,70,2|0,0:0|0:0,0:0:0:0:
356,128,56250,2,0,L|453:137,1,70,8|0,3:0|0:0,0:0:0:0:
256,264,56625,2,0,L|186:257,1,70,2|4,0:0|0:3,0:0:0:0:
112,164,57000,2,0,L|42:157,1,70,8|0,3:0|0:0,0:0:0:0:
230,145,57375,1,4,0:3:0:0:
186,257,57562,1,0,0:0:0:0:
304,244,57750,1,8,3:0:0:0:
228,56,57937,6,0,P|182:70|152:108,1,70,2|0,0:0|0:0,0:0:0:0:
186,257,58312,1,4,0:3:0:0:
258,161,58500,1,8,3:0:0:0:
166,85,58687,2,0,L|76:64,1,70,2|0,0:0|0:0,0:0:0:0:
258,161,59062,1,4,0:3:0:0:
228,32,59250,1,8,3:0:0:0:
240,188,59437,2,0,P|208:213|152:224,1,70,2|0,0:0|0:0,0:0:0:0:
48,192,59812,5,4,3:3:0:0:
251,335,60000,1,8,3:0:0:0:
159,126,60187,1,8,3:0:0:0:
193,371,60375,6,0,P|217:347|273:335,1,70,4|0,0:0|0:0,0:0:0:0:
363,296,60750,2,0,P|331:272|311:228,1,70,8|0,3:0|0:0,0:0:0:0:
468,176,61125,2,0,P|444:200|404:208,1,70,2|4,0:0|0:3,0:0:0:0:
400,98,61500,1,8,3:0:0:0:
472,280,61687,1,0,0:0:0:0:
302,145,61875,2,0,L|312:58,1,70,2|0,0:0|0:0,0:0:0:0:
132,216,62250,5,8,3:0:0:0:
156,100,62437,1,0,0:0:0:0:
221,294,62625,2,0,B|193:314|193:314|133:326,1,70,2|4,0:0|0:3,0:0:0:0:
69,242,63000,2,0,B|97:222|97:222|157:210,1,70,8|0,3:0|0:0,0:0:0:0:
302,145,63375,6,0,P|253:145|190:81,1,140,4|8,3:0|3:0,0:0:0:0:
277,58,63937,1,0,0:0:0:0:
385,185,64125,2,0,L|399:270,1,70,2|4,0:0|0:3,0:0:0:0:
252,344,64500,1,8,3:0:0:0:
285,230,64687,1,0,0:0:0:0:
216,336,64875,2,0,P|176:328|140:344,1,70,2|0,0:0|0:0,0:0:0:0:
40,224,65250,2,0,P|80:232|116:216,1,70,8|0,3:0|0:0,0:0:0:0:
72,108,65625,1,4,0:3:0:0:
149,337,65812,5,8,3:0:0:0:
256,188,66000,1,8,3:0:0:0:
363,337,66187,1,8,3:0:0:0:
220,120,66375,6,0,P|260:112|296:124,1,70,4|0,0:0|0:0,0:0:0:0:
292,256,66750,2,0,P|256:264|217:252,1,70,8|0,3:0|0:0,0:0:0:0:
220,120,67125,2,0,B|255:58|255:58|287:119,1,140,2|8,0:0|3:0,0:0:0:0:
259,234,67687,1,0,0:0:0:0:
146,82,67875,6,0,L|185:16,1,70,2|0,0:0|0:0,0:0:0:0:
330,21,68250,2,0,L|366:82,1,70,8|0,3:0|0:0,0:0:0:0:
425,185,68625,1,2,0:0:0:0:
473,76,68812,1,4,0:3:0:0:
434,216,69000,2,0,P|408:238|387:285,1,70,8|0,3:0|0:0,0:0:0:0:
269,345,69375,6,0,L|342:362,1,70,4|0,3:0|0:0,0:0:0:0:
298,248,69750,1,8,3:0:0:0:
184,283,69937,2,0,P|165:315|166:355,1,70,2|0,0:0|0:0,0:0:0:0:
108,222,70312,2,0,P|73:236|51:269,1,70,4|8,0:3|3:0,0:0:0:0:
181,156,70687,2,0,L|200:89,2,70,4|0|4,0:3|0:0|0:3,0:0:0:0:
256,249,71250,1,8,3:0:0:0:
330,156,71437,1,0,0:0:0:0:
330,156,71531,1,0,0:0:0:0:
330,156,71625,6,0,L|312:89,1,70,8|0,0:3|0:0,0:0:0:0:
418,34,72000,1,8,3:0:0:0:
387,261,72187,1,0,0:0:0:0:
312,89,72375,6,0,P|252:108|176:85,1,140,0|4,0:0|0:3,0:0:0:0:
254,259,72937,2,0,P|314:240|390:263,1,140,8|4,3:0|0:3,0:0:0:0:
453,369,73500,1,4,0:3:0:0:
322,329,73687,1,4,0:3:0:0:
434,188,73875,6,0,P|363:158|293:154,1,140,4|4,0:3|0:3,0:0:0:0:
80,187,74437,2,0,P|151:217|221:221,1,140,8|4,3:0|0:3,0:0:0:0:
214,256,74906,1,4,0:3:0:0:
229,287,75000,1,10,0:3:0:0:
258,305,75093,1,8,0:3:0:0:
292,307,75187,1,8,0:3:0:0:
325,298,75281,1,8,0:3:0:0:
349,259,75375,6,0,P|380:283|331:363,1,140,4|4,0:0|3:0,0:0:0:0:
221,355,75937,2,0,P|186:335|223:254,1,140,8|4,3:0|0:3,0:0:0:0:
325,298,76500,1,4,0:3:0:0:
221,355,76687,1,4,0:3:0:0:
192,178,76875,6,0,P|228:178|268:201,1,70,4|0,0:3|0:0,0:0:0:0:
221,355,77250,1,4,0:3:0:0:
102,261,77437,2,0,B|67:212|67:212|74:170|74:170|47:129,1,140,8|4,3:0|0:3,0:0:0:0:
88,128,77906,1,4,0:3:0:0:
117,117,78000,1,8,0:3:0:0:
149,102,78093,1,8,0:3:0:0:
179,82,78187,1,8,0:3:0:0:
202,55,78281,1,8,0:3:0:0:
242,87,78375,6,0,P|273:118|305:135,1,70,4|0,0:0|0:0,0:0:0:0:
396,193,78750,1,8,3:0:0:0:
295,262,78937,2,0,P|265:281|242:307,1,70,4|0,3:0|0:0,0:0:0:0:
356,337,79312,1,4,3:0:0:0:
304,177,79500,2,0,P|272:181|232:201,1,70,8|0,3:0|0:0,0:0:0:0:
356,337,79875,6,0,P|424:325|480:269,1,140,4|8,0:3|3:0,0:0:0:0:
467,159,80437,1,4,0:3:0:0:
370,88,80625,2,0,L|294:104,1,70,0|4,0:0|0:3,0:0:0:0:
160,48,81000,2,0,L|228:33,1,70,8|0,3:0|0:0,0:0:0:0:
120,144,81375,6,0,B|92:172|52:168|52:168|80:208|56:240,1,140,4|4,0:3|0:3,0:0:0:0:
148,312,81937,1,4,3:3:0:0:
220,94,82125,1,8,3:0:0:0:
276,316,82312,1,8,3:0:0:0:
148,142,82500,1,8,3:0:0:0:
199,350,82687,1,8,0:3:0:0:
148,140,82875,6,0,P|68:114|140:159,1,245,10|0,3:0|0:0,0:0:0:0:
147,148,83625,6,0,P|177:121|207:114,1,70,2|0,0:0|0:0,0:0:0:0:
323,96,84000,2,0,P|321:137|306:163,1,70,2|0,0:0|0:0,0:0:0:0:
235,316,84375,6,0,L|220:222,1,94.5000003604889,4|0,0:0|0:0,0:0:0:0:
323,96,84750,1,8,3:0:0:0:
396,224,84937,2,0,P|410:276|395:322,1,94.5000003604889,0|0,3:0|0:0,0:0:0:0:
272,336,85312,1,0,0:0:0:0:
220,222,85500,1,8,3:0:0:0:
432,141,85687,2,0,P|460:161|488:221,1,94.5000003604889,4|0,0:3|0:0,0:0:0:0:
348,228,86062,1,4,0:3:0:0:
303,114,86250,6,0,P|275:94|247:34,1,94.5000003604889,8|4,3:0|0:3,0:0:0:0:
432,141,86625,1,0,0:0:0:0:
348,228,86812,2,0,L|260:260,1,94.5000003604889,4|8,0:3|3:0,0:0:0:0:
194,364,87187,1,0,0:0:0:0:
112,192,87375,6,0,P|156:196|216:176,1,94.5000003604889,4|0,0:0|0:0,0:0:0:0:
272,80,87750,1,8,3:0:0:0:
152,56,87937,1,0,0:0:0:0:
48,124,88125,2,0,P|20:184|84:284,1,189.000000720978,2|8,0:0|3:0,0:0:0:0:
200,284,88687,1,0,0:0:0:0:
308,220,88875,2,0,P|340:172|344:128,1,94.5000003604889,4|0,0:3|0:0,0:0:0:0:
256,52,89250,2,0,P|224:100|220:144,1,94.5000003604889,8|0,3:0|0:0,0:0:0:0:
308,220,89625,5,4,0:3:0:0:
408,40,89812,1,8,3:0:0:0:
392,256,90000,2,0,P|372:284|304:312,1,94.5000003604889,8|0,3:0|0:0,0:0:0:0:
196,260,90375,6,0,B|196:216|160:184|160:184|212:72,1,189.000000720978,4|8,0:0|3:0,0:0:0:0:
308,91,90937,2,0,B|352:184|352:184|316:216|316:260,1,189.000000720978,0|0,0:0|0:0,0:0:0:0:
256,368,91500,1,8,3:0:0:0:
196,260,91687,6,0,P|152:284|88:280,1,94.5000003604889,4|0,0:3|0:0,0:0:0:0:
316,260,92062,2,0,P|360:284|424:280,1,94.5000003604889,4|8,0:3|3:0,0:0:0:0:
212,164,92437,2,0,P|172:140|148:100,1,94.5000003604889,4|0,0:3|0:0,0:0:0:0:
364,100,92812,2,0,P|340:140|284:168,1,94.5000003604889,4|8,0:3|3:0,0:0:0:0:
256,52,93187,1,0,0:0:0:0:
424,24,93375,6,0,P|448:56|456:128,1,94.5000003604889,4|0,0:0|0:0,0:0:0:0:
412,224,93750,1,8,3:0:0:0:
299,164,93937,1,0,0:0:0:0:
232,268,94125,2,0,L|137:274,1,94.5000003604889,2|4,0:0|0:3,0:0:0:0:
296,336,94500,1,8,3:0:0:0:
299,164,94687,6,0,L|204:170,1,94.5000003604889,4|0,0:3|0:0,0:0:0:0:
140,68,95062,1,4,0:3:0:0:
376,112,95250,2,0,P|392:152|380:208,1,94.5000003604889,8|4,3:0|0:3,0:0:0:0:
280,268,95625,1,0,0:0:0:0:
204,170,95812,2,0,P|160:162|92:188,1,94.5000003604889,4|8,0:3|3:0,0:0:0:0:
164,284,96187,1,0,0:0:0:0:
76,76,96375,6,0,P|116:60|184:60,1,94.5000003604889,4|0,0:0|0:0,0:0:0:0:
256,144,96750,1,8,3:0:0:0:
352,220,96937,1,0,0:0:0:0:
435,75,97125,2,0,P|392:59|345:56,1,94.5000003604889,4|0,0:3|0:0,0:0:0:0:
256,144,97500,2,0,L|256:268,1,94.5000003604889,8|0,3:0|0:3,0:0:0:0:
144,192,97875,6,0,L|144:97,1,94.5000003604889,0|4,0:3|0:3,0:0:0:0:
335,101,98250,2,0,P|279:141|239:141,1,94.5000003604889,8|0,0:3|0:0,0:0:0:0:
248,24,98625,1,4,0:3:0:0:
144,192,98812,1,0,0:0:0:0:
208,24,99000,1,8,3:0:0:0:
184,196,99187,1,0,0:0:0:0:
168,24,99375,6,0,P|130:53|67:80,1,94.5000003604889,4|0,3:0|0:0,0:0:0:0:
53,191,99750,1,8,3:0:0:0:
88,310,99937,1,0,0:0:0:0:
114,307,100031,1,4,3:0:0:0:
143,299,100125,2,0,P|199:278|246:234,1,94.5000003604889,4|0,3:0|0:0,0:0:0:0:
281,147,100500,1,8,3:0:0:0:
305,27,100687,6,0,P|235:33|161:129,1,189.000000720978,0|0,0:0|0:0,0:0:0:0:
281,147,101250,1,8,3:0:0:0:
102,32,101437,1,0,0:0:0:0:
319,148,101625,2,0,P|308:198|253:236,1,94.5000003604889,8|8,0:3|0:3,0:0:0:0:
81,208,102000,1,8,0:3:0:0:
83,175,102093,1,8,0:3:0:0:
101,146,102187,1,8,0:3:0:0:
129,127,102281,1,8,0:3:0:0:
162,119,102375,6,0,P|205:126|245:163,1,94.5000003604889,4|0,0:0|0:0,0:0:0:0:
296,269,102750,1,8,3:0:0:0:
408,220,102937,2,0,P|448:202|482:149,1,94.5000003604889,0|0,0:0|0:0,0:0:0:0:
479,39,103312,1,0,0:0:0:0:
374,104,103500,1,8,0:3:0:0:
374,104,103687,6,0,B|330:117|330:117|277:103,1,94.5000003604889,4|0,0:3|3:0,0:0:0:0:
172,213,104062,2,0,B|216:200|216:200|269:214,1,94.5000003604889,4|8,0:3|3:0,0:0:0:0:
96,278,104437,2,0,P|75:231|88:163,1,94.5000003604889,4|0,0:3|0:0,0:0:0:0:
276,141,104812,2,0,P|297:188|290:255,1,94.5000003604889,4|8,0:3|3:0,0:0:0:0:
157,114,105187,1,0,0:0:0:0:
297,32,105375,6,0,L|408:57,1,94.5000003604889,4|0,0:0|0:0,0:0:0:0:
495,115,105750,1,8,3:0:0:0:
507,236,105937,1,0,0:0:0:0:
343,330,106125,2,0,L|250:350,1,94.5000003604889,2|4,0:0|0:3,0:0:0:0:
127,343,106500,1,8,3:0:0:0:
63,238,106687,1,0,0:0:0:0:
102,74,106875,6,0,P|125:58|211:39,1,94.5000003604889,8|0,3:0|0:0,0:0:0:0:
223,42,107156,1,8,0:3:0:0:
254,58,107250,1,0,0:0:0:0:
376,144,107437,1,8,3:0:0:0:
198,265,107625,2,0,P|167:241|141:176,1,94.5000003604889,8|0,3:0|0:0,0:0:0:0:
376,144,108000,2,0,P|374:200|350:250,1,94.5000003604889,4|0,0:3|0:0,0:0:0:0:
180,72,108375,6,0,B|196:55|234:57|246:58|246:58|259:59|297:61|322:33,1,140,4|2,0:0|0:3,0:0:0:0:
412,48,108937,1,0,0:0:0:0:
460,132,109125,2,0,P|468:160|460:216,1,70,4|4,0:3|0:3,0:0:0:0:
404,276,109500,1,2,0:3:0:0:
312,312,109687,1,0,0:0:0:0:
208,256,109875,6,0,P|136:232|64:280,1,140,4|2,0:3|0:3,0:0:0:0:
148,328,110437,2,0,L|148:156,1,140,4|4,0:3|0:3,0:0:0:0:
144,88,111000,1,2,0:3:0:0:
236,60,111187,2,0,P|240:104|220:148,1,70,0|4,0:0|0:3,0:0:0:0:
144,88,111562,5,0,0:0:0:0:
364,102,111750,2,0,L|397:37,1,70,2|0,0:3|0:0,0:0:0:0:
456,140,112125,2,0,L|424:208,1,70,4|4,0:3|0:3,0:0:0:0:
364,280,112500,1,2,0:3:0:0:
284,224,112687,1,0,0:0:0:0:
196,267,112875,6,0,P|223:302|247:316,2,70,4|0|2,0:3|0:0|0:3,0:0:0:0:
168,176,113437,2,0,P|132:196|109:232,1,70,4|2,0:3|0:3,0:0:0:0:
256,144,113812,2,0,P|227:103|196:88,1,70,2|8,0:3|0:3,0:0:0:0:
112,76,114187,1,0,0:0:0:0:
116,219,114375,6,0,B|148:228|148:228|180:272,1,70,4|0,0:0|0:0,0:0:0:0:
240,328,114750,1,0,0:3:0:0:
240,328,114937,1,4,0:3:0:0:
308,260,115125,2,0,B|329:230|329:230|361:221,1,70,0|0,0:3|0:0,0:0:0:0:
456,196,115500,1,2,0:3:0:0:
500,108,115687,1,0,0:0:0:0:
432,40,115875,6,0,L|336:20,1,70,4|0,0:3|0:0,0:0:0:0:
272,64,116250,1,2,0:3:0:0:
180,96,116437,2,0,L|84:76,2,70,4|0|0,0:3|0:0|0:0,0:0:0:0:
236,176,117000,1,2,0:3:0:0:
156,232,117187,1,0,0:0:0:0:
200,344,117375,6,0,P|240:320|264:280,1,70,4|0,0:3|0:0,0:0:0:0:
172,248,117750,1,2,0:3:0:0:
288,320,117937,2,0,P|308:264|300:232,1,70,4|0,0:3|0:0,0:0:0:0:
316,156,118312,2,0,L|408:184,2,70,4|2|0,0:3|0:3|0:0,0:0:0:0:
208,100,118875,6,0,P|168:116|140:148,1,70,0|0,0:0|0:0,0:0:0:0:
224,196,119250,1,4,0:3:0:0:
120,120,119438,2,0,P|96:160|100:196,1,70,4|2,0:3|0:3,0:0:0:0:
140,268,119812,1,2,0:3:0:0:
228,312,120000,2,0,L|300:268,1,70,8|4,0:3|0:3,0:0:0:0:
324,256,120281,1,0,0:0:0:0:
364,228,120375,6,0,B|388:208|388:208|392:152,1,70,4|0,3:0|0:0,0:0:0:0:
256,48,120750,1,8,0:0:0:0:
68,192,121125,1,8,0:0:0:0:
256,340,121500,1,8,0:0:0:0:
444,192,121875,6,0,L|412:120,1,70,8|0,0:0|0:0,0:0:0:0:
344,32,122250,2,0,L|315:95,1,70,8|0,0:0|0:0,0:0:0:0:
196,95,122625,2,0,L|168:32,1,70,8|0,0:0|0:0,0:0:0:0:
96,128,123000,2,0,L|68:192,1,70,10|4,0:0|0:3,0:0:0:0:
52,224,123281,1,0,0:0:0:0:
40,256,123375,5,4,3:0:0:0:
256,356,123750,1,8,0:0:0:0:
336,132,124125,1,8,0:0:0:0:
256,356,124500,1,8,0:0:0:0:
184,128,124875,6,0,P|204:92|208:48,1,70,8|0,0:0|0:0,0:0:0:0:
303,63,125250,2,0,P|310:98|328:128,1,70,8|0,0:0|0:0,0:0:0:0:
284,228,125625,2,0,B|256:207|256:207|226:227,1,70,8|0,0:0|0:0,0:0:0:0:
192,220,125906,1,4,3:0:0:0:
158,210,126000,1,8,3:0:0:0:
256,64,126187,1,4,3:0:0:0:
354,210,126375,6,0,P|384:184|400:156,1,70,4|0,0:0|0:0,0:0:0:0:
336,56,126750,1,0,0:0:0:0:
256,176,126937,1,4,0:0:0:0:
200,24,127125,2,0,L|136:96,1,70,0|0,0:0|0:0,0:0:0:0:
335,55,127500,2,0,L|382:3,1,70,4|0,0:0|0:0,0:0:0:0:
452,100,127875,5,8,3:0:0:0:
468,132,127968,1,8,3:0:0:0:
476,168,128062,1,4,3:0:0:0:
480,204,128156,1,0,0:0:0:0:
480,240,128250,2,0,L|464:296,1,35,4|0,3:0|0:0,0:0:0:0:
412,328,128437,5,8,3:0:0:0:
396,296,128531,1,8,3:0:0:0:
376,268,128625,1,4,3:0:0:0:
344,252,128718,1,0,0:0:0:0:
312,240,128812,2,0,L|256:232,1,35,4|0,3:0|0:0,0:0:0:0:
203,266,129000,5,8,3:0:0:0:
163,282,129093,1,8,3:0:0:0:
123,266,129187,1,4,3:0:0:0:
103,230,129281,1,4,0:3:0:0:
111,188,129375,6,0,L|151:108,1,70,4|2,0:0|0:0,0:0:0:0:
219,162,129750,1,0,0:0:0:0:
62,91,129937,2,0,L|31:154,1,70,2|2,0:0|0:0,0:0:0:0:
142,125,130312,2,0,L|185:40,1,70,2|4,0:0|0:3,0:0:0:0:
187,40,130593,1,0,0:0:0:0:
200,17,130687,5,4,0:3:0:0:
310,216,130875,1,8,3:0:0:0:
410,17,131062,1,8,3:0:0:0:
225,162,131250,1,8,3:0:0:0:
440,112,131437,1,8,3:0:0:0:
418,329,131625,5,12,3:0:0:0:
416,344,132000,2,0,B|392:324|344:352|344:352|308:312|276:320,1,140,12|0,3:0|0:0,0:0:0:0:
292,318,132750,6,0,L|224:328,1,52.5000020027161,0|0,0:0|0:0,0:0:0:0:
136,268,133125,5,2,0:0:0:0:
256,24,133500,1,2,0:0:0:0:
60,231,133875,6,0,P|52:278|68:321,1,94.5000003604889,4|0,0:0|0:0,0:0:0:0:
256,272,134250,1,8,3:0:0:0:
443,322,134437,2,0,P|459:279|452:233,1,94.5000003604889,0|4,0:0|0:3,0:0:0:0:
360,148,134812,1,0,0:0:0:0:
232,144,135000,1,8,3:0:0:0:
304,44,135187,6,0,P|356:28|416:48,1,94.5000003604889,4|0,0:3|0:0,0:0:0:0:
232,144,135562,2,0,P|180:160|120:140,1,94.5000003604889,4|8,0:3|3:0,0:0:0:0:
52,68,135937,1,4,0:3:0:0:
64,248,136125,2,0,L|24:348,1,94.5000003604889,0|4,0:0|0:3,0:0:0:0:
176,256,136500,2,0,L|136:356,1,94.5000003604889,8|0,3:0|0:0,0:0:0:0:
292,208,136875,6,0,P|252:172|248:32,1,189.000000720978,4|8,0:0|3:0,0:0:0:0:
348,100,137437,1,0,0:0:0:0:
384,216,137625,2,0,P|352:276|312:296,1,94.5000003604889,4|0,0:3|0:0,0:0:0:0:
348,100,138000,2,0,P|416:100|460:128,1,94.5000003604889,8|4,3:0|0:3,0:0:0:0:
268,192,138375,2,0,P|236:152|232:88,1,94.5000003604889,0|4,0:0|0:3,0:0:0:0:
348,100,138750,1,8,3:0:0:0:
424,196,138937,1,4,0:3:0:0:
331,289,139125,6,0,L|216:324,1,94.5000003604889,0|8,0:0|3:3,0:0:0:0:
166,138,139500,1,8,3:0:0:0:
79,315,139687,1,0,0:0:0:0:
172,104,139875,6,0,P|131:85|80:32,1,94.5000003604889,4|0,0:0|0:0,0:0:0:0:
260,36,140250,1,8,3:0:0:0:
352,116,140437,1,0,0:0:0:0:
336,240,140625,2,0,L|268:328,1,94.5000003604889,4|0,0:3|0:0,0:0:0:0:
156,312,141000,1,8,3:0:0:0:
172,104,141187,6,0,P|216:104|272:144,1,94.5000003604889,4|0,0:3|0:0,0:0:0:0:
365,339,141562,2,0,P|321:339|265:299,1,94.5000003604889,4|8,0:3|3:0,0:0:0:0:
191,232,141937,1,4,0:3:0:0:
259,128,142125,1,0,0:0:0:0:
380,144,142312,2,0,P|432:140|480:104,1,94.5000003604889,4|8,0:3|3:0,0:0:0:0:
312,48,142687,1,0,0:0:0:0:
312,48,142875,6,0,B|268:76|260:128|260:128|196:48,1,189.000000720978,6|8,0:0|3:0,0:0:0:0:
80,56,143437,1,0,0:0:0:0:
100,177,143625,2,0,B|177:221|177:221|127:237|107:285,1,189.000000720978,2|8,0:0|3:0,0:0:0:0:
200,356,144187,1,4,0:3:0:0:
312,304,144375,6,0,P|296:264|316:216,1,94.5000003604889,0|4,0:0|0:3,0:0:0:0:
412,148,144750,1,8,3:0:0:0:
308,84,144937,2,0,P|272:124|220:144,1,94.5000003604889,4|0,0:3|0:0,0:0:0:0:
112,132,145312,2,0,P|128:76|160:40,1,94.5000003604889,4|8,0:3|3:0,0:0:0:0:
235,140,145687,1,0,0:0:0:0:
36,38,145875,5,4,0:0:0:0:
15,159,146062,1,0,0:0:0:0:
42,279,146250,2,0,L|150:299,1,94.5000003604889,8|0,3:0|0:0,0:0:0:0:
169,305,146531,1,4,0:3:0:0:
205,309,146625,1,4,0:3:0:0:
265,201,146812,1,0,0:0:0:0:
141,201,147000,1,8,3:0:0:0:
205,309,147187,1,0,0:0:0:0:
108,176,147375,6,0,P|148:152|180:108,1,94.5000003604889,4|0,0:3|0:0,0:0:0:0:
64,64,147750,1,8,3:0:0:0:
160,252,147937,1,0,0:0:0:0:
252,64,148125,1,4,0:3:0:0:
332,156,148312,1,0,0:0:0:0:
252,248,148500,1,8,3:0:0:0:
172,156,148687,1,0,0:0:0:0:
389,71,148875,6,0,P|436:150|404:236,1,189.000000720978,4|8,0:0|3:0,0:0:0:0:
296,292,149437,1,0,3:0:0:0:
264,304,149531,1,4,3:3:0:0:
232,316,149625,2,0,L|120:336,1,94.5000003604889,4|0,0:3|0:0,0:0:0:0:
40,260,150000,2,0,P|80:252|128:216,1,94.5000003604889,8|0,3:0|0:0,0:0:0:0:
228,144,150375,6,0,P|152:96|36:128,1,189.000000720978,4|8,0:0|3:0,0:0:0:0:
252,256,150937,1,0,0:0:0:0:
296,28,151125,1,8,3:0:0:0:
376,280,151312,1,8,0:3:0:0:
228,144,151500,1,8,0:3:0:0:
192,136,151593,1,8,3:0:0:0:
156,148,151687,1,8,3:0:0:0:
128,176,151781,1,8,3:0:0:0:
112,212,151875,6,0,P|104:260|124:316,1,94.5000003604889,4|0,0:0|0:0,0:0:0:0:
395,303,152250,2,0,P|408:258|400:212,1,94.5000003604889,8|0,3:0|0:0,0:0:0:0:
256,140,152625,2,0,L|256:236,1,94.5000003604889,4|0,0:3|0:0,0:0:0:0:
256,28,153000,1,8,3:0:0:0:
124,176,153187,6,0,P|160:216|212:236,1,94.5000003604889,4|0,0:3|0:0,0:0:0:0:
388,176,153562,2,0,P|352:216|300:236,1,94.5000003604889,4|8,0:3|3:0,0:0:0:0:
196,232,153937,2,0,L|212:116,1,94.5000003604889,4|0,0:3|0:0,0:0:0:0:
292,48,154312,2,0,L|304:141,1,94.5000003604889,4|8,0:3|3:0,0:0:0:0:
324,264,154687,1,0,0:0:0:0:
208,138,154875,6,0,B|176:84|176:84|146:163|69:170,1,189.000000720978,4|8,0:0|3:0,0:0:0:0:
58,47,155437,1,0,0:0:0:0:
52,253,155625,2,0,L|88:166,1,94.5000003604889,2|4,0:0|0:3,0:0:0:0:
208,138,156000,2,0,L|243:225,1,94.5000003604889,8|0,3:0|0:0,0:0:0:0:
399,341,156375,6,0,L|363:253,1,94.5000003604889,8|0,0:3|0:0,0:0:0:0:
348,216,156656,1,8,3:0:0:0:
348,216,156750,1,0,0:0:0:0:
256,300,156937,1,8,3:0:0:0:
196,84,157125,2,0,P|168:128|96:136,1,94.5000003604889,8|0,3:0|0:0,0:0:0:0:
39,271,157500,2,0,L|16:180,1,94.5000003604889,4|0,0:3|0:0,0:0:0:0:
120,64,157875,6,0,P|184:116|284:112,1,167.999994873047,4|8,0:0|3:0,0:0:0:0:
376,100,158437,2,0,P|361:54|313:23,1,83.9999974365235,0|2,0:0|0:0,0:0:0:0:
266,118,158812,1,4,0:3:0:0:
348,188,159000,2,0,P|400:192|436:168,1,83.9999974365235,8|0,3:0|0:0,0:0:0:0:
266,118,159375,6,0,B|232:115|209:97|209:97|141:194,1,167.999994873047,2|8,0:0|3:0,0:0:0:0:
88,263,159937,2,0,P|135:283|190:271,1,83.9999974365235,0|2,0:0|0:0,0:0:0:0:
147,184,160312,1,4,0:3:0:0:
198,369,160500,2,0,P|241:338|256:281,1,83.9999974365235,8|0,3:0|0:0,0:0:0:0:
256,119,160875,6,0,P|234:169|246:223,1,83.9999974365235,4|0,0:0|0:0,0:0:0:0:
343,184,161250,2,0,L|439:200,1,83.9999974365235,8|0,3:0|0:0,0:0:0:0:
320,71,161625,2,0,P|282:87|256:120,1,83.9999974365235,2|4,0:0|0:3,0:0:0:0:
224,224,162000,1,8,0:3:0:0:
160,104,162187,1,4,0:3:0:0:
140,80,162281,1,4,0:3:0:0:
120,52,162375,5,4,0:0:0:0:
76,296,162562,1,4,0:3:0:0:
160,104,162750,1,4,0:3:0:0:
256,300,162937,1,4,0:3:0:0:
364,64,163125,2,0,P|308:68|272:108,1,83.9999974365235,4|0,0:0|0:0,0:0:0:0:
432,200,163500,2,0,P|472:204|512:180,1,83.9999974365235,4|0,0:3|0:0,0:0:0:0:
256,92,163875,6,0,B|268:140|268:140|240:164|240:164|268:204|240:260,1,167.999994873047,4|0,0:0|0:0,0:0:0:0:
