osu file format v14

[General]
AudioFilename: audio.mp3
AudioLeadIn: 0
PreviewTime: 29625
Countdown: 0
SampleSet: Soft
StackLeniency: 0.5
Mode: 0
LetterboxInBreaks: 0
WidescreenStoryboard: 0

[Editor]
DistanceSpacing: 1
BeatDivisor: 4
GridSize: 4
TimelineZoom: 1.5

[Metadata]
Title:Kill The Lights
TitleUnicode:Kill The Lights
Artist:Set It Off
ArtistUnicode:Set It Off
Creator:Cosmolade
Version:Atsuro's Lux Mortis
Source:
Tags:Cinematics (Expanded Edition) Equal Vision Records Reissue EVR 245 Atsuro
BeatmapID:1190510
BeatmapSetID:559814

[Difficulty]
HPDrainRate:6
CircleSize:4.5
OverallDifficulty:8.5
ApproachRate:9
SliderMultiplier:1.8
SliderTickRate:1

[Events]
//Background and Video events
0,0,"BG.jpg",0,0
//Break Periods
//Storyboard Layer 0 (Background)
//Storyboard Layer 1 (Fail)
//Storyboard Layer 2 (Pass)
//Storyboard Layer 3 (Foreground)
//Storyboard Sound Samples

[TimingPoints]
375,375,4,2,1,40,1,0
2812,-200,4,2,1,40,0,0
3281,-200,4,2,1,5,0,0
3375,-200,4,2,1,40,0,0
4687,-200,4,2,1,50,0,0
5906,-200,4,2,1,5,0,0
6000,-66.6666666666667,4,2,1,50,0,0
6375,-83.3333333333333,4,2,1,55,0,0
12281,-83.3333333333333,4,2,1,5,0,0
12375,-111.111111111111,4,2,1,45,0,0
24375,-142.857142857143,4,2,1,45,0,0
30375,-76.9230769230769,4,2,1,70,0,1
36281,-76.9230769230769,4,2,1,5,0,1
36375,-76.9230769230769,4,2,1,70,0,1
42375,-83.3333333333333,4,2,1,70,0,0
42656,-83.3333333333333,4,2,1,5,0,0
42750,-83.3333333333333,4,2,1,70,0,0
48281,-83.3333333333333,4,2,1,5,0,0
48375,-111.111111111111,4,2,1,50,0,0
57281,-83.3333333333333,4,2,1,5,0,0
57375,-111.111111111111,4,2,1,50,0,0
60375,-90.9090909090908,4,2,1,60,0,0
60656,-83.3333333333333,4,2,1,5,0,0
60750,-90.9090909090908,4,2,1,60,0,0
63656,-83.3333333333333,4,2,1,5,0,0
63750,-90.9090909090908,4,2,1,60,0,0
66656,-83.3333333333333,4,2,1,5,0,0
66750,-90.9090909090908,4,2,1,60,0,0
72375,-142.857142857143,4,2,1,40,0,0
78375,-111.111111111111,4,2,1,50,0,0
82875,-83.3333333333334,4,2,1,60,0,0
83062,-83.3333333333334,4,2,1,5,0,0
83156,-83.3333333333334,4,2,1,60,0,0
83343,-83.3333333333334,4,2,1,5,0,0
83437,-83.3333333333334,4,2,1,60,0,0
83625,-83.3333333333334,4,2,1,40,0,0
84375,-76.9230769230769,4,2,1,70,0,1
90281,-76.9230769230769,4,2,1,5,0,1
90375,-76.9230769230769,4,2,1,70,0,1
96281,-76.9230769230769,4,2,1,5,0,1
96375,-76.9230769230769,4,2,1,70,0,1
108656,-100,4,2,1,60,0,0
113625,-100,4,2,1,70,0,0
114375,-100,4,2,1,60,0,0
120375,-100,4,2,1,70,0,0
120750,-100,4,2,1,40,0,0
123000,-100,4,2,1,60,0,0
123375,-100,4,2,1,70,0,0
123750,-100,4,2,1,40,0,0
125812,-100,4,2,1,50,0,0
126375,-100,4,2,1,60,0,0
133125,-200,4,2,1,30,0,0
133406,-200,4,2,1,5,0,0
133500,-125,4,2,1,50,0,0
133781,-200,4,2,1,5,0,0
133875,-76.9230769230769,4,2,1,70,0,1
139781,-200,4,2,1,5,0,1
139875,-76.9230769230769,4,2,1,70,0,1
149156,-200,4,2,1,5,0,1
149250,-76.9230769230769,4,2,1,70,0,1
156562,-200,4,2,1,5,0,1
156656,-76.9230769230769,4,2,1,70,0,1
156843,-200,4,2,1,5,0,1
156937,-76.9230769230769,4,2,1,70,0,1
157406,-200,4,2,1,5,0,1
157500,-76.9230769230769,4,2,1,70,0,1
157781,-200,4,2,1,5,0,1
157875,-83.3333333333333,4,2,1,70,0,0
160781,-200,4,2,1,5,0,0
160875,-83.3333333333333,4,2,1,70,0,0
163500,-62.5,4,2,1,70,0,0
163781,-200,4,2,1,5,0,0
163875,-62.5,4,2,1,70,0,0

[Colours]
Combo1 : 142,146,213
Combo2 : 214,105,105
Combo3 : 186,174,133
Combo4 : 103,152,120
SliderBorder : 220,160,160
SliderTrackOverride : 175,69,69

[HitObjects]
172,132,375,5,2,0:0:0:0:
172,132,750,1,2,0:0:0:0:
124,208,937,1,0,0:0:0:0:
124,208,1031,1,0,0:0:0:0:
124,208,1125,1,2,0:0:0:0:
212,212,1312,1,0,0:0:0:0:
252,290,1500,1,2,0:0:0:0:
204,364,1687,1,0,0:0:0:0:
340,295,1875,5,2,0:0:0:0:
260,138,2250,1,2,0:0:0:0:
300,216,2438,1,0,0:0:0:0:
388,221,2625,1,2,0:0:0:0:
252,290,2812,6,0,B|212:284|212:284|172:296|172:296|124:292,1,112.5,2|0,0:0|0:0,0:0:0:0:
48,260,3375,5,2,0:0:0:0:
48,260,3750,1,2,0:0:0:0:
124,208,3937,1,0,0:0:0:0:
124,208,4031,1,0,0:0:0:0:
124,208,4125,1,2,0:0:0:0:
48,164,4312,1,0,0:0:0:0:
124,120,4500,1,2,0:0:0:0:
200,163,4687,1,0,0:0:0:0:
384,33,4875,5,2,0:0:0:0:
254,45,5062,1,0,0:0:0:0:
200,163,5250,1,2,0:0:0:0:
275,268,5437,1,0,0:0:0:0:
405,255,5625,6,0,P|431:245|409:219,1,67.5,2|0,0:0|0:0,0:0:0:0:
405,151,6000,6,0,P|487:188|484:291,1,202.500007724762,4|0,1:3|0:0,0:0:0:0:
335,368,6375,6,0,B|281:373|281:373|229:355,1,107.999996704102,4|0,0:0|0:0,0:0:0:0:
77,258,6750,1,8,3:0:0:0:
176,192,6937,1,0,0:0:0:0:
176,192,7031,1,0,0:0:0:0:
176,192,7125,1,2,0:0:0:0:
77,126,7312,1,4,0:3:0:0:
275,126,7500,1,8,3:0:0:0:
275,258,7687,1,0,0:0:0:0:
432,184,7875,6,0,P|456:160|484:88,1,107.999996704102,4|0,3:0|0:0,0:0:0:0:
275,258,8250,1,8,3:0:0:0:
432,184,8437,1,0,0:0:0:0:
275,126,8625,1,2,0:0:0:0:
428,312,8812,1,4,0:3:0:0:
275,258,9000,2,0,P|223:274|183:309,1,107.999996704102,8|0,3:0|0:0,0:0:0:0:
28,128,9375,6,0,P|68:163|119:179,1,107.999996704102,4|0,0:0|0:0,0:0:0:0:
275,126,9750,1,8,3:0:0:0:
176,92,9937,1,0,0:0:0:0:
176,92,10031,1,0,0:0:0:0:
176,92,10125,1,2,0:0:0:0:
254,23,10312,1,4,0:3:0:0:
372,158,10500,1,8,3:0:0:0:
196,196,10687,1,4,0:3:0:0:
196,196,10781,1,4,0:3:0:0:
196,196,10875,5,8,3:0:0:0:
351,55,11062,1,4,0:3:0:0:
299,228,11250,1,4,0:3:0:0:
254,23,11437,1,4,0:3:0:0:
99,164,11625,1,8,3:0:0:0:
99,164,12000,6,0,B|119:213|119:213|104:264|104:264|126:317,1,161.999995056153
208,300,12375,6,0,P|260:292|292:284,1,80.9999975280763,4|0,0:0|0:0,0:0:0:0:
356,252,12750,1,8,3:0:0:0:
364,364,12937,1,0,0:0:0:0:
292,212,13125,2,0,L|284:132,1,80.9999975280763,2|4,0:0|0:3,0:0:0:0:
328,68,13500,1,8,3:0:0:0:
216,176,13687,1,0,0:0:0:0:
360,164,13875,6,0,L|440:156,1,80.9999975280763,2|0,0:0|0:0,0:0:0:0:
296,260,14250,2,0,L|376:268,1,80.9999975280763,8|0,3:0|0:0,0:0:0:0:
168,104,14625,2,0,L|248:96,1,80.9999975280763,2|4,0:0|0:3,0:0:0:0:
104,240,15000,2,0,L|184:248,1,80.9999975280763,8|0,3:0|0:0,0:0:0:0:
48,180,15375,5,2,0:0:0:0:
136,316,15562,1,4,0:3:0:0:
136,316,15750,1,8,3:0:0:0:
256,252,15937,2,0,L|336:244,1,80.9999975280763,2|0,0:0|0:0,0:0:0:0:
220,104,16312,1,4,0:3:0:0:
220,104,16500,1,8,3:0:0:0:
340,168,16687,2,0,L|420:176,1,80.9999975280763,2|0,0:0|0:0,0:0:0:0:
316,64,17062,1,4,0:3:0:0:
244,212,17250,1,8,3:0:0:0:
120,104,17437,2,0,L|40:96,1,80.9999975280763,2|0,0:0|0:0,0:0:0:0:
39,275,17812,5,4,0:3:0:0:
88,280,17906,1,4,0:3:0:0:
115,239,17999,1,8,3:0:0:0:
95,195,18093,1,8,3:0:0:0:
46,191,18187,1,8,3:0:0:0:
19,230,18280,1,8,3:0:0:0:
68,236,18375,6,0,P|120:244|152:252,1,80.9999975280763,4|0,0:0|0:0,0:0:0:0:
256,292,18750,1,8,3:0:0:0:
256,150,18937,1,0,0:0:0:0:
444,206,19125,2,0,P|392:198|360:190,1,80.9999975280763,2|4,0:0|0:3,0:0:0:0:
256,80,19500,1,8,3:0:0:0:
256,220,19687,1,0,0:0:0:0:
365,119,19875,6,0,P|404:109|444:104,1,80.9999975280763,2|0,0:0|0:0,0:0:0:0:
228,130,20250,2,0,P|238:91|254:54,1,80.9999975280763,8|0,3:0|0:0,0:0:0:0:
169,254,20625,2,0,P|140:225|116:193,1,80.9999975280763,2|4,0:0|0:3,0:0:0:0:
247,367,21000,2,0,P|208:377|168:382,1,80.9999975280763,8|0,3:0|0:0,0:0:0:0:
48,341,21375,5,2,0:0:0:0:
116,193,21562,1,4,0:3:0:0:
116,193,21750,1,8,3:0:0:0:
239,276,21937,2,0,L|319:268,1,80.9999975280763,2|0,0:0|0:0,0:0:0:0:
115,271,22312,1,4,0:3:0:0:
115,271,22500,1,8,3:0:0:0:
238,188,22687,2,0,L|318:196,1,80.9999975280763,2|0,0:0|0:0,0:0:0:0:
426,306,23062,5,4,0:3:0:0:
426,155,23250,1,8,3:0:0:0:
511,230,23437,1,4,0:3:0:0:
339,230,23625,1,8,3:0:0:0:
426,80,23812,1,4,0:3:0:0:
426,306,24000,1,8,3:0:0:0:
86,80,24375,6,0,B|152:60|152:100|209:79,1,125.999996154785,4|4,0:0|0:3,0:0:0:0:
256,12,24937,2,0,P|291:75|272:132,1,125.999996154785,8|4,3:0|0:3,0:0:0:0:
228,186,25500,2,0,P|207:222|200:245,1,62.9999980773926,4|0,0:3|0:0,0:0:0:0:
358,304,25875,6,0,P|360:242|334:186,1,125.999996154785,4|4,0:3|0:3,0:0:0:0:
280,124,26437,2,0,L|132:100,1,125.999996154785,8|4,3:0|0:3,0:0:0:0:
140,100,26906,1,4,0:3:0:0:
120,96,27000,1,8,0:3:0:0:
86,115,27093,1,8,0:3:0:0:
67,149,27187,1,8,0:3:0:0:
71,187,27281,1,8,0:3:0:0:
95,218,27375,6,0,P|155:236|215:219,1,125.999996154785,4|4,0:0|0:3,0:0:0:0:
239,299,27937,2,0,P|299:281|359:298,1,125.999996154785,8|4,3:0|0:3,0:0:0:0:
370,309,28406,1,4,0:3:0:0:
380,320,28500,1,8,3:0:0:0:
411,297,28593,1,8,3:0:0:0:
432,263,28687,1,8,3:0:0:0:
437,225,28781,1,8,0:3:0:0:
426,187,28875,5,4,0:0:0:0:
469,69,29062,1,4,0:3:0:0:
338,232,29250,1,8,3:0:0:0:
315,108,29437,1,0,0:0:0:0:
283,314,29625,1,8,3:0:0:0:
283,314,30000,1,2,0:0:0:0:
283,314,30375,6,0,P|228:275|177:266,1,116.999994644165,4|0,0:0|0:0,0:0:0:0:
77,314,30750,1,8,3:0:0:0:
267,214,30937,2,0,P|318:113|268:12,1,233.999989288331,0|0,0:3|0:3,0:0:0:0:
195,111,31500,1,8,3:0:0:0:
357,3,31687,6,4,P|382:56|390:114,1,116.999994644165,4|0,0:3|0:0,0:0:0:0:
187,297,32062,2,0,P|220:249|266:213,1,116.999994644165,4|8,0:3|3:0,0:0:0:0:
506,337,32437,2,0,L|381:320,1,116.999994644165,4|0,0:3|0:0,0:0:0:0:
187,297,32812,1,4,0:3:0:0:
336,249,33000,1,8,3:0:0:0:
241,369,33187,1,0,0:0:0:0:
133,225,33375,6,0,P|107:156|101:95,1,116.999994644165,4|0,0:0|0:0,0:0:0:0:
410,113,33750,2,0,P|401:171|379:225,1,116.999994644165,8|0,3:0|0:0,0:0:0:0:
200,319,34125,2,0,P|151:263|125:207,1,116.999994644165,2|4,0:0|0:3,0:0:0:0:
379,224,34500,2,0,P|351:275|312:319,1,116.999994644165,8|0,3:0|0:0,0:0:0:0:
178,112,34875,5,4,0:3:0:0:
334,112,35062,1,0,0:0:0:0:
257,276,35250,2,0,L|257:153,1,116.999994644165,8|0,3:0|0:0,0:0:0:0:
256,12,35625,1,4,0:3:0:0:
360,192,35812,1,8,0:3:0:0:
152,192,36000,2,0,B|104:192|84:212|84:212|116:260|80:308,1,175.499991966248,8|0,0:3|0:0,0:0:0:0:
26,165,36375,6,0,P|72:135|134:121,1,116.999994644165,4|0,0:0|0:0,0:0:0:0:
257,159,36750,1,8,3:0:0:0:
410,7,36937,2,0,P|360:108|411:208,1,233.999989288331,0|0,0:0|0:0,0:0:0:0:
509,307,37500,1,8,3:0:0:0:
311,304,37687,6,0,P|254:283|203:248,1,116.999994644165,4|0,0:3|0:0,0:0:0:0:
0,215,38062,2,0,P|57:194|108:159,1,116.999994644165,4|8,0:3|3:0,0:0:0:0:
311,21,38437,2,0,P|254:42|203:77,1,116.999994644165,4|0,0:3|0:0,0:0:0:0:
117,263,38812,1,4,0:3:0:0:
256,162,39000,1,8,3:0:0:0:
117,61,39187,1,0,0:0:0:0:
207,251,39375,6,0,P|256:284|311:304,1,116.999994644165,4|0,0:0|0:0,0:0:0:0:
332,132,39750,2,0,P|343:189|368:242,1,116.999994644165,8|0,3:0|0:0,0:0:0:0:
504,135,40125,2,0,P|471:183|451:238,1,116.999994644165,2|4,0:0|0:3,0:0:0:0:
504,356,40500,1,8,3:0:0:0:
368,242,40687,6,0,P|343:189|332:131,1,116.999994644165,4|0,0:3|0:0,0:0:0:0:
384,32,41062,1,4,0:3:0:0:
228,132,41250,1,8,3:0:0:0:
176,31,41437,1,4,0:3:0:0:
332,131,41625,1,8,0:3:0:0:
167,216,41812,1,4,0:3:0:0:
393,218,42000,1,8,3:0:0:0:
280,42,42187,1,4,0:3:0:0:
240,272,42375,6,0,P|248:320|304:268,1,161.999995056153,4|0,0:0|0:0,0:0:0:0:
167,216,42750,1,8,3:0:0:0:
280,153,42937,1,0,0:0:0:0:
280,153,43031,1,0,0:0:0:0:
280,153,43125,1,2,0:0:0:0:
393,218,43312,1,4,0:3:0:0:
280,70,43500,1,8,3:0:0:0:
167,216,43687,1,0,0:0:0:0:
97,46,43875,6,0,P|145:20|197:6,1,107.999996704102,4|0,3:0|0:0,0:0:0:0:
327,146,44250,1,8,3:0:0:0:
185,146,44437,1,0,0:0:0:0:
314,6,44625,1,2,0:0:0:0:
368,208,44812,1,4,0:3:0:0:
144,208,45000,2,0,P|114:168|118:111,1,107.999996704102,8|0,3:0|0:0,0:0:0:0:
428,5,45375,6,0,L|437:114,1,107.999996704102,4|0,0:0|0:0,0:0:0:0:
457,308,45750,1,8,3:0:0:0:
348,227,45937,1,0,0:0:0:0:
348,227,46031,1,0,0:0:0:0:
348,227,46125,1,2,0:0:0:0:
267,336,46312,1,4,0:3:0:0:
239,146,46500,1,8,3:0:0:0:
158,255,46687,1,0,0:0:0:0:
158,255,46781,1,0,0:0:0:0:
158,255,46875,5,8,0:3:0:0:
320,253,47062,1,4,0:3:0:0:
364,96,47250,1,4,0:3:0:0:
233,2,47438,1,4,0:3:0:0:
103,99,47625,1,8,3:3:0:0:
103,99,48000,2,0,B|120:136|96:172|96:172|104:180|104:180|80:208|96:256,1,161.999995056153
33,305,48375,6,0,P|21:281|8:211,1,80.9999975280763,4|0,0:0|0:0,0:0:0:0:
42,128,48750,1,8,3:0:0:0:
158,222,48937,1,0,0:0:0:0:
222,88,49125,2,0,P|196:80|125:79,1,80.9999975280763,2|4,0:0|0:3,0:0:0:0:
42,128,49500,1,8,3:0:0:0:
144,0,49687,1,0,0:0:0:0:
270,150,49875,6,0,P|295:157|366:158,1,80.9999975280763,2|0,0:0|0:0,0:0:0:0:
430,5,50250,2,0,P|410:23|374:84,1,80.9999975280763,8|0,3:0|0:0,0:0:0:0:
476,217,50625,2,0,P|469:190|434:129,1,80.9999975280763,2|4,0:0|0:3,0:0:0:0:
249,13,51000,2,0,P|229:48|217:87,1,80.9999975280763,8|0,0:3|0:3,0:0:0:0:
217,210,51375,5,4,0:3:0:0:
387,210,51562,1,0,0:3:0:0:
270,149,51750,1,8,3:0:0:0:
164,271,51937,2,0,L|78:263,1,80.9999975280763,2|0,0:0|0:0,0:0:0:0:
0,317,52312,1,4,3:0:0:0:
93,188,52500,1,8,0:3:0:0:
154,345,52687,2,0,L|240:337,1,80.9999975280763,2|0,0:0|0:3,0:0:0:0:
360,328,53062,5,4,0:3:0:0:
256,224,53250,1,8,3:0:0:0:
360,96,53437,2,0,L|279:88,1,80.9999975280763,2|0,0:0|0:3,0:0:0:0:
94,130,53812,1,4,0:3:0:0:
114,131,53905,1,4,0:3:0:0:
134,133,53999,1,8,3:3:0:0:
140,94,54093,1,8,3:3:0:0:
122,59,54187,1,8,3:3:0:0:
86,42,54281,1,8,0:3:0:0:
47,51,54375,6,0,P|10:93|-1:132,1,80.9999975280763,4|0,0:0|0:0,0:0:0:0:
39,285,54750,1,8,3:0:0:0:
144,192,54937,1,0,0:0:0:0:
249,285,55125,2,0,P|286:243|297:204,1,80.9999975280763,2|4,0:0|0:3,0:0:0:0:
292,36,55500,1,8,3:0:0:0:
201,129,55687,1,0,0:0:0:0:
385,126,55875,6,0,P|428:116|472:100,1,80.9999975280763,2|0,0:0|0:0,0:0:0:0:
294,220,56250,2,0,P|251:209|207:193,1,80.9999975280763,8|0,3:0|0:0,0:0:0:0:
385,313,56625,2,0,P|427:302|471:286,1,80.9999975280763,2|4,0:0|0:3,0:0:0:0:
219,87,57000,2,0,P|194:140|215:195,1,121.499996292114,8|0,3:0|0:0,0:0:0:0:
294,220,57375,5,4,0:3:0:0:
137,219,57562,1,0,0:0:0:0:
268,142,57750,1,8,3:0:0:0:
137,65,57937,2,0,L|56:57,1,80.9999975280763,2|0,0:0|0:0,0:0:0:0:
287,65,58312,1,4,0:3:0:0:
156,142,58500,1,8,3:0:0:0:
287,219,58687,2,0,L|368:227,1,80.9999975280763,2|0,0:0|0:0,0:0:0:0:
333,142,59062,5,4,0:3:0:0:
321,303,59250,1,8,3:0:0:0:
187,212,59437,2,0,P|164:146|167:116,1,80.9999975280763,2|0,0:0|0:0,0:0:0:0:
256,0,59812,1,4,3:3:0:0:
64,68,60000,1,8,3:0:0:0:
294,149,60187,1,8,3:0:0:0:
70,234,60375,6,0,P|17:199|69:163,1,148.50000453186,4|0,0:0|0:0,0:0:0:0:
156,272,60750,1,8,3:0:0:0:
165,136,60937,1,0,0:0:0:0:
165,136,61031,1,0,0:0:0:0:
165,136,61125,1,2,0:0:0:0:
280,196,61312,1,4,0:3:0:0:
280,0,61500,1,8,3:0:0:0:
165,60,61687,1,0,0:0:0:0:
364,96,61875,5,2,0:0:0:0:
328,295,62062,1,0,0:0:0:0:
246,177,62250,1,8,3:0:0:0:
445,213,62437,1,0,0:0:0:0:
290,368,62625,2,0,P|250:324|250:272,1,99.0000030212403,2|4,0:0|0:3,0:0:0:0:
202,95,63000,2,0,P|242:139|242:191,1,99.0000030212403,8|0,3:0|0:0,0:0:0:0:
37,230,63375,6,0,P|107:208|177:230,1,148.50000453186,4|0,3:0|0:0,0:0:0:0:
246,286,63750,1,8,3:0:0:0:
344,198,63937,1,0,0:0:0:0:
344,198,64031,1,0,0:0:0:0:
344,198,64125,1,2,0:0:0:0:
442,287,64312,1,4,0:3:0:0:
344,122,64500,1,8,3:0:0:0:
246,286,64687,1,0,0:0:0:0:
465,212,64875,5,2,0:0:0:0:
344,198,65062,1,0,0:0:0:0:
422,40,65250,1,8,3:0:0:0:
408,161,65437,1,0,0:0:0:0:
237,102,65625,5,4,0:3:0:0:
492,112,65812,1,8,3:0:0:0:
226,205,66000,1,8,3:0:0:0:
422,40,66187,1,8,3:0:0:0:
408,280,66375,6,0,P|420:340|500:372,1,148.50000453186,4|0,0:0|0:0,0:0:0:0:
481,298,66750,1,8,3:0:0:0:
335,298,66937,1,0,0:0:0:0:
335,298,67031,1,0,0:0:0:0:
335,298,67125,1,2,0:0:0:0:
335,152,67312,1,4,0:3:0:0:
189,298,67500,1,8,3:0:0:0:
352,226,67687,1,0,0:0:0:0:
189,152,67875,5,2,0:0:0:0:
334,47,68062,1,0,0:0:0:0:
270,191,68250,1,8,3:0:0:0:
230,87,68437,1,0,0:0:0:0:
374,151,68625,2,0,P|447:138|483:124,1,99.0000030212403,2|4,0:0|0:3,0:0:0:0:
270,267,69000,2,0,P|197:254|161:240,1,99.0000030212403,8|0,3:0|0:0,0:0:0:0:
13,120,69375,5,4,3:0:0:0:
216,135,69562,2,0,P|168:149|119:156,1,99.0000030212403,0|8,0:0|3:0,0:0:0:0:
218,18,69937,2,0,P|267:24|314:39,1,99.0000030212403,2|0,0:0|0:0,0:0:0:0:
440,192,70312,1,4,0:3:0:0:
288,192,70500,1,8,3:0:0:0:
416,20,70687,6,0,P|430:67|437:116,1,99.0000030212403,4|0,0:3|0:0,0:0:0:0:
288,268,71062,1,4,0:3:0:0:
288,116,71250,1,8,3:0:0:0:
368,268,71437,1,0,0:0:0:0:
208,192,71625,2,0,L|104:184,1,99.0000030212403,8|0,0:3|0:0,0:0:0:0:
386,123,72000,2,0,L|282:115,1,99.0000030212403,8|0,3:0|0:0,0:0:0:0:
493,277,72375,6,0,L|364:267,1,125.999996154785,4|4,0:0|0:3,0:0:0:0:
284,264,72937,2,0,P|244:272|216:284,1,62.9999980773926,8|0,3:0|0:0,0:0:0:0:
164,336,73312,1,4,0:3:0:0:
80,336,73500,1,4,0:3:0:0:
21,281,73687,1,4,0:3:0:0:
123,216,73875,6,0,P|154:163|127:109,1,125.999996154785,4|4,0:3|0:3,0:0:0:0:
70,51,74437,2,0,P|128:30|190:55,1,125.999996154785,8|4,3:0|0:3,0:0:0:0:
194,65,74906,1,4,0:3:0:0:
202,78,75000,1,10,0:3:0:0:
235,58,75093,1,8,0:3:0:0:
274,52,75187,1,8,0:3:0:0:
312,60,75281,1,8,0:3:0:0:
345,82,75375,6,0,P|306:129|291:213,1,125.999996154785,4|4,0:0|3:0,0:0:0:0:
210,212,75937,2,0,P|233:234|251:260,1,62.9999980773926,8|0,3:0|0:0,0:0:0:0:
276,336,76312,1,4,0:3:0:0:
348,373,76500,1,4,0:3:0:0:
420,336,76687,1,4,0:3:0:0:
486,213,76875,6,0,P|463:234|445:260,1,62.9999980773926,4|0,0:3|0:0,0:0:0:0:
420,336,77250,1,4,0:3:0:0:
348,373,77437,2,0,P|274:318|267:263,1,125.999996154785,8|4,3:0|0:3,0:0:0:0:
272,274,77906,1,4,0:3:0:0:
278,259,78000,1,8,0:3:0:0:
245,237,78093,1,8,0:3:0:0:
207,230,78187,1,8,0:3:0:0:
168,238,78281,1,8,0:3:0:0:
137,261,78375,6,0,P|81:273|15:177,1,161.999995056153,4|8,0:0|3:0,0:0:0:0:
51,90,78937,2,0,L|131:76,1,80.9999975280763,4|0,3:0|0:0,0:0:0:0:
207,61,79312,1,4,3:0:0:0:
125,164,79500,2,0,L|205:178,1,80.9999975280763,8|0,3:0|0:0,0:0:0:0:
360,252,79875,6,0,P|322:185|360:118,1,161.999995056153,4|8,0:3|3:0,0:0:0:0:
512,184,80437,2,0,P|501:222|473:251,1,80.9999975280763,4|0,0:3|0:0,0:0:0:0:
402,185,80812,1,4,0:3:0:0:
294,299,81000,1,8,3:0:0:0:
184,76,81375,5,4,0:3:0:0:
292,190,81563,1,4,0:3:0:0:
328,76,81750,1,4,0:3:0:0:
220,190,81938,1,4,3:3:0:0:
112,76,82125,5,8,3:0:0:0:
292,264,82312,1,8,3:0:0:0:
400,76,82500,1,8,3:0:0:0:
220,264,82687,1,8,0:3:0:0:
256,16,82875,6,0,L|256:124,1,107.999996704102,10|0,3:0|0:0,0:0:0:0:
307,214,83156,2,0,P|256:197|206:214,1,107.999996704102,4|0,0:3|0:0,0:0:0:0:
256,280,83437,1,4,0:3:0:0:
256,124,83625,1,2,0:0:0:0:
256,124,84000,1,2,0:0:0:0:
256,124,84375,6,0,P|199:138|140:141,1,116.999994644165,4|0,0:0|0:0,0:0:0:0:
8,115,84750,1,8,3:0:0:0:
216,245,84937,2,0,P|330:263|445:244,1,233.999989288331,0|0,3:0|0:0,0:0:0:0:
497,115,85500,1,8,3:0:0:0:
271,163,85687,6,0,P|328:172|385:162,1,116.999994644165,4|0,0:3|0:0,0:0:0:0:
178,51,86062,2,0,P|141:96|120:150,1,116.999994644165,4|8,0:3|3:0,0:0:0:0:
63,344,86437,2,0,P|99:298|120:244,1,116.999994644165,4|0,0:3|0:0,0:0:0:0:
62,52,86812,1,4,0:3:0:0:
222,142,87000,2,0,P|258:188|279:242,1,116.999994644165,8|0,3:0|0:0,0:0:0:0:
450,52,87375,6,0,L|334:85,1,116.999994644165,4|0,0:0|0:0,0:0:0:0:
62,52,87750,2,0,L|178:85,1,116.999994644165,8|0,3:0|0:0,0:0:0:0:
430,269,88125,2,0,B|373:257|373:257|327:218,1,116.999994644165,2|4,0:0|0:3,0:0:0:0:
82,269,88500,2,0,B|139:257|139:257|185:218,1,116.999994644165,8|0,3:0|0:0,0:0:0:0:
337,84,88875,5,4,0:3:0:0:
175,84,89062,1,0,0:0:0:0:
256,256,89250,2,0,L|256:128,1,116.999994644165,8|0,3:0|0:0,0:0:0:0:
256,12,89625,1,4,0:3:0:0:
148,196,89812,1,8,3:0:0:0:
364,196,90000,2,0,B|404:172|404:116|379:89|379:89|404:75|430:88,1,175.499991966248,8|0,3:0|0:0,0:0:0:0:
323,136,90375,6,0,P|261:157|206:164,1,116.999994644165,4|0,0:0|0:0,0:0:0:0:
49,153,90750,1,8,3:0:0:0:
120,378,90937,2,0,P|179:284|120:191,1,233.999989288331
75,285,91500,1,8,3:0:0:0:
167,89,91687,6,0,P|216:61|283:43,1,116.999994644165,4|0,0:3|0:0,0:0:0:0:
489,182,92062,2,0,P|440:154|373:136,1,116.999994644165,4|8,0:3|3:0,0:0:0:0:
167,275,92437,2,0,P|216:247|283:229,1,116.999994644165,4|0,0:3|0:0,0:0:0:0:
489,368,92812,1,4,0:3:0:0:
358,215,93000,1,8,3:0:0:0:
260,330,93187,1,0,0:0:0:0:
129,177,93375,6,0,P|192:125|240:97,1,116.999994644165,4|0,0:0|0:0,0:0:0:0:
260,330,93750,2,0,P|183:301|135:273,1,116.999994644165,8|0,3:0|0:0,0:0:0:0:
328,141,94125,2,0,P|341:221|341:277,1,116.999994644165,2|4,0:0|0:3,0:0:0:0:
452,182,94500,1,8,3:0:0:0:
218,215,94687,6,0,L|101:200,1,116.999994644165,4|0,0:3|0:0,0:0:0:0:
352,67,95062,1,4,0:3:0:0:
160,67,95250,1,8,3:0:0:0:
294,215,95437,2,0,L|411:200,1,116.999994644165,4|0,0:3|0:0,0:0:0:0:
256,72,95812,1,4,0:3:0:0:
256,312,96000,2,0,P|208:344|208:264,1,175.499991966248,8|0,3:0|0:0,0:0:0:0:
332,312,96375,5,4,0:0:0:0:
410,200,96562,1,0,0:0:0:0:
207,264,96750,1,8,3:0:0:0:
129,152,96937,1,0,0:0:0:0:
129,152,97031,1,4,0:3:0:0:
129,152,97125,2,0,B|196:176|196:176|272:136,1,116.999994644165,4|0,0:3|0:0,0:0:0:0:
112,224,97500,1,8,3:0:0:0:
308,100,97687,2,0,B|348:78|348:78|415:102,1,116.999994644165,0|0,0:3|0:3,0:0:0:0:
189,98,98062,5,4,0:3:0:0:
354,160,98250,1,8,0:3:0:0:
219,22,98437,1,0,0:0:0:0:
219,22,98531,1,4,0:3:0:0:
219,22,98625,2,0,P|264:59|273:123,1,116.999994644165,4|0,0:3|0:0,0:0:0:0:
331,301,99000,2,0,P|286:264|277:200,1,116.999994644165,8|0,3:0|0:0,0:0:0:0:
357,9,99375,6,0,P|399:115|357:222,1,233.999989288331,4|8,3:0|3:0,0:0:0:0:
89,336,99937,1,0,0:0:0:0:
89,336,100031,1,4,3:0:0:0:
89,336,100125,2,0,B|141:308|141:308|200:309,1,116.999994644165,4|0,3:0|0:0,0:0:0:0:
384,384,100500,1,8,3:0:0:0:
312,221,100687,1,0,0:0:0:0:
143,308,100875,6,0,B|200:308|200:308|252:280,1,116.999994644165,4|0,0:3|0:0,0:0:0:0:
372,162,101250,1,8,3:0:0:0:
210,118,101437,1,0,0:0:0:0:
391,82,101625,1,8,0:3:0:0:
190,197,101812,1,8,0:3:0:0:
391,314,102000,1,8,0:3:0:0:
444,301,102093,1,8,0:3:0:0:
454,247,102187,1,8,0:3:0:0:
408,216,102281,1,8,0:3:0:0:
362,247,102375,6,0,P|311:274|251:288,1,116.999994644165,4|0,0:0|0:0,0:0:0:0:
91,304,102750,1,8,3:0:0:0:
255,175,102937,2,0,P|198:161|69:40,1,233.999989288331,0|0,0:0|0:0,0:0:0:0:
223,88,103500,1,8,0:3:0:0:
49,145,103687,6,0,P|13:197|-1:259,1,116.999994644165,4|0,0:3|3:0,0:0:0:0:
288,182,104062,2,0,P|260:124|214:81,1,116.999994644165,4|8,0:3|3:0,0:0:0:0:
135,369,104437,2,0,P|198:374|258:355,1,116.999994644165,4|0,0:3|0:0,0:0:0:0:
410,214,104812,1,4,0:3:0:0:
197,212,105000,1,8,3:0:0:0:
338,319,105187,1,0,0:0:0:0:
340,106,105375,6,0,P|264:42|230:29,1,116.999994644165,4|0,0:0|0:0,0:0:0:0:
183,284,105750,2,0,P|259:348|293:361,1,116.999994644165,8|0,3:0|0:0,0:0:0:0:
432,141,106125,2,0,P|381:169|340:211,1,116.999994644165,2|4,0:0|0:3,0:0:0:0:
85,248,106500,2,0,P|135:219|176:177,1,116.999994644165,8|0,3:0|0:0,0:0:0:0:
8,80,106875,6,0,L|27:208,1,116.999994644165,8|0,3:0|0:0,0:0:0:0:
85,248,107156,2,0,L|104:376,1,116.999994644165,8|0,0:3|0:0,0:0:0:0:
168,290,107437,1,8,3:0:0:0:
409,363,107625,6,0,L|436:182,1,175.499991966248,8|0,3:0|0:0,0:0:0:0:
325,98,108000,2,0,P|358:181|438:189,1,175.499991966248,4|0,0:3|0:0,0:0:0:0:
407,113,108375,5,4,0:0:0:0:
80,192,108656,1,0,0:0:0:0:
80,192,108750,2,0,B|120:172|120:172|165:172,1,90,2|0,0:3|0:0,0:0:0:0:
284,248,109125,1,4,0:3:0:0:
352,192,109312,1,4,0:3:0:0:
316,108,109500,1,2,0:3:0:0:
384,52,109687,1,0,0:0:0:0:
384,52,109781,1,0,0:0:0:0:
384,52,109875,6,0,P|432:100|484:112,1,90,4|0,0:3|0:0,0:0:0:0:
496,112,110156,1,0,0:0:0:0:
496,112,110250,1,2,0:3:0:0:
352,192,110437,1,4,0:3:0:0:
424,234,110625,1,0,0:0:0:0:
208,276,110812,1,4,0:3:0:0:
280,316,111000,1,2,0:3:0:0:
208,140,111187,1,0,0:0:0:0:
136,316,111375,6,0,P|96:352|52:364,1,90,4|0,0:3|0:0,0:0:0:0:
23,339,111656,1,0,0:0:0:0:
16,292,111750,2,0,P|56:256|100:244,1,90,2|0,0:3|0:0,0:0:0:0:
256,296,112125,1,4,0:3:0:0:
176,200,112312,1,4,0:3:0:0:
336,200,112500,1,2,0:3:0:0:
256,104,112687,1,0,0:0:0:0:
168,280,112875,6,0,P|126:264|101:226,1,90,4|0,0:3|0:0,0:0:0:0:
176,200,113156,1,0,0:0:0:0:
176,200,113250,1,2,0:3:0:0:
77,326,113437,1,4,0:3:0:0:
1,162,113625,1,2,0:3:0:0:
1,162,113718,1,2,0:3:0:0:
1,162,113812,1,2,0:3:0:0:
176,200,114000,1,8,0:3:0:0:
101,122,114187,1,0,0:0:0:0:
251,278,114375,6,4,L|319:342,1,90,4|0,0:0|0:0,0:0:0:0:
302,152,114750,1,0,0:3:0:0:
434,226,114937,1,4,0:3:0:0:
229,273,115125,2,0,L|278:352,1,90,0|0,0:3|0:0,0:0:0:0:
288,142,115500,1,2,0:3:0:0:
436,178,115687,1,0,0:0:0:0:
210,264,115875,6,0,L|236:353,1,90,4|0,0:3|0:0,0:0:0:0:
280,352,116156,1,0,0:0:0:0:
280,352,116250,1,2,0:3:0:0:
136,277,116437,2,0,L|85:104,1,180,4|0,0:3|0:0,0:0:0:0:
23,219,117000,1,2,0:3:0:0:
198,162,117187,1,0,0:0:0:0:
255,337,117375,5,4,0:3:0:0:
292,228,117562,1,0,0:0:0:0:
292,228,117656,1,0,0:0:0:0:
292,228,117750,1,2,0:3:0:0:
160,270,117937,2,0,L|72:262,1,90,4|0,0:3|0:0,0:0:0:0:
255,337,118312,2,0,L|344:328,1,90,4|2,0:3|0:3,0:0:0:0:
431,148,118687,6,0,P|398:229|430:311,1,180
512,229,119250,1,4,0:3:0:0:
378,95,119437,1,4,0:3:0:0:
244,229,119625,1,2,0:3:0:0:
244,229,119718,1,2,0:3:0:0:
244,229,119812,1,2,0:3:0:0:
54,229,120000,1,8,0:3:0:0:
259,301,120187,1,4,0:3:0:0:
39,157,120375,5,4,3:0:0:0:
48,144,120750,1,8,0:0:0:0:
57,131,121125,1,8,0:0:0:0:
66,118,121500,1,8,0:0:0:0:
75,105,121875,5,8,0:0:0:0:
84,92,122250,1,8,0:0:0:0:
93,79,122625,1,8,0:0:0:0:
102,66,123000,5,10,0:0:0:0:
256,168,123187,1,4,0:3:0:0:
410,66,123375,5,4,3:0:0:0:
419,79,123750,1,8,0:0:0:0:
428,92,124125,1,8,0:0:0:0:
437,105,124500,1,8,0:0:0:0:
446,118,124875,1,8,0:0:0:0:
455,131,125250,1,8,0:0:0:0:
464,144,125625,1,8,0:0:0:0:
479,163,125812,5,0,0:0:0:0:
479,163,125906,1,4,3:0:0:0:
479,163,126000,1,8,3:0:0:0:
499,13,126187,1,4,3:0:0:0:
347,159,126375,6,0,P|250:133|185:43,1,180,4|0,0:0|0:0,0:0:0:0:
0,239,126937,2,0,P|97:213|162:123,1,180,4|0,0:0|0:0,0:0:0:0:
346,319,127500,2,0,P|302:315|260:299,1,90,4|0,0:0|0:0,0:0:0:0:
156,163,127875,5,8,3:0:0:0:
156,163,127968,1,8,3:0:0:0:
156,163,128062,1,4,3:0:0:0:
122,344,128250,1,4,3:0:0:0:
71,89,128438,1,8,3:0:0:0:
71,89,128531,1,8,3:0:0:0:
71,89,128625,1,4,3:0:0:0:
105,270,128813,1,4,3:0:0:0:
286,236,129000,1,8,3:0:0:0:
329,243,129093,1,8,3:0:0:0:
365,270,129187,1,4,3:0:0:0:
383,310,129281,1,4,0:3:0:0:
379,355,129375,5,4,0:0:0:0:
436,215,129562,2,0,L|365:270,1,90,2|0,0:0|0:0,0:0:0:0:
332,153,129937,1,2,0:0:0:0:
469,332,130125,1,2,0:0:0:0:
470,131,130312,2,0,L|435:214,1,90,2|4,0:0|0:3,0:0:0:0:
256,352,130687,1,4,0:3:0:0:
180,153,130875,5,8,3:0:0:0:
384,320,131062,1,8,3:0:0:0:
128,320,131250,1,8,3:0:0:0:
332,153,131437,1,8,3:0:0:0:
30,42,131625,1,12,3:0:0:0:
482,42,132000,1,12,3:0:0:0:
426,59,133125,6,0,P|408:88|440:112,1,67.5,2|0,0:0|0:0,0:0:0:0:
394,178,133500,6,0,P|354:146|335:78,1,108,2|0,0:0|0:0,0:0:0:0:
263,35,133875,6,0,P|259:93|272:150,1,116.999994644165,4|0,0:0|0:0,0:0:0:0:
348,316,134250,1,8,3:0:0:0:
447,177,134437,1,0,0:0:0:0:
240,264,134625,2,0,P|183:276|125:272,1,116.999994644165,4|0,0:3|0:0,0:0:0:0:
0,185,135000,1,8,3:0:0:0:
153,340,135187,6,0,P|201:308|239:264,1,116.999994644165,4|0,0:3|0:0,0:0:0:0:
494,250,135562,2,0,P|445:218|407:174,1,116.999994644165,4|8,0:3|3:0,0:0:0:0:
152,9,135937,2,0,P|200:40|238:84,1,116.999994644165,4|0,0:3|0:0,0:0:0:0:
322,282,136312,1,4,0:3:0:0:
134,174,136500,1,8,3:0:0:0:
322,66,136687,1,0,0:0:0:0:
190,282,136875,6,0,L|73:280,1,116.999994644165,4|0,0:0|0:0,0:0:0:0:
322,282,137250,2,0,L|438:280,1,116.999994644165,8|0,3:0|0:0,0:0:0:0:
190,66,137625,1,4,0:3:0:0:
378,174,137812,1,0,0:0:0:0:
134,174,138000,1,8,3:0:0:0:
322,66,138187,6,0,P|400:40|440:36,1,116.999994644165,4|0,0:3|0:0,0:0:0:0:
236,228,138562,2,0,P|252:147|269:110,1,116.999994644165,4|8,0:3|3:0,0:0:0:0:
333,383,138937,2,0,P|271:328|248:295,1,116.999994644165,4|0,0:3|0:0,0:0:0:0:
176,72,139312,1,8,3:3:0:0:
432,231,139500,2,0,P|370:197|436:172,1,175.499991966248,8|0,3:0|0:0,0:0:0:0:
399,327,139875,6,0,P|342:306|295:261,1,116.999994644165,4|0,0:0|0:0,0:0:0:0:
176,72,140250,1,8,3:0:0:0:
176,312,140437,1,0,0:0:0:0:
302,102,140625,2,0,P|345:63|400:44,1,116.999994644165,4|0,0:3|0:0,0:0:0:0:
496,228,141000,1,8,3:0:0:0:
216,168,141187,6,0,P|161:187|118:226,1,116.999994644165,4|0,0:3|0:0,0:0:0:0:
356,332,141562,2,0,P|312:293|258:273,1,116.999994644165,4|8,0:3|3:0,0:0:0:0:
18,282,141937,2,0,P|73:264|117:226,1,116.999994644165,4|0,0:3|0:0,0:0:0:0:
230,14,142312,2,0,P|217:70|228:128,1,116.999994644165,4|8,0:3|3:0,0:0:0:0:
356,332,142687,1,0,0:0:0:0:
489,146,142875,6,0,L|376:176,1,116.999994644165,6|0,0:0|0:0,0:0:0:0:
200,341,143250,2,0,B|256:357|256:357|313:340,1,116.999994644165,8|0,3:0|0:0,0:0:0:0:
136,176,143625,2,0,L|22:146,1,116.999994644165,2|4,0:0|0:3,0:0:0:0:
254,273,144000,1,8,3:0:0:0:
185,73,144187,6,0,L|71:43,1,116.999994644165,4|0,0:3|0:0,0:0:0:0:
353,250,144562,1,4,0:3:0:0:
159,250,144750,1,8,3:0:0:0:
327,73,144937,2,0,L|440:43,1,116.999994644165,4|0,0:3|0:0,0:0:0:0:
256,196,145312,1,4,0:3:0:0:
440,340,145500,2,0,L|327:311,1,116.999994644165,8|0,3:0|0:0,0:0:0:0:
0,192,145875,5,4,0:0:0:0:
116,112,146062,1,0,0:0:0:0:
116,272,146250,1,8,3:0:0:0:
232,192,146437,1,0,0:0:0:0:
232,192,146531,1,4,0:3:0:0:
232,192,146625,1,4,0:3:0:0:
48,72,146812,1,0,0:0:0:0:
324,72,147000,1,8,3:0:0:0:
140,192,147187,1,0,0:0:0:0:
336,292,147375,5,4,0:3:0:0:
267,186,147562,1,0,0:0:0:0:
481,186,147750,1,8,3:0:0:0:
264,263,147937,1,0,0:0:0:0:
264,263,148031,1,4,0:3:0:0:
264,263,148125,1,4,0:3:0:0:
481,340,148312,1,0,0:0:0:0:
192,290,148500,1,8,3:0:0:0:
409,213,148687,1,0,0:0:0:0:
120,318,148875,6,0,P|62:280|56:176,1,175.499991966248,4|0,0:0|0:0,0:0:0:0:
103,92,149250,1,8,3:0:0:0:
137,224,149437,1,0,3:0:0:0:
137,224,149531,1,4,3:3:0:0:
137,224,149625,1,4,0:3:0:0:
20,112,149812,1,0,0:0:0:0:
254,112,150000,2,0,P|316:84|368:48,1,116.999994644165,8|0,3:0|0:0,0:0:0:0:
460,300,150375,6,0,P|352:253|254:190,1,233.999989288331,4|8,0:0|3:0,0:0:0:0:
192,72,150937,1,0,0:0:0:0:
148,285,151125,1,8,3:0:0:0:
361,329,151312,1,8,0:3:0:0:
165,190,151500,1,8,0:3:0:0:
95,205,151594,1,8,3:0:0:0:
55,265,151688,1,8,3:0:0:0:
68,335,151782,1,8,3:0:0:0:
125,378,151875,6,0,L|265:352,1,116.999994644165,4|0,0:0|0:0,0:0:0:0:
450,308,152250,1,8,3:0:0:0:
221,267,152437,1,0,0:0:0:0:
431,219,152625,2,0,P|481:169|504:125,1,116.999994644165,4|0,0:3|0:0,0:0:0:0:
401,3,153000,1,8,3:0:0:0:
370,268,153187,6,0,P|320:318|276:341,1,116.999994644165,4|0,0:3|0:0,0:0:0:0:
125,74,153562,2,0,P|193:92|235:118,1,116.999994644165,4|8,0:3|3:0,0:0:0:0:
80,384,153937,2,0,P|61:315|63:266,1,116.999994644165,4|0,0:3|0:0,0:0:0:0:
210,17,154312,1,4,0:3:0:0:
221,220,154500,1,8,3:0:0:0:
54,145,154687,1,0,0:0:0:0:
322,101,154875,6,0,L|462:75,1,116.999994644165,4|0,0:0|0:0,0:0:0:0:
222,300,155250,2,0,L|362:326,1,116.999994644165,8|0,3:0|0:0,0:0:0:0:
122,101,155625,2,0,L|262:75,1,116.999994644165,2|4,0:0|0:3,0:0:0:0:
22,300,156000,2,0,L|162:326,1,116.999994644165,8|0,3:0|0:0,0:0:0:0:
113,26,156375,6,0,P|55:62|49:123,1,116.999994644165,8|0,0:3|0:0,0:0:0:0:
157,199,156656,2,0,P|154:130|104:95,1,116.999994644165,8|0,3:0|0:0,0:0:0:0:
91,167,156937,1,8,3:0:0:0:
257,24,157125,6,0,P|340:41|432:85,1,175.499991966248,8|0,3:0|0:0,0:0:0:0:
512,177,157500,2,0,P|429:194|337:238,1,175.499991966248,4|0,0:3|0:0,0:0:0:0:
230,351,157875,6,0,P|166:329|138:301,1,107.999996704102,4|0,0:0|0:0,0:0:0:0:
86,148,158250,1,8,3:0:0:0:
188,198,158437,1,0,0:0:0:0:
188,198,158531,1,0,0:0:0:0:
188,198,158625,1,2,0:0:0:0:
35,250,158812,1,4,0:3:0:0:
164,119,159000,1,8,3:0:0:0:
10,172,159187,1,0,0:0:0:0:
188,198,159375,6,0,P|239:183|279:148,1,107.999996704102,2|0,0:0|0:0,0:0:0:0:
163,20,159750,1,8,3:0:0:0:
123,237,159937,2,0,P|161:273|211:290,1,107.999996704102,0|2,0:0|0:0,0:0:0:0:
401,293,160312,1,4,0:3:0:0:
306,106,160500,2,0,P|280:181|306:257,1,161.999995056153,8|0,3:0|0:0,0:0:0:0:
457,346,160875,6,0,P|477:292|452:237,1,107.999996704102,4|0,0:0|0:0,0:0:0:0:
306,107,161250,1,8,3:0:0:0:
451,108,161437,1,0,0:0:0:0:
451,108,161531,1,0,0:0:0:0:
451,108,161625,1,2,0:0:0:0:
296,247,161812,1,4,0:3:0:0:
142,108,162000,1,8,0:3:0:0:
90,96,162093,1,8,0:3:0:0:
43,120,162187,1,4,0:3:0:0:
21,168,162281,1,4,0:3:0:0:
36,219,162375,5,4,0:0:0:0:
256,100,162562,1,4,0:3:0:0:
375,319,162750,1,4,0:3:0:0:
137,319,162937,1,4,0:3:0:0:
475,219,163125,1,4,0:0:0:0:
36,219,163500,6,0,B|9:194|46:140|80:136|127:162|116:216|192:198,1,216,4|0,0:3|0:0,0:0:0:0:
356,150,163875,1,4,0:0:0:0:
