osu file format v14

[General]
AudioFilename: audio.mp3
AudioLeadIn: 0
PreviewTime: 29625
Countdown: 0
SampleSet: Soft
StackLeniency: 0.3
Mode: 0
LetterboxInBreaks: 0
WidescreenStoryboard: 0

[Editor]
Bookmarks: 34125,72375,86812,123750
DistanceSpacing: 1.2
BeatDivisor: 4
GridSize: 4
TimelineZoom: 2

[Metadata]
Title:Kill The Lights
TitleUnicode:Kill The Lights
Artist:Set It Off
ArtistUnicode:Set It Off
Creator:Cosmolade
Version:Hard
Source:
Tags:Cinematics (Expanded Edition) Equal Vision Records Reissue EVR 245 Atsuro
BeatmapID:1186316
BeatmapSetID:559814

[Difficulty]
HPDrainRate:5.5
CircleSize:3.5
OverallDifficulty:6
ApproachRate:7.5
SliderMultiplier:1.2
SliderTickRate:2

[Events]
//Background and Video events
0,0,"BG.jpg",0,0
//Break Periods
//Storyboard Layer 0 (Background)
//Storyboard Layer 1 (Fail)
//Storyboard Layer 2 (Pass)
//Storyboard Layer 3 (Foreground)
//Storyboard Sound Samples

[TimingPoints]
375,375,4,2,1,40,1,0
4687,-100,4,2,1,50,0,0
6375,-76.9230769230769,4,2,1,55,0,1
12000,-76.9230769230769,4,2,1,55,0,0
12375,-76.9230769230769,4,2,1,45,0,0
30375,-76.9230769230769,4,2,1,70,0,1
42375,-76.9230769230769,4,2,1,70,0,0
48375,-76.9230769230769,4,2,1,50,0,0
60375,-76.9230769230769,4,2,1,60,0,0
72375,-76.9230769230769,4,2,1,40,0,0
78375,-76.9230769230769,4,2,1,50,0,0
82875,-76.9230769230769,4,2,1,60,0,0
83625,-76.9230769230769,4,2,1,40,0,0
84375,-76.9230769230769,4,2,1,70,0,1
96375,-76.9230769230769,4,2,1,70,0,0
102375,-76.9230769230769,4,2,1,70,0,1
108375,-76.9230769230769,4,2,1,70,0,0
108656,-76.9230769230769,4,2,1,60,0,0
113625,-76.9230769230769,4,2,1,70,0,0
114375,-76.9230769230769,4,2,1,60,0,0
120375,-76.9230769230769,4,2,1,70,0,0
120750,-76.9230769230769,4,2,1,40,0,0
123000,-76.9230769230769,4,2,1,60,0,0
123375,-76.9230769230769,4,2,1,70,0,0
123750,-76.9230769230769,4,2,1,40,0,0
125812,-76.9230769230769,4,2,1,50,0,0
126375,-76.9230769230769,4,2,1,60,0,0
132750,-76.9230769230769,4,2,1,40,0,0
133125,-76.9230769230769,4,2,1,30,0,0
133500,-76.9230769230769,4,2,1,50,0,0
133875,-76.9230769230769,4,2,1,70,0,1
145875,-76.9230769230769,4,2,1,70,0,0
151875,-76.9230769230769,4,2,1,70,0,1
157875,-76.9230769230769,4,2,1,70,0,0
164250,-76.9230769230769,4,2,1,20,0,0

[Colours]
Combo1 : 142,146,213
Combo2 : 214,105,105
Combo3 : 186,174,133
Combo4 : 103,152,120
SliderBorder : 220,160,160
SliderTrackOverride : 175,69,69

[HitObjects]
116,116,375,6,0,L|188:64,1,60,2|0,0:0|0:0,0:0:0:0:
243,37,750,1,2,0:0:0:0:
296,108,937,2,0,P|260:124|236:125,2,60,0|2|0,0:0|0:0|0:0,0:0:0:0:
365,50,1500,1,2,0:0:0:0:
453,63,1687,1,0,0:0:0:0:
454,193,1875,6,0,P|418:225|410:253,1,60,2|0,0:0|0:0,0:0:0:0:
330,265,2250,2,0,P|346:295|382:317,1,60,2|0,0:0|0:0,0:0:0:0:
298,369,2625,1,2,0:0:0:0:
214,341,2812,2,0,B|190:317|190:317|146:309|146:309|118:269,1,120,2|0,0:0|0:0,0:0:0:0:
68,156,3375,6,0,P|88:116|124:96,1,60,2|0,0:0|0:0,0:0:0:0:
180,144,3750,1,2,0:0:0:0:
248,88,3937,2,0,L|232:16,2,60,0|2|0,0:0|0:0|0:0,0:0:0:0:
276,172,4500,1,2,0:0:0:0:
340,108,4687,1,0,0:0:0:0:
456,192,4875,6,0,P|456:248|444:272,1,60,2|0,0:0|0:0,0:0:0:0:
364,252,5250,2,0,P|358:222|362:193,1,60,2|0,0:0|0:0,0:0:0:0:
408,116,5625,2,0,P|452:100|504:120,1,90,2|0,0:0|0:0,0:0:0:0:
504,68,6000,2,0,L|448:16,1,60,4|0,1:3|0:0,0:0:0:0:
320,72,6375,6,0,P|304:114|254:144,1,77.9999964294435,4|0,0:0|0:0,0:0:0:0:
188,156,6750,2,0,L|204:48,1,77.9999964294435,8|0,3:0|0:0,0:0:0:0:
100,152,7125,2,0,L|116:64,2,77.9999964294435,2|4|8,0:0|0:3|3:0,0:0:0:0:
152,229,7687,1,0,0:0:0:0:
77,317,7875,6,0,P|121:345|157:345,1,77.9999964294435,4|0,3:0|0:0,0:0:0:0:
229,305,8250,1,8,3:0:0:0:
214,212,8437,1,0,0:0:0:0:
296,167,8625,2,0,L|384:187,1,77.9999964294435,2|4,0:0|0:3,0:0:0:0:
444,128,9000,1,8,3:0:0:0:
388,52,9187,1,0,0:0:0:0:
235,96,9375,6,0,P|207:136|207:180,1,77.9999964294435,4|0,0:0|0:0,0:0:0:0:
234,252,9750,2,0,P|270:256|314:304,1,77.9999964294435,8|0,3:0|0:0,0:0:0:0:
378,222,10125,2,0,P|396:260|385:315,2,77.9999964294435,2|4|8,0:0|0:3|3:0,0:0:0:0:
299,171,10687,1,0,0:0:0:0:
323,80,10875,5,8,3:0:0:0:
242,32,11062,1,8,3:0:0:0:
168,90,11250,1,4,3:0:0:0:
205,175,11437,1,4,3:0:0:0:
299,171,11625,2,0,B|323:171|343:151|343:151|391:155|391:155|407:131|459:123,1,155.999992858887,8|0,3:0|0:0,0:0:0:0:
440,320,12375,6,0,P|416:296|348:280,1,77.9999964294435,4|0,0:0|0:0,0:0:0:0:
284,264,12750,1,8,3:0:0:0:
200,304,12937,1,0,0:0:0:0:
116,260,13125,2,0,P|88:236|72:188,1,77.9999964294435,2|4,0:0|0:3,0:0:0:0:
132,124,13500,2,0,P|124:80|140:32,1,77.9999964294435,8|0,3:0|0:0,0:0:0:0:
340,144,13875,6,0,P|284:148|212:80,1,155.999992858887,2|8,0:0|3:0,0:0:0:0:
304,52,14437,1,0,0:0:0:0:
396,72,14625,2,0,P|424:108|432:148,1,77.9999964294435,2|4,0:0|0:3,0:0:0:0:
488,212,15000,2,0,P|464:260|436:280,1,77.9999964294435,8|0,3:0|0:0,0:0:0:0:
320,352,15375,6,0,P|304:296|312:256,1,77.9999964294435,2|4,0:0|0:3,0:0:0:0:
255,197,15750,1,8,3:0:0:0:
206,277,15937,2,0,P|206:315|191:352,1,77.9999964294435,2|0,0:0|0:0,0:0:0:0:
100,352,16312,1,4,0:3:0:0:
41,279,16500,1,8,3:0:0:0:
135,175,16687,6,0,L|214:118,1,77.9999964294435,2|0,0:0|0:0,0:0:0:0:
179,37,17062,2,0,P|119:45|87:29,2,77.9999964294435,4|8|2,0:3|3:0|0:0,0:0:0:0:
272,31,17625,1,0,0:0:0:0:
332,102,17812,1,4,0:3:0:0:
394,171,18000,2,0,L|431:139,2,38.9999982147218,8|8|8,3:0|3:0|3:0,0:0:0:0:
254,282,18375,6,0,P|210:290|158:270,1,77.9999964294435,4|0,0:0|0:0,0:0:0:0:
96,236,18750,1,8,3:0:0:0:
143,155,18937,1,0,0:0:0:0:
60,96,19125,2,0,L|136:52,1,77.9999964294435,2|4,0:0|0:3,0:0:0:0:
216,80,19500,2,0,L|324:60,1,77.9999964294435,8|0,3:0|0:0,0:0:0:0:
388,204,19875,6,0,B|340:168|316:156|316:156|244:168,1,155.999992858887,2|8,0:0|3:0,0:0:0:0:
172,224,20437,1,0,0:0:0:0:
112,296,20625,2,0,P|156:316|192:312,1,77.9999964294435,2|4,0:0|0:3,0:0:0:0:
172,224,21000,2,0,P|128:204|92:208,1,77.9999964294435,8|0,3:0|0:0,0:0:0:0:
36,136,21375,1,2,0:0:0:0:
140,52,21562,6,0,L|52:24,2,77.9999964294435,4|8|2,0:3|3:0|0:0,0:0:0:0:
229,80,22125,1,0,0:0:0:0:
316,52,22312,2,0,L|390:28,1,77.9999964294435,4|8,0:3|3:0,0:0:0:0:
432,112,22687,2,0,P|488:128|512:156,1,77.9999964294435,2|0,0:0|0:0,0:0:0:0:
496,236,23062,1,4,0:3:0:0:
472,328,23250,1,8,3:0:0:0:
348,336,23437,6,0,P|316:320|296:284,1,77.9999964294435,4|8,0:3|3:0,0:0:0:0:
256,200,23812,1,4,0:3:0:0:
215,284,24000,2,0,P|198:318|164:336,1,77.9999964294435,8|0,3:0|0:0,0:0:0:0:
172,152,24375,6,0,L|346:174,1,155.999992858887,4|4,0:0|0:3,0:0:0:0:
293,84,24937,2,0,L|205:72,1,77.9999964294435,8|0,3:0|0:0,0:0:0:0:
122,84,25312,1,4,0:3:0:0:
81,168,25500,2,0,L|109:253,1,77.9999964294435,8|0,0:3|0:0,0:0:0:0:
312,320,25875,6,0,L|188:208,1,155.999992858887,4|4,0:3|0:3,0:0:0:0:
176,124,26437,2,0,P|216:124|264:160,1,77.9999964294435,8|0,3:0|0:0,0:0:0:0:
328,192,26812,1,4,0:3:0:0:
392,124,27000,2,0,L|448:164,2,38.9999982147218,8|8|8,0:3|0:3|0:3,0:0:0:0:
248,48,27375,6,0,L|116:184,1,155.999992858887,4|4,0:0|0:3,0:0:0:0:
59,211,27937,2,0,P|43:167|55:123,1,77.9999964294435,8|0,3:0|0:0,0:0:0:0:
139,159,28312,1,4,0:3:0:0:
140,252,28500,2,0,P|116:288|72:304,1,77.9999964294435,8|8,3:0|3:0,0:0:0:0:
152,132,28875,6,0,L|237:169,1,77.9999964294435,4|4,0:0|0:3,0:0:0:0:
304,284,29250,2,0,L|219:247,1,77.9999964294435,8|0,3:0|0:0,0:0:0:0:
223,163,29625,2,0,P|296:132|315:45,1,155.999992858887,8|2,3:0|0:0,0:0:0:0:
228,72,30187,1,0,0:0:0:0:
115,153,30375,6,0,L|153:255,1,77.9999964294435,4|0,0:0|0:0,0:0:0:0:
232,252,30750,1,8,3:0:0:0:
323,268,30937,2,0,P|391:298|477:242,1,155.999992858887,0|0,0:3|0:3,0:0:0:0:
392,202,31500,1,8,3:0:0:0:
293,159,31687,6,0,P|265:121|271:75,1,77.9999964294435,4|0,0:3|0:0,0:0:0:0:
331,31,32062,2,0,P|359:69|353:115,1,77.9999964294435,4|8,0:3|3:0,0:0:0:0:
392,202,32437,2,0,P|420:240|414:286,1,77.9999964294435,4|0,0:3|0:0,0:0:0:0:
362,343,32812,2,0,P|334:305|340:259,1,77.9999964294435,4|8,0:3|3:0,0:0:0:0:
392,202,33187,1,0,0:0:0:0:
246,261,33375,6,0,P|227:295|191:317,1,77.9999964294435,4|0,0:0|0:0,0:0:0:0:
228,173,33750,2,0,P|209:123|221:71,1,77.9999964294435,8|0,3:0|0:0,0:0:0:0:
316,200,34125,2,0,P|367:193|406:210,1,77.9999964294435,2|4,0:0|0:3,0:0:0:0:
486,111,34500,2,0,P|434:112|396:91,1,77.9999964294435,8|0,3:0|0:0,0:0:0:0:
326,112,34875,2,0,P|339:53|432:18,2,155.999992858887,4|8|4,0:3|3:0|0:3,0:0:0:0:
232,115,35812,5,8,0:3:0:0:
153,166,36000,2,0,L|79:117,1,77.9999964294435,8|0,0:3|0:0,0:0:0:0:
158,254,36375,2,0,P|225:278|311:243,1,155.999992858887,4|8,0:0|3:0,0:0:0:0:
415,271,36937,2,0,P|373:303|362:340,1,77.9999964294435
452,357,37312,1,0,0:0:0:0:
506,280,37500,1,8,3:0:0:0:
475,163,37687,6,0,L|406:91,1,77.9999964294435,4|0,0:3|0:0,0:0:0:0:
344,52,38062,1,4,0:3:0:0:
265,109,38250,1,8,3:0:0:0:
172,98,38437,2,0,B|103:132|103:132|16:98,1,155.999992858887,4|4,0:3|0:3,0:0:0:0:
99,39,39000,1,8,3:0:0:0:
172,98,39187,1,0,0:0:0:0:
238,230,39375,6,0,B|302:196|302:196|394:230,1,155.999992858887,4|8,0:0|3:0,0:0:0:0:
456,169,39937,1,0,0:0:0:0:
403,91,40125,2,0,L|333:53,1,77.9999964294435,2|4,0:0|0:3,0:0:0:0:
243,77,40500,1,8,3:0:0:0:
151,97,40687,2,0,B|75:98|75:98|16:164,1,155.999992858887,4|4,0:3|0:3,0:0:0:0:
80,274,41250,6,0,P|123:258|152:229,1,77.9999964294435,8|4,3:0|0:3,0:0:0:0:
204,162,41625,1,8,0:3:0:0:
226,252,41812,1,4,0:3:0:0:
249,342,42000,1,8,3:0:0:0:
308,167,42375,6,0,L|382:227,1,77.9999964294435,4|0,0:0|0:0,0:0:0:0:
443,272,42750,1,8,3:0:0:0:
469,361,42937,2,0,P|420:361|381:338,2,77.9999964294435,0|2|4,0:0|0:0|0:3,0:0:0:0:
443,272,43500,1,8,3:0:0:0:
467,181,43687,1,0,0:0:0:0:
489,49,43875,6,0,P|449:58|414:100,1,77.9999964294435,4|0,3:0|0:0,0:0:0:0:
362,154,44250,1,8,3:0:0:0:
274,122,44437,1,0,0:0:0:0:
186,87,44625,2,0,P|146:80|102:99,1,77.9999964294435,2|0,0:0|0:0,0:0:0:0:
45,159,45000,2,0,L|84:226,1,77.9999964294435,8|0,3:0|0:0,0:0:0:0:
173,331,45375,6,0,P|186:320|204:242,1,77.9999964294435,4|0,0:0|0:0,0:0:0:0:
300,251,45750,2,0,P|279:206|231:173,1,77.9999964294435,8|0,3:0|0:0,0:0:0:0:
172,149,46125,2,0,L|104:221,2,77.9999964294435,2|4|8,0:0|0:3|3:0,0:0:0:0:
240,50,46687,6,0,L|202:17,2,38.9999982147218,0|0|8,0:0|0:0|0:3,0:0:0:0:
313,108,47062,1,4,0:3:0:0:
397,67,47250,1,4,0:3:0:0:
439,150,47437,1,4,0:3:0:0:
354,190,47625,2,0,P|322:239|371:342,1,155.999992858887,8|0,3:3|0:0,0:0:0:0:
163,326,48375,6,0,P|191:274|188:239,1,77.9999964294435,4|0,0:0|0:0,0:0:0:0:
156,168,48750,1,8,3:0:0:0:
72,212,48937,1,0,0:0:0:0:
156,168,49125,2,0,P|200:136|220:100,1,77.9999964294435,2|4,0:0|0:3,0:0:0:0:
308,120,49500,2,0,P|331:150|364:171,1,77.9999964294435,8|0,3:0|0:0,0:0:0:0:
224,24,49875,6,0,B|152:52|152:52|56:32,2,155.999992858887,2|8|2,0:0|3:0|0:0,0:0:0:0:
316,28,50812,1,4,0:3:0:0:
404,56,51000,2,0,B|468:96|468:96|480:192,1,155.999992858887,8|4,3:0|0:3,0:0:0:0:
416,324,51562,5,0,0:3:0:0:
340,268,51750,1,8,3:0:0:0:
228,312,51937,2,0,L|140:300,1,77.9999964294435,2|0,0:0|0:0,0:0:0:0:
56,288,52312,1,4,3:0:0:0:
12,208,52500,1,8,0:3:0:0:
84,108,52687,2,0,P|120:84|172:88,1,77.9999964294435,2|0,0:0|0:3,0:0:0:0:
236,112,53062,6,0,P|240:72|224:24,2,77.9999964294435,4|8|2,0:3|3:0|0:0,0:0:0:0:
268,200,53625,1,0,0:3:0:0:
195,254,53812,2,0,L|159:290,2,38.9999982147218,4|4|8,0:3|0:3|3:3,0:0:0:0:
284,288,54187,1,8,3:3:0:0:
359,172,54375,6,0,P|311:113|235:111,1,155.999992858887,4|8,0:0|3:0,0:0:0:0:
152,152,54937,1,0,0:0:0:0:
88,84,55125,2,0,L|132:20,1,77.9999964294435,2|4,0:0|0:3,0:0:0:0:
152,152,55500,2,0,L|108:216,1,77.9999964294435,8|0,3:0|0:0,0:0:0:0:
98,339,55875,6,0,B|165:368|165:368|256:320,1,155.999992858887,2|8,0:0|3:0,0:0:0:0:
278,244,56437,1,0,0:0:0:0:
357,289,56625,2,0,P|394:289|448:255,1,77.9999964294435,2|4,0:0|0:3,0:0:0:0:
416,180,57000,2,0,B|360:136|360:136|384:100|364:48,1,155.999992858887,8|4,3:0|0:3,0:0:0:0:
208,64,57562,5,0,0:0:0:0:
120,96,57750,1,8,3:0:0:0:
77,207,57937,2,0,L|77:299,1,77.9999964294435,2|0,0:0|0:0,0:0:0:0:
141,351,58312,1,4,0:3:0:0:
232,324,58500,1,8,3:0:0:0:
272,208,58687,2,0,L|272:116,1,77.9999964294435,2|0,0:0|0:0,0:0:0:0:
344,268,59062,5,4,0:3:0:0:
420,324,59250,1,8,3:0:0:0:
488,260,59437,2,0,P|492:196|476:156,1,77.9999964294435,2|0,0:0|0:0,0:0:0:0:
396,84,59812,1,4,3:3:0:0:
272,130,60000,2,0,L|168:140,1,77.9999964294435,8|8,3:0|3:0,0:0:0:0:
64,192,60375,6,0,P|136:232|164:312,1,155.999992858887,4|8,0:0|3:0,0:0:0:0:
256,316,60937,1,0,0:0:0:0:
340,272,61125,2,0,L|384:200,1,77.9999964294435,2|4,0:0|0:3,0:0:0:0:
416,120,61500,1,8,3:0:0:0:
324,128,61687,1,0,0:0:0:0:
380,205,61875,2,0,P|428:217|472:189,1,77.9999964294435,2|0,0:0|0:0,0:0:0:0:
324,128,62250,6,0,L|220:152,1,77.9999964294435,8|0,3:0|0:0,0:0:0:0:
212,232,62625,2,0,L|104:216,1,77.9999964294435,2|4,0:0|0:3,0:0:0:0:
43,200,63000,2,0,P|62:161|102:133,1,77.9999964294435,8|0,3:0|0:0,0:0:0:0:
212,232,63375,6,0,P|256:284|296:224,1,155.999992858887,4|8,3:0|3:0,0:0:0:0:
256,144,63937,1,0,0:0:0:0:
200,68,64125,2,0,P|261:48|347:121,1,155.999992858887,2|8,0:0|3:0,0:0:0:0:
401,158,64687,1,0,0:0:0:0:
398,251,64875,2,0,L|331:295,1,77.9999964294435,2|0,0:0|0:0,0:0:0:0:
204,341,65250,5,8,3:0:0:0:
155,260,65437,1,0,0:0:0:0:
207,178,65625,2,0,P|251:166|295:186,1,77.9999964294435,4|8,0:3|3:0,0:0:0:0:
247,262,66000,1,8,3:0:0:0:
155,260,66187,1,8,3:0:0:0:
104,124,66375,6,0,B|132:76|180:64|180:64|112:32,1,155.999992858887,4|8,0:0|3:0,0:0:0:0:
36,52,66937,1,0,0:0:0:0:
20,144,67125,2,0,P|32:176|88:208,1,77.9999964294435,2|4,0:0|0:3,0:0:0:0:
120,280,67500,2,0,P|97:291|36:288,2,77.9999964294435,8|0|2,3:0|0:0|0:0,0:0:0:0:
180,208,68062,1,0,0:0:0:0:
256,88,68250,6,0,P|276:124|320:152,1,77.9999964294435,8|0,3:0|0:0,0:0:0:0:
396,172,68625,2,0,P|376:208|332:236,1,77.9999964294435,2|4,0:0|0:3,0:0:0:0:
256,252,69000,2,0,P|276:288|320:316,1,77.9999964294435,8|0,3:0|0:0,0:0:0:0:
396,172,69375,6,0,B|304:148|304:148|264:96,1,155.999992858887,4|8,3:0|3:0,0:0:0:0:
188,52,69937,2,0,B|152:76|152:76|140:112,1,77.9999964294435,2|0,0:0|0:0,0:0:0:0:
48,104,70312,2,0,B|36:144|36:144|56:200,1,77.9999964294435,4|8,0:3|3:0,0:0:0:0:
143,246,70687,6,0,B|130:273|100:280|100:280|188:371,1,155.999992858887,4|4,0:3|0:3,0:0:0:0:
263,354,71250,2,0,P|304:352|346:318,1,77.9999964294435,8|0,3:0|0:0,0:0:0:0:
395,261,71625,2,0,P|427:293|471:301,1,77.9999964294435,8|0,0:3|0:0,0:0:0:0:
391,165,72000,2,0,P|339:181|315:217,1,77.9999964294435,8|0,3:0|0:0,0:0:0:0:
488,156,72375,6,0,P|468:108|360:72,1,155.999992858887,0|4,0:0|0:3,0:0:0:0:
285,88,72937,2,0,P|233:132|137:124,1,155.999992858887,8|4,3:0|0:3,0:0:0:0:
61,93,73500,1,4,0:3:0:0:
0,163,73687,1,4,0:3:0:0:
84,272,73875,6,0,P|148:296|216:368,1,155.999992858887,4|4,0:3|0:3,0:0:0:0:
280,292,74437,2,0,P|309:255|349:235,1,77.9999964294435,8|0,3:0|0:0,0:0:0:0:
428,224,74812,1,4,0:3:0:0:
492,292,75000,2,0,L|492:348,2,38.9999982147218,10|8|8,0:3|0:3|0:3,0:0:0:0:
492,136,75375,6,0,P|424:112|352:40,1,155.999992858887,4|4,0:0|3:0,0:0:0:0:
272,36,75937,2,0,B|260:72|276:100|276:100|220:108|200:176,1,155.999992858887,8|4,3:0|0:3,0:0:0:0:
220,248,76500,1,4,0:3:0:0:
296,196,76687,1,4,0:3:0:0:
132,216,76875,6,0,P|136:288|213:343,1,155.999992858887,4|4,0:3|0:3,0:0:0:0:
315,339,77437,2,0,P|374:291|380:216,1,155.999992858887,8|4,3:0|0:3,0:0:0:0:
344,128,78000,2,0,L|404:104,2,38.9999982147218,8|8|8,0:3|0:3|0:3,0:0:0:0:
204,153,78375,6,0,P|131:131|98:63,1,155.999992858887,4|8,0:0|3:0,0:0:0:0:
196,56,78937,2,0,P|248:64|272:88,1,77.9999964294435,4|0,3:0|0:0,0:0:0:0:
344,128,79312,1,4,3:0:0:0:
391,208,79500,2,0,P|423:192|471:196,1,77.9999964294435,8|0,3:0|0:0,0:0:0:0:
344,288,79875,6,0,P|272:248|184:260,1,155.999992858887,4|8,0:3|3:0,0:0:0:0:
120,304,80437,2,0,L|100:220,1,77.9999964294435,4|0,0:3|0:0,0:0:0:0:
8,212,80812,1,4,0:3:0:0:
8,212,81000,2,0,L|48:132,1,77.9999964294435,8|0,3:0|0:0,0:0:0:0:
168,116,81375,6,0,B|196:144|208:184|208:184|212:144|248:100,1,155.999992858887,4|4,0:3|0:3,0:0:0:0:
204,28,81937,1,4,3:3:0:0:
168,116,82125,2,0,L|120:200,1,77.9999964294435,8|8,3:0|3:0,0:0:0:0:
172,268,82500,1,8,3:0:0:0:
264,276,82687,1,8,0:3:0:0:
342,182,82875,6,0,P|406:127|325:149,1,233.999989288331,10|4,3:0|0:3,0:0:0:0:
260,218,83625,1,2,0:0:0:0:
192,52,84000,1,2,0:0:0:0:
108,264,84375,6,0,L|188:308,1,77.9999964294435,4|0,0:0|0:0,0:0:0:0:
260,256,84750,1,8,3:0:0:0:
344,300,84937,2,0,P|420:288|480:212,1,155.999992858887,0|0,3:0|0:0,0:0:0:0:
438,145,85500,1,8,3:0:0:0:
315,86,85687,6,0,P|275:70|215:78,1,77.9999964294435,4|0,0:3|0:0,0:0:0:0:
148,89,86062,2,0,P|115:109|92:141,1,77.9999964294435,4|8,0:3|3:0,0:0:0:0:
68,231,86437,2,0,L|120:319,1,77.9999964294435,4|0,0:3|0:0,0:0:0:0:
183,241,86812,2,0,L|235:329,1,77.9999964294435,4|8,0:3|3:0,0:0:0:0:
314,328,87187,1,0,0:0:0:0:
384,184,87375,6,0,P|312:188|236:144,1,155.999992858887,4|8,0:0|3:0,0:0:0:0:
188,72,87937,1,0,0:0:0:0:
188,72,88125,2,0,P|224:56|280:72,1,77.9999964294435,2|4,0:0|0:3,0:0:0:0:
240,148,88500,2,0,P|204:164|148:148,1,77.9999964294435,8|0,3:0|0:0,0:0:0:0:
76,176,88875,2,0,B|72:120|106:91|106:91|64:24,2,155.999992858887,4|8|4,0:3|3:0|0:3,0:0:0:0:
120,256,89812,1,8,3:0:0:0:
204,296,90000,2,0,P|212:324|204:380,1,77.9999964294435,8|0,3:0|0:0,0:0:0:0:
316,304,90375,6,0,P|292:252|320:156,1,155.999992858887,4|8,0:0|3:0,0:0:0:0:
226,131,90937,2,0,P|272:74|379:86,1,155.999992858887,0|0,0:0|0:0,0:0:0:0:
444,60,91500,2,0,P|464:80|488:132,1,77.9999964294435,8|4,3:0|0:3,0:0:0:0:
456,212,91875,2,0,B|456:288|456:288|406:358,2,155.999992858887,0|8|0,0:0|3:0|0:0,0:0:0:0:
444,120,92812,2,0,L|517:41,1,77.9999964294435,4|8,0:3|3:0,0:0:0:0:
412,20,93187,1,0,0:0:0:0:
314,110,93375,6,0,P|275:134|226:140,1,77.9999964294435,4|0,0:0|0:0,0:0:0:0:
270,230,93750,2,0,P|210:224|173:192,1,77.9999964294435,8|0,3:0|0:0,0:0:0:0:
108,250,94125,2,0,P|115:196|121:151,2,77.9999964294435,2|4|8,0:0|0:3|3:0,0:0:0:0:
199,342,94687,2,0,L|276:356,1,77.9999964294435,4|0,0:3|0:0,0:0:0:0:
369,356,95062,1,4,0:3:0:0:
410,271,95250,2,0,P|376:217|384:117,1,155.999992858887,8|0,3:0|0:0,0:0:0:0:
452,68,95812,2,0,P|486:81|522:119,2,77.9999964294435,4|8|0,0:3|3:0|0:0,0:0:0:0:
299,108,96375,6,0,L|226:176,1,77.9999964294435,4|0,0:0|0:0,0:0:0:0:
166,216,96750,1,8,3:0:0:0:
89,162,96937,1,0,0:0:0:0:
99,68,97125,2,0,P|136:78|165:104,1,77.9999964294435,4|0,0:3|0:0,0:0:0:0:
89,162,97500,2,0,L|41:330,1,155.999992858887,8|0,3:0|0:3,0:0:0:0:
134,343,98062,1,4,0:3:0:0:
251,282,98250,6,0,P|283:259|303:199,1,77.9999964294435,8|0,0:3|0:0,0:0:0:0:
303,131,98625,2,0,L|224:146,1,77.9999964294435,4|0,0:3|0:0,0:0:0:0:
300,225,99000,2,0,L|375:249,1,77.9999964294435,8|0,3:0|0:0,0:0:0:0:
303,131,99375,2,0,P|258:77|160:101,1,155.999992858887,4|8,3:0|3:0,0:0:0:0:
101,131,99937,1,0,0:0:0:0:
142,294,100125,6,0,B|69:276|69:276|32:185,1,155.999992858887,4|8,3:0|3:0,0:0:0:0:
101,131,100687,2,0,B|174:149|174:149|211:240,1,155.999992858887,0|0,0:0|0:0,0:0:0:0:
258,301,101250,2,0,P|289:263|296:222,1,77.9999964294435,8|0,3:0|0:0,0:0:0:0:
388,223,101625,2,0,P|366:172|324:150,1,77.9999964294435,8|8,0:3|0:3,0:0:0:0:
282,93,102000,2,0,L|232:116,2,38.9999982147218,8|8|8,0:3|0:3|0:3,0:0:0:0:
418,41,102375,6,0,L|474:194,1,155.999992858887,4|8,0:0|3:0,0:0:0:0:
452,280,102937,2,0,P|392:272|292:324,1,155.999992858887,0|0,0:0|0:0,0:0:0:0:
220,344,103500,1,8,0:3:0:0:
160,224,103687,6,0,P|184:248|248:252,1,77.9999964294435,4|0,0:3|3:0,0:0:0:0:
231,163,104062,2,0,P|206:133|203:94,1,77.9999964294435,4|8,0:3|3:0,0:0:0:0:
295,103,104437,2,0,P|331:118|359:145,1,77.9999964294435,4|0,0:3|0:0,0:0:0:0:
428,84,104812,2,0,P|448:144|440:180,1,77.9999964294435,4|8,0:3|3:0,0:0:0:0:
388,232,105187,1,0,0:0:0:0:
296,104,105375,6,0,P|224:80|132:84,1,155.999992858887,4|8,0:0|3:0,0:0:0:0:
60,120,105937,1,0,0:0:0:0:
108,200,106125,2,0,L|56:276,1,77.9999964294435,2|4,0:0|0:3,0:0:0:0:
152,292,106500,2,0,L|128:384,1,77.9999964294435,8|0,3:0|0:0,0:0:0:0:
240,328,106875,2,0,P|260:296|308:272,1,77.9999964294435,8|0,3:0|0:0,0:0:0:0:
384,256,107250,5,0,0:0:0:0:
344,340,107437,1,8,3:0:0:0:
384,256,107625,2,0,P|448:252|488:276,1,77.9999964294435,8|0,3:0|0:0,0:0:0:0:
504,152,108000,2,0,P|440:156|400:132,1,77.9999964294435,4|0,0:3|0:0,0:0:0:0:
328,72,108375,6,0,P|348:120|296:212,1,155.999992858887,4|2,0:0|0:3,0:0:0:0:
256,128,108937,1,0,0:0:0:0:
207,207,109125,2,0,P|164:144|183:71,1,155.999992858887,4|2,0:3|0:3,0:0:0:0:
96,32,109687,1,0,0:0:0:0:
25,122,109875,5,4,0:3:0:0:
29,214,110062,2,0,P|61:254|61:294,1,77.9999964294435,0|2,0:0|0:3,0:0:0:0:
145,324,110437,2,0,L|225:268,1,77.9999964294435,4|0,0:3|0:0,0:0:0:0:
290,325,110812,2,0,L|226:369,1,77.9999964294435,4|2,0:3|0:3,0:0:0:0:
208,279,111187,1,0,0:0:0:0:
316,228,111375,6,0,P|364:260|416:264,1,77.9999964294435,4|0,0:3|0:0,0:0:0:0:
399,171,111750,2,0,B|371:147|371:147|363:87,1,77.9999964294435,2|0,0:3|0:0,0:0:0:0:
264,44,112125,2,0,P|220:80|96:64,1,155.999992858887,4|2,0:3|0:3,0:0:0:0:
33,104,112687,1,0,0:0:0:0:
86,181,112875,6,0,P|46:198|11:196,2,77.9999964294435,4|0|2,0:3|0:0|0:3,0:0:0:0:
172,217,113437,2,0,P|200:265|204:297,1,77.9999964294435,4|2,0:3|0:3,0:0:0:0:
257,363,113812,1,2,0:3:0:0:
311,286,114000,2,0,P|320:248|342:216,1,77.9999964294435,8|0,0:3|0:0,0:0:0:0:
456,64,114375,6,0,L|356:96,1,77.9999964294435,4|0,0:0|0:0,0:0:0:0:
288,108,114750,1,0,0:3:0:0:
200,136,114937,1,4,0:3:0:0:
112,168,115125,2,0,P|108:128|128:80,1,77.9999964294435,0|0,0:3|0:0,0:0:0:0:
200,136,115500,2,0,P|204:176|184:224,1,77.9999964294435,2|0,0:3|0:0,0:0:0:0:
102,304,115875,6,0,P|62:300|22:264,2,77.9999964294435,4|0|2,0:3|0:0|0:3,0:0:0:0:
195,308,116437,1,4,0:3:0:0:
274,258,116625,2,0,L|446:294,1,155.999992858887,0|2,0:0|0:3,0:0:0:0:
479,212,117187,1,0,0:0:0:0:
448,88,117375,6,0,P|408:88|360:132,1,77.9999964294435,4|0,0:3|0:0,0:0:0:0:
292,148,117750,1,2,0:3:0:0:
208,108,117937,2,0,L|100:88,1,77.9999964294435,4|0,0:3|0:0,0:0:0:0:
60,156,118312,2,0,P|88:172|120:220,1,77.9999964294435,4|2,0:3|0:3,0:0:0:0:
188,320,118687,6,0,P|196:264|220:228,1,77.9999964294435
272,180,119062,1,0,0:0:0:0:
364,168,119250,2,0,L|456:160,1,77.9999964294435,4|4,0:3|0:3,0:0:0:0:
480,76,119625,2,0,L|516:100,2,38.9999982147218,2|2|2,0:3|0:3|0:3,0:0:0:0:
388,52,120000,2,0,P|345:50|308:28,1,77.9999964294435,8|4,0:3|0:3,0:0:0:0:
179,156,120375,6,0,P|204:126|239:109,1,77.9999964294435,4|0,3:0|0:0,0:0:0:0:
327,140,120750,2,0,P|340:177|336:216,1,77.9999964294435,8|0,0:0|0:0,0:0:0:0:
299,302,121125,2,0,P|222:300|166:248,1,155.999992858887,8|8,0:0|0:0,0:0:0:0:
180,156,121687,1,0,0:0:0:0:
88,136,121875,6,0,L|122:66,2,77.9999964294435,8|0|8,0:0|0:0|0:0,0:0:0:0:
180,156,122437,2,0,L|220:76,1,77.9999964294435,0|8,0:0|0:0,0:0:0:0:
316,84,122812,2,0,L|281:153,1,77.9999964294435,0|10,0:0|0:0,0:0:0:0:
214,86,123187,1,4,0:3:0:0:
316,232,123375,6,0,P|272:240|232:224,1,77.9999964294435,4|0,3:0|0:0,0:0:0:0:
139,83,123750,2,0,P|183:75|223:91,1,77.9999964294435,8|0,0:0|0:0,0:0:0:0:
100,168,124125,2,0,P|60:136|72:20,1,155.999992858887,8|8,0:0|0:0,0:0:0:0:
139,83,124687,1,0,0:0:0:0:
174,224,124875,6,0,P|162:276|122:308,2,77.9999964294435,8|0|8,0:0|0:0|0:0,0:0:0:0:
258,182,125437,2,0,P|238:148|204:130,1,77.9999964294435,0|8,0:0|0:0,0:0:0:0:
174,224,125812,1,0,0:0:0:0:
250,278,126000,2,0,L|348:235,1,77.9999964294435,8|4,3:0|3:0,0:0:0:0:
453,273,126375,6,0,B|371:314|371:314|365:353|317:385,1,155.999992858887,4|0,0:0|0:0,0:0:0:0:
215,345,126937,2,0,P|178:332|128:327,1,77.9999964294435,4|0,0:0|0:0,0:0:0:0:
46,313,127312,1,0,0:0:0:0:
56,219,127500,2,0,L|107:147,1,77.9999964294435,4|0,0:0|0:0,0:0:0:0:
168,40,127875,6,0,P|148:32|116:28,2,38.9999982147218,8|8|4,3:0|3:0|3:0,0:0:0:0:
256,72,128250,1,4,3:0:0:0:
344,40,128437,2,0,P|364:32|396:28,2,38.9999982147218,8|8|4,3:0|3:0|3:0,0:0:0:0:
408,108,128812,2,0,P|388:116|356:120,2,38.9999982147218,4|0|8,3:0|0:0|3:0,0:0:0:0:
468,36,129187,1,4,3:0:0:0:
452,192,129375,6,0,P|408:208|348:304,1,155.999992858887,4|0,0:0|0:0,0:0:0:0:
260,328,129937,2,0,P|208:296|192:264,1,77.9999964294435,2|2,0:0|0:0,0:0:0:0:
112,312,130312,2,0,P|112:256|132:220,1,77.9999964294435,2|4,0:0|0:3,0:0:0:0:
46,178,130687,2,0,P|77:150|124:142,1,77.9999964294435,4|8,0:3|3:0,0:0:0:0:
202,89,131062,1,8,3:0:0:0:
310,89,131250,1,8,3:0:0:0:
257,170,131437,1,8,3:0:0:0:
202,89,131625,6,0,L|113:41,1,77.9999964294435,12|0,3:0|0:0,0:0:0:0:
310,89,132000,2,0,L|384:129,1,77.9999964294435,12|0,3:0|0:0,0:0:0:0:
33,189,133125,1,2,0:0:0:0:
156,48,133500,1,2,0:0:0:0:
284,189,133875,6,0,L|326:269,1,77.9999964294435,4|0,0:0|0:0,0:0:0:0:
357,343,134250,1,8,3:0:0:0:
444,309,134437,1,0,0:0:0:0:
457,216,134625,2,0,B|425:148|425:148|447:63,1,155.999992858887,4|8,0:3|3:0,0:0:0:0:
325,16,135187,6,0,L|300:97,1,77.9999964294435,4|0,0:3|0:0,0:0:0:0:
250,169,135562,1,4,0:3:0:0:
191,95,135750,1,8,3:0:0:0:
122,158,135937,2,0,P|101:118|103:79,1,77.9999964294435,4|0,0:3|0:0,0:0:0:0:
28,172,136312,2,0,L|39:264,1,77.9999964294435,4|8,0:3|3:0,0:0:0:0:
112,305,136687,1,0,0:0:0:0:
249,329,136875,6,0,P|307:282|313:191,1,155.999992858887,4|8,0:0|3:0,0:0:0:0:
249,140,137437,1,0,0:0:0:0:
335,102,137625,2,0,P|376:117|404:144,1,77.9999964294435,4|0,0:3|0:0,0:0:0:0:
249,140,138000,2,0,L|139:117,1,77.9999964294435,8|4,3:0|0:3,0:0:0:0:
230,19,138375,6,0,L|337:39,1,77.9999964294435,0|4,0:0|0:3,0:0:0:0:
399,10,138750,1,8,3:0:0:0:
399,10,138937,2,0,L|489:40,1,77.9999964294435,4|0,0:3|0:0,0:0:0:0:
484,127,139312,1,8,3:3:0:0:
453,215,139500,2,0,P|426:248|375:270,1,77.9999964294435,8|0,3:0|0:0,0:0:0:0:
243,307,139875,6,0,B|176:282|176:282|128:303|70:289,1,155.999992858887,4|8,0:0|3:0,0:0:0:0:
38,217,140437,1,0,0:0:0:0:
38,217,140625,2,0,P|87:203|133:105,1,155.999992858887,4|8,0:3|3:0,0:0:0:0:
240,50,141187,6,0,L|258:146,1,77.9999964294435,4|0,0:3|0:0,0:0:0:0:
339,86,141562,2,0,L|357:182,1,77.9999964294435,4|8,0:3|3:0,0:0:0:0:
401,243,141937,1,4,0:3:0:0:
468,183,142125,2,0,L|486:74,2,77.9999964294435,0|4|8,0:0|0:3|3:0,0:0:0:0:
401,243,142687,1,0,0:0:0:0:
325,327,142875,6,0,P|397:358|485:312,2,155.999992858887,6|8|2,0:0|3:0|0:0,0:0:0:0:
258,260,143812,1,4,0:3:0:0:
165,274,144000,2,0,B|91:253|91:253|51:179,1,155.999992858887,8|0,3:0|0:0,0:0:0:0:
56,90,144562,1,4,0:3:0:0:
149,100,144750,5,8,3:0:0:0:
149,100,144937,2,0,L|251:59,1,77.9999964294435,4|0,0:3|0:0,0:0:0:0:
250,160,145312,2,0,B|321:133|321:133|388:191,1,155.999992858887,4|0,0:3|0:0,0:0:0:0:
461,314,145875,6,0,P|422:332|361:329,1,77.9999964294435,4|0,0:0|0:0,0:0:0:0:
297,306,146250,2,0,P|247:307|201:339,1,77.9999964294435,8|0,3:0|0:0,0:0:0:0:
140,273,146625,2,0,P|131:320|143:360,2,77.9999964294435,4|0|8,0:3|0:0|3:0,0:0:0:0:
192,195,147187,1,0,0:0:0:0:
148,112,147375,2,0,L|208:36,1,77.9999964294435,4|0,0:3|0:0,0:0:0:0:
331,37,147750,6,0,P|334:82|302:140,1,77.9999964294435,8|0,3:0|0:0,0:0:0:0:
411,145,148125,2,0,P|399:182|403:220,1,77.9999964294435,4|0,0:3|0:0,0:0:0:0:
449,302,148500,1,8,3:0:0:0:
370,351,148687,1,0,0:0:0:0:
251,306,148875,2,0,P|179:291|78:321,1,155.999992858887,4|8,0:0|3:0,0:0:0:0:
28,248,149437,1,0,3:0:0:0:
108,160,149625,6,0,B|72:128|24:132|24:132|72:56,1,155.999992858887,4|8,0:3|3:0,0:0:0:0:
152,60,150187,1,0,0:0:0:0:
208,136,150375,2,0,B|258:195|258:195|323:124,1,155.999992858887,4|8,0:0|3:0,0:0:0:0:
384,76,150937,1,0,0:0:0:0:
449,145,151125,2,0,P|461:204|439:250,1,77.9999964294435,8|8,3:0|0:3,0:0:0:0:
416,304,151500,2,0,L|461:340,2,38.9999982147218,8|8|8,0:3|3:0|3:0,0:0:0:0:
296,245,151875,6,0,P|267:288|240:314,1,77.9999964294435,4|0,0:0|0:0,0:0:0:0:
165,349,152250,1,8,3:0:0:0:
79,310,152437,2,0,B|60:272|60:272|87:147,1,155.999992858887,0|0,0:0|0:0,0:0:0:0:
106,69,153000,1,8,3:0:0:0:
207,143,153187,6,0,P|232:173|249:235,1,77.9999964294435,4|0,0:3|0:0,0:0:0:0:
298,286,153562,2,0,P|326:251|381:222,1,77.9999964294435,4|8,0:3|3:0,0:0:0:0:
391,146,153937,2,0,P|321:133|281:54,1,155.999992858887,4|4,0:3|0:3,0:0:0:0:
374,51,154500,1,8,3:0:0:0:
462,79,154687,1,0,0:0:0:0:
460,218,154875,6,0,P|475:303|428:361,2,155.999992858887,4|8|2,0:0|3:0|0:0,0:0:0:0:
389,280,155812,1,4,0:3:0:0:
326,210,156000,2,0,P|276:247|238:246,1,77.9999964294435,8|0,3:0|0:0,0:0:0:0:
293,337,156375,2,0,P|227:337|171:255,1,155.999992858887,8|0,0:3|0:0,0:0:0:0:
165,178,156937,1,8,3:0:0:0:
111,102,157125,2,0,L|212:63,1,77.9999964294435,8|0,3:0|0:0,0:0:0:0:
165,178,157500,2,0,L|93:207,1,77.9999964294435,4|0,0:3|0:0,0:0:0:0:
183,73,157875,6,0,P|258:92|357:57,1,155.999992858887,4|8,0:0|3:0,0:0:0:0:
423,46,158437,1,0,0:0:0:0:
423,46,158625,2,0,L|473:137,1,77.9999964294435,2|4,0:0|0:3,0:0:0:0:
393,179,159000,2,0,L|443:270,1,77.9999964294435,8|0,3:0|0:0,0:0:0:0:
366,316,159375,2,0,B|286:297|286:297|204:324,1,155.999992858887,2|8,0:0|3:0,0:0:0:0:
101,282,159937,6,0,P|127:237|162:222,1,77.9999964294435,0|2,0:0|0:0,0:0:0:0:
148,131,160312,1,4,0:3:0:0:
148,131,160500,2,0,P|116:109|100:74,1,77.9999964294435,8|0,3:0|0:0,0:0:0:0:
259,36,160875,6,0,P|285:95|244:202,1,155.999992858887,4|8,0:0|3:0,0:0:0:0:
333,243,161437,1,0,0:0:0:0:
414,196,161625,2,0,P|438:228|447:294,1,77.9999964294435,2|4,0:0|0:3,0:0:0:0:
367,311,162000,2,0,P|343:279|334:213,1,77.9999964294435,8|4,0:3|0:3,0:0:0:0:
310,121,162375,6,0,B|329:99|329:99|347:92|347:92|379:57,2,77.9999964294435,4|4|4,0:0|0:3|0:3,0:0:0:0:
257,199,162937,1,4,0:3:0:0:
202,122,163125,2,0,P|193:78|218:25,1,77.9999964294435,4|0,0:0|0:0,0:0:0:0:
310,46,163500,2,0,P|319:84|310:122,1,77.9999964294435,4|0,0:3|0:0,0:0:0:0:
257,199,163875,5,4,0:0:0:0:
